#TITLE:Wiggly Party;
#SUBTITLE:;
#ARTIST:The Wiggles;
#TITLETRANSLIT:;
#SUBTITLETRANSLIT:;
#ARTISTTRANSLIT:;
#GENRE:;
#CREDIT:8Chasey 2024;
#MUSIC:Wiggly Party.ogg;
#BANNER:Wiggly Party-bn.png;
#BACKGROUND:;
#CDTITLE:cdtitle.png;
#SAMPLESTART:35.22;
#SAMPLELENGTH:12;
#SELECTABLE:YES;
#OFFSET:-0.236;
#BPMS:0.000=130.000
,1.000=137.000
,2.000=134.000
,4.000=126.000
,5.000=136.000
,6.000=130.000
,7.000=125.000
,8.000=130.000
,11.000=135.000
,12.000=124.000
,13.000=135.000
,16.000=130.000
,20.000=127.000
,22.000=130.000
,23.000=132.000
,25.000=128.000
,28.000=130.000
,29.000=129.000
,33.000=134.000
,34.000=133.000
,36.000=124.000
,37.000=131.000
,38.000=123.000
,39.000=120.000
,40.000=132.000
,41.000=136.000
,42.000=133.000
,43.000=136.000
,44.000=133.000
,45.000=129.000
,47.000=127.000
,48.000=128.000
,49.000=132.000
,50.000=127.000
,51.000=128.000
,52.000=131.000
,57.000=130.000
,68.000=131.000
,76.000=128.000
,77.000=130.000
,80.000=129.000
,84.000=130.000
,101.000=127.000
,102.000=133.000
,104.000=138.000
,105.000=145.000
,106.000=124.000
,107.000=117.000
,108.000=125.000
,109.000=129.000
,114.000=132.000
,116.000=129.000
,120.000=132.000
,122.000=130.000
,124.000=132.000
,126.000=130.000
,131.000=127.000
,132.000=133.000
,133.000=130.000
,137.000=132.000
,140.000=126.000
,141.000=130.000
,143.000=124.000
,144.000=135.000
,145.000=127.000
,146.000=133.000
,147.000=126.000
,148.000=130.000
,149.000=131.000
,153.000=125.000
,154.000=136.000
,155.000=127.000
,156.000=129.000
,158.000=130.000
,159.000=133.000
,161.000=126.000
,162.000=132.000
,164.000=124.000
,166.000=123.000
,167.000=135.000
,168.000=144.000
,169.000=148.000
,170.000=130.000
,171.000=118.000
,172.000=126.000
,173.000=132.000
,174.000=124.000
,175.000=125.000
,176.000=135.000
,177.000=129.000
,178.000=143.000
,179.000=126.000
,180.000=130.000
,194.000=133.000
,197.000=126.000
,198.000=130.000
,203.000=125.000
,204.000=130.000
,207.000=127.000
,208.000=136.000
,210.000=130.000
,211.000=125.000
,212.000=128.000
,215.000=131.000
,217.000=130.000
,224.000=128.000
,226.000=133.000
,229.000=125.000
,230.000=130.000
,236.000=128.000
,239.000=134.000
,241.000=132.000
,242.000=129.000
,243.000=130.000
;
#STOPS:;
#DISPLAYBPM:130.000;
#BGCHANGES:;
#FGCHANGES:;

//--------------- dance-single - ----------------
#NOTES:
     dance-single:
     :
     Beginner:
     2:
     0,0,0,0,0:
0000
0000
0000
0000
,
0000
0000
0000
0000
,
0000
0000
0000
0000
,
1001
0000
1000
0000
,
0001
0000
1000
0000
,
1001
0000
0001
0000
,
1000
0000
0001
0000
,
1001
0000
0100
0000
,
1001
0000
0010
0000
,
1001
0000
0100
0000
,
0100
0100
0100
0000
,
0010
0000
1000
0000
,
1000
0000
0010
0000
,
0100
0000
0001
0000
,
0001
0000
0100
0000
,
0001
0000
1000
0000
,
0001
0000
1000
0000
,
0001
0000
0000
0000
,
1000
1000
1000
0000
,
1001
0000
1000
0000
,
0001
0000
1000
0000
,
1001
0000
0001
0000
,
1000
0000
0001
0000
,
1001
0000
0100
0000
,
1001
0000
0010
0000
,
1001
0000
0010
0000
,
0010
0010
0010
0000
,
0001
0000
0010
0000
,
0001
0000
0001
0000
,
1000
0000
0100
0000
,
1000
0000
1000
0000
,
0001
0000
0100
0000
,
1000
0000
0010
0000
,
0100
0000
0010
0000
,
0001
0000
1000
0000
,
1001
0000
0001
0000
,
1000
0000
0001
0000
,
1001
0000
1000
0000
,
0001
0000
1000
0000
,
1001
0000
0010
0000
,
1001
0000
0100
0000
,
0110
0000
0010
0000
,
0100
0000
0010
0000
,
0100
0000
0100
0000
,
1001
0000
0001
0000
,
1001
0000
1000
0000
,
0010
0010
0010
0000
,
1001
0000
0100
0000
,
0001
0000
1000
0000
,
0010
0010
0010
0000
,
1000
1000
1000
0000
,
0100
0100
0100
0000
,
0001
0001
0001
0000
,
1000
0000
0001
0000
,
0010
0000
0100
0000
,
0001
0001
0001
0000
,
1000
0000
0001
0000
,
1000
1000
1000
0000
,
0001
0000
1000
0000
;

//--------------- dance-single - ----------------
#NOTES:
     dance-single:
     :
     Easy:
     4:
     0,0,0,0,0:
0000
0000
0000
0000
,
0000
0000
0000
0000
,
0000
0000
0000
0000
,
0001
0001
0010
0001
,
1000
1000
0010
1000
,
0001
0001
0100
0001
,
1000
1000
0100
1000
,
0010
1000
0001
0100
,
0010
0001
1000
0100
,
0010
0010
0100
0100
,
0010
0100
0010
0000
,
1001
0000
1000
0001
,
0010
0100
0010
0000
,
1000
1000
0010
0010
,
0001
0001
0100
0100
,
0110
0000
1000
0010
,
1000
0100
0001
0000
,
0001
0010
0001
0000
,
1000
0001
1000
0001
,
1000
1000
0010
1000
,
0001
0001
0100
0001
,
1000
1000
0100
1000
,
0001
0001
0010
0001
,
1000
0100
0001
0000
,
1000
0010
0001
0000
,
0010
0010
0100
0100
,
0010
0100
0010
0000
,
1001
0000
0001
0010
,
0001
1000
0010
0000
,
0100
0010
1000
0100
,
0010
0001
0100
0100
,
0110
0000
0010
1000
,
0001
0010
1000
0000
,
0001
0100
0001
0000
,
1000
0010
0100
0001
,
1000
0010
0010
1000
,
0001
0100
0100
0001
,
1000
0100
0100
1000
,
0001
0010
0010
0001
,
1000
0001
1000
0000
,
0001
1000
0001
0000
,
0010
0010
0100
0100
,
0010
0100
0010
0000
,
0100
0100
0010
0010
,
0100
0010
0100
0000
,
0001
0100
0100
0001
,
1000
0001
1000
0001
,
1000
0100
0100
1000
,
0001
1000
0001
1000
,
0010
1000
0010
0100
,
0010
0001
0010
0000
,
1001
0001
0001
0010
,
0100
1000
1000
0010
,
1001
1000
0001
1000
,
0001
0010
0001
0010
,
1001
0001
0100
0001
,
1000
0100
1000
0010
,
0110
0000
0100
0000
,
0010
1000
0001
0100
;

//--------------- dance-single - ----------------
#NOTES:
     dance-single:
     :
     Medium:
     6:
     0,0,0,0,0:
0000
0000
0000
0000
,
0000
0000
0000
0000
,
0000
0000
0000
0000
,
0001
0000
1000
0010
0000
0010
0100
0000
,
0001
0010
0001
0010
0100
0000
1000
0000
,
1000
0000
0001
0100
0000
0010
0100
0000
,
1000
0100
1000
0100
0010
0000
0100
0000
,
0010
0001
1000
0000
0100
1000
0001
0000
,
1000
0001
1000
0001
1000
0000
0001
0000
,
0010
0100
0010
0100
,
0010
0100
0010
0000
0100
0010
0100
0000
,
1001
0000
1000
0000
0001
0000
0010
0001
,
0000
1000
0000
0010
0100
0000
0100
0000
,
1100
0000
1000
0100
1000
0100
0000
0010
,
0001
0100
0010
0100
,
0101
0000
1000
0000
0001
0000
0010
0001
,
0000
1000
0000
1000
0010
0000
0100
0000
,
0001
0010
0001
0000
1000
0100
1000
0000
,
0001
0010
0100
1000
,
0010
0000
0100
0001
0000
0001
1000
0000
,
0010
1000
0010
1000
0100
0000
1000
0000
,
0001
0000
0010
0100
0000
0100
1000
0000
,
0001
0100
0001
0100
0010
0000
1000
0000
,
0001
1000
0010
0000
1000
0001
0100
0000
,
0001
1000
0001
1000
0001
0000
1000
0000
,
0010
0010
0100
0100
,
0010
0100
0010
0000
0100
0010
0100
0000
,
0110
0000
1000
0000
0100
0000
0001
0010
,
0000
0010
0001
0000
1000
0000
0010
0000
,
1010
0000
1000
0100
0001
0000
1000
0000
,
0100
0000
0010
0001
1000
0000
0001
0000
,
0011
0000
0100
0000
0010
0000
1000
0100
,
0000
0100
1000
0000
0001
0010
0100
0000
,
1000
0010
1000
0000
0001
0100
0001
0000
,
1000
0100
0010
0001
,
1000
0000
1010
0000
0100
0001
0100
0000
,
0001
1000
0001
1000
0100
0000
0010
0000
,
0001
0000
0011
0000
0010
0100
0010
0000
,
0100
1000
0001
0100
0010
0000
0100
0000
,
0001
0010
0001
0000
1000
0010
1000
0000
,
0001
0100
0001
0000
1000
0100
1000
0000
,
0010
0010
0100
0100
,
0010
0100
0010
0000
0100
0010
0100
0000
,
0100
0100
0010
0010
,
0100
0010
0100
0000
0010
0100
0010
0000
,
1000
0000
1001
0000
0100
0001
0010
0000
,
0001
1000
0100
1000
0001
0000
0010
0000
,
0001
0000
1001
0000
0100
1000
0010
0000
,
1000
0001
0100
0001
1000
0000
0010
0000
,
0100
0000
0101
0000
1000
0100
1000
0000
,
0100
0000
1100
0000
0001
0100
0001
0000
,
0010
0001
0100
0000
0010
1000
0100
0000
,
1000
0001
1000
0000
0001
1000
0001
0000
,
0100
0001
0010
0000
0001
0000
1000
0000
,
0100
1000
0010
0000
1000
0000
0001
0000
,
1001
0000
1000
0000
0010
1000
0001
0000
,
0010
0001
1000
0000
0001
0000
0100
0000
,
0010
0000
1001
0000
0100
0001
1000
0000
,
0100
0010
0100
0010
0001
0000
1000
0000
;

//--------------- dance-single - ----------------
#NOTES:
     dance-single:
     :
     Hard:
     9:
     0,0,0,0,0:
0000
0000
0000
0000
,
0000
0000
0000
0000
,
0000
0000
0000
0000
,
1001
0000
0001
0000
1000
0000
0100
1000
0100
0000
1000
0000
0010
0000
0000
0000
,
0100
0001
1000
0001
0020
0000
0130
0000
,
0110
0000
0100
0000
1000
0000
0001
1000
0001
0000
0100
0000
0010
0000
0000
0000
,
1000
0001
0010
0001
0200
0000
0310
0000
,
1010
0000
1000
0000
0001
0000
0010
0001
0010
0000
0001
0000
0100
0000
0000
0000
,
0011
0000
0001
0000
1000
0000
0010
1000
0010
0000
1000
0000
0100
0000
0000
0000
,
1000
0001
0100
0000
0010
0010
0010
0000
,
1000
0001
1000
0000
0001
0000
0000
0000
0010
0000
0100
0000
0010
0000
0000
0000
,
0201
0000
0310
0000
1000
0010
1000
0001
,
0100
0000
0001
0100
0001
0000
1000
0000
0010
0000
1000
0000
0001
0000
0000
0000
,
0010
0000
0001
0000
1000
0000
0100
1000
0100
0000
1000
0000
0001
0000
0100
0000
,
0001
0000
1000
0010
1000
0000
0001
0000
2000
0000
0000
0000
3100
0000
0000
0000
,
1020
0000
0130
0000
0001
0010
0001
1000
,
0100
0000
1000
0001
1000
0000
0001
0000
0100
0000
0001
0000
0010
0000
0000
0000
,
0100
0000
1000
0010
1000
0000
0001
0000
0100
0000
0001
0000
0010
0000
0001
0000
,
1000
0000
0100
1000
0100
0000
1000
0000
0002
0000
0000
0000
0013
0000
0100
0000
,
0110
0000
0100
0000
1000
0000
0010
1000
0010
0000
1000
0000
0001
0000
0100
0000
,
0001
0010
0001
1000
0100
1000
0010
0000
,
1010
0000
1000
0001
1000
0000
0001
0000
0100
0000
0001
0000
0010
0000
0001
0000
,
0100
0000
0001
0000
1000
0000
0100
0000
0010
0100
0010
0000
0100
0000
0000
0000
,
0011
0000
0001
1000
0001
0000
1000
0000
0100
0000
1000
0000
0010
0000
1000
0000
,
0100
0000
1000
0000
0001
0000
0100
0000
0010
0100
0010
0000
0100
0000
0000
0000
,
0001
1000
0100
0000
0010
0010
0010
0000
,
0001
1000
0001
0000
1000
0000
0000
0000
0010
0000
0100
0000
0010
0000
0000
0000
,
2010
0000
3100
1000
0001
0000
0010
0001
,
1000
0000
0001
0100
0001
0000
0100
0000
0020
0000
0000
0000
1030
0000
0000
0000
,
0100
1000
0001
0100
0001
0011
0000
0010
,
0001
0000
1000
0000
0100
0000
1000
0010
2000
0000
0000
0000
3100
0000
0000
0000
,
0012
0000
0103
0001
1000
0000
0010
1000
,
0001
0000
1000
0010
1000
0000
0100
0000
0020
0000
0000
0000
0031
0000
0000
0000
,
0010
0001
1000
0100
1000
0010
0100
0010
,
1000
0000
0100
0000
0010
0000
0001
0010
0002
0000
0000
0000
0103
0000
0010
0000
,
1010
0000
1000
0000
0001
0000
0100
0001
0100
0000
0010
0000
0200
0000
0000
0000
,
0301
0000
1000
0000
0100
0000
1000
0010
1000
0000
0001
0000
0010
0000
0000
0000
,
0011
0000
0001
0000
1000
0000
0100
1000
0100
0000
0010
0000
0200
0000
0000
0000
,
1300
0000
0001
0000
0100
0000
0001
0010
0001
0000
1000
0000
0010
0000
0000
0000
,
1100
0000
1000
0000
0001
0000
0010
0001
0010
0000
0001
0000
0100
0000
0000
0000
,
0101
0000
0001
0000
1000
0000
0010
1000
0010
0000
1000
0000
0100
0000
0010
0000
,
0001
0100
0001
0000
1000
0010
1000
0000
,
0100
0010
0100
0000
0010
0000
0000
0000
0100
0000
0010
0000
0100
0000
0000
0000
,
1000
0100
1000
0000
0001
0010
0001
0000
,
1001
0000
0000
1000
0001
1000
0000
0100
0010
0000
0100
0000
0020
0000
0000
0000
,
0031
0000
0100
0000
0101
0000
0001
1000
0001
0000
1000
0000
0010
0000
1000
0000
,
0100
1000
0100
0000
1000
0000
0001
0000
0100
0000
0001
0000
0010
0000
0001
0000
,
1000
0000
0100
0000
1100
0000
1000
0001
1000
0000
0001
0000
0010
0000
0001
0000
,
0100
0001
0100
0000
0001
0000
1000
0000
0100
0000
1000
0000
0010
0000
1000
0000
,
0002
0000
0010
0000
0013
0000
0001
0100
0001
0000
1000
0000
0200
0000
0000
0000
,
2300
0000
0010
0000
3010
0000
1000
0100
1000
0000
0001
0010
0100
0000
0010
0000
,
0012
0000
0000
0000
0103
0000
0010
1000
0001
0000
1000
0000
0100
0000
1000
0000
,
0010
0000
1000
0010
1000
0000
0001
0000
0100
0000
0001
0000
1000
0000
0010
0000
,
2010
0000
0000
0000
3100
0000
0010
0001
1000
0000
0001
0000
0100
0000
0001
0000
,
0010
0000
0001
0010
0001
0000
1000
0000
0100
0000
1000
0000
0001
0000
0010
0000
,
0002
0000
0100
0000
0103
0000
0001
1000
0001
0000
1000
0100
1000
0000
0010
0000
,
2000
0000
0100
0000
3100
0000
1000
0001
1000
0000
0001
0100
0001
0000
0010
0000
,
1001
0000
0001
0000
1000
0000
0100
1000
0001
0000
0010
0000
0001
0000
0100
0001
,
1000
0010
1000
0100
0020
0000
0200
0000
,
0000
0000
0000
0330
;
