#TITLE:Wigglemix;
#SUBTITLE:;
#ARTIST:The Wiggles;
#TITLETRANSLIT:;
#SUBTITLETRANSLIT:;
#ARTISTTRANSLIT:;
#GENRE:;
#CREDIT:8Chasey;
#MUSIC:Wigglemix.ogg;
#BANNER:;
#BACKGROUND:;
#CDTITLE:;
#SAMPLESTART:117.990;
#SAMPLELENGTH:12.000;
#SELECTABLE:YES;
#OFFSET:-0.142;
#BPMS:0.000=171.060
,14.000=85.530
,30.000=171.060
,126.000=85.530
,134.000=171.060
,178.000=85.530
,180.000=171.060
,208.000=42.765
,209.000=171.060
,273.000=85.530
,281.000=171.060
,356.000=85.530
,362.000=171.060
;
#STOPS:13.000=0.702
,321.000=1.403
,323.500=0.351
,362.000=0.702
;
#DISPLAYBPM:85.000:170.000;
#BGCHANGES:;
#FGCHANGES:;

//--------------- dance-single - 8Chasey - 2025 chart ----------------
#NOTES:
     dance-single:
     8Chasey - 2025 chart:
     Beginner:
     3:
     0,0,0,0,0:
0000
0000
0000
0000
,
0000
0000
0000
0000
,
0001
0001
1000
1000
,
0001
1000
0001
0001
,
0001
0000
1000
1000
,
1000
0000
0001
0001
,
0001
0000
1000
1000
,
1000
0000
0010
0000
,
0000
0000
0100
0000
,
0000
0000
0010
0000
,
0000
0000
1000
0000
,
0001
0000
1000
1000
,
1000
0000
0001
0001
,
0001
0000
1000
0000
,
0001
0000
2002
0000
,
3003
0000
0001
0000
,
0001
0000
1000
0000
,
1000
0000
0001
0000
,
1000
0000
0001
0001
,
0001
0000
1000
0000
,
1000
0000
0001
0000
,
0001
0000
1000
0000
,
0001
0000
1000
1000
,
1000
0000
0010
0000
,
0000
0000
0100
0000
,
0000
0000
0010
0000
,
0000
0000
0220
0000
,
0330
0000
1000
0000
,
1000
0000
0001
0000
,
0001
0000
1000
0001
,
1000
0001
2002
0000
,
3003
0000
2000
3000
,
0002
0003
0200
0300
,
0020
0030
0200
0000
,
0000
0300
0020
0000
,
0000
0030
0100
0000
,
0010
0000
2002
0000
,
3003
0000
2000
0000
,
3002
0000
2003
0000
,
3001
0001
0002
0000
,
2003
0000
3002
0000
,
1003
1000
1000
0000
,
0010
0000
0100
0000
,
0001
0000
1000
0001
,
1000
0000
0002
0000
,
0013
0000
0010
0000
,
0100
0000
0100
0000
,
1000
0000
1000
0000
,
0001
0000
0001
0000
,
0010
0000
0100
0000
,
1000
0000
0001
0000
,
1000
0001
1000
0001
,
0000
1000
0000
1000
,
0000
0001
0000
0001
,
0000
1000
0000
0001
,
0000
1000
1000
1000
,
0000
0001
0000
0001
,
0000
1000
0000
1000
,
0000
0001
0000
1000
,
0000
0001
0001
0001
,
0000
0020
0000
0030
,
0000
0200
0000
0300
,
0000
0010
0000
0001
,
0000
1000
0000
0100
,
0000
1000
0000
1000
,
0000
0001
0000
0001
,
0000
1000
0000
0001
,
0000
2002
0000
3003
,
0000
0200
0000
0300
,
0000
0020
0000
0030
,
0000
2000
0000
3000
,
0000
0002
0000
0003
,
0000
1000
0000
0001
,
0000
2002
0000
0000
,
3003
0002
0003
0001
,
0000
2000
3000
1000
,
0000
0002
0003
0001
,
0000
2000
3000
1000
,
0000
0020
0030
0010
,
0000
0200
0300
0100
,
0000
2002
0000
3003
,
0001
0000
0001
0000
,
0001
0000
0001
0000
,
1000
0000
1000
0000
,
1000
0000
1000
0000
,
0010
0000
0010
0000
,
0010
0000
0010
0000
,
0100
0000
0100
0000
,
0100
0000
0100
0000
,
0001
0000
1000
0000
,
0010
0000
0220
0000
,
0330
0000
0000
0000
,
1001
0000
0000
0000
;

//--------------- dance-single - 8Chasey - 2025 chart ----------------
#NOTES:
     dance-single:
     8Chasey - 2025 chart:
     Easy:
     7:
     0,0,0,0,0:
0000
0000
0000
0000
,
0000
0000
0000
0000
,
0001
1000
0001
1000
,
0010
0100
0010
0000
0100
0001
0100
0000
,
0001
0000
1000
0000
0100
1000
0100
0000
,
1000
0000
0010
0000
0100
0010
0100
0000
,
0010
0100
0010
0000
1000
0000
0001
0000
,
1000
0001
1000
0001
0020
0000
0001
0000
,
0000
0031
0200
0010
,
0000
0310
0020
0000
,
1030
0000
0001
0010
,
0100
1000
0010
1000
,
0010
0010
0100
0001
,
0100
0100
0001
1000
,
0001
1000
0001
0000
1000
0001
1000
0000
,
1001
0110
0100
0001
,
0100
1000
0100
0010
,
0100
0010
0100
0000
0010
0000
1000
0000
,
0100
0001
0100
0010
,
0001
1000
0001
0000
1000
0000
0010
0000
,
1000
0001
0100
0010
,
1000
0010
1000
0000
0001
0000
0010
0000
,
0100
1000
0001
0100
,
0001
0010
0001
0000
0020
0000
1000
0000
,
0001
0031
0200
1000
,
0301
1000
0020
0130
,
0001
0100
0001
0000
1000
0010
1000
0000
,
0010
1000
0100
0001
,
0100
1000
0001
1000
,
0001
1000
0001
0000
0100
0000
0010
0000
,
0100
0010
0100
0000
1020
0000
1000
0000
,
1000
0130
0002
0010
,
0203
0310
2000
0100
,
3020
0130
2002
0000
,
0000
3003
0220
0000
,
0000
0330
2002
3003
,
0220
0330
1000
0001
,
0020
0030
1002
1000
,
1000
1000
0010
0010
,
0010
0000
0013
0001
2001
0000
0001
0000
,
0001
0001
0100
0100
,
0100
0000
3100
0010
0200
0000
1000
0000
,
0001
1000
0320
0001
,
1000
0001
0032
0103
,
2000
0000
3010
0000
0200
0000
0020
0330
,
1000
0000
0001
0000
0010
0001
0010
0000
,
0001
0000
1000
0000
0010
1000
0010
0000
,
0100
0001
1000
0100
,
0010
0100
0010
0000
0100
1000
0100
0000
,
1000
0000
0001
0000
0100
0001
0100
0000
,
0010
0000
1000
0000
0100
1000
0100
0000
,
0010
0100
0010
0000
0001
0000
1000
0000
,
0100
0010
1001
0001
,
0100
0000
0010
0000
1000
0000
0010
1000
,
0010
1000
0100
1000
,
0001
0000
0010
0001
0010
0000
0001
1000
,
0001
0100
0010
0100
,
0001
0000
1000
0000
0100
0000
0010
0100
,
0010
0100
1000
0001
,
0100
0000
0010
1000
0010
0000
0100
0001
,
0100
0020
1000
0130
,
0001
0200
1000
0310
,
1000
0020
0130
0001
,
0010
0000
0100
0000
1000
0000
0001
1000
,
0001
0100
0010
0100
,
0001
1000
0100
0001
,
0100
0000
1000
0100
1000
0000
0001
0010
,
0001
0000
0100
0010
0000
0010
0000
0010
,
0100
2002
0000
0000
,
3003
0220
0000
0000
,
0330
2002
0000
0000
,
3003
0220
0000
0000
,
0330
2002
3003
0220
,
0330
1001
0110
1001
,
0110
0000
2002
0000
3003
0000
1000
0100
,
1000
0020
0030
0100
,
0001
0000
0200
0000
0300
0000
0001
0100
,
0001
0000
1000
0000
0100
0000
0010
0100
,
0010
2200
3300
1000
,
0010
0202
0303
0001
,
0010
0110
0100
0020
,
0130
1000
0100
0001
,
0100
0000
1000
0000
0100
1000
0100
0000
,
0010
0001
0010
1000
,
0010
0000
0001
0000
0010
0001
0010
0000
,
0011
0001
1000
0010
,
1000
0000
0001
0000
0100
0001
0100
0000
,
1100
1000
0010
1000
,
0001
0000
0010
0000
0100
0010
0100
0000
,
2000
3010
0002
0103
,
0020
0030
0200
0300
0220
0000
0000
0000
,
0000
0000
0330
0000
,
1001
0000
0000
0000
;

//--------------- dance-single - 8Chasey ----------------
#NOTES:
     dance-single:
     8Chasey:
     Medium:
     8:
     0,0,0,0,0:
0000
0000
0000
0000
,
0000
0000
0000
0000
,
0011
0101
1010
1100
,
0001
0000
1000
0000
1001
0000
0000
0000
0001
0000
0100
0000
0001
0010
0000
0000
,
0100
0000
1000
0000
0100
1000
0000
0000
1000
0000
0100
0000
1000
0010
0000
0000
,
0100
0000
0010
0000
0100
0010
0100
0000
0010
0000
0001
0000
0100
0001
0000
0000
,
1000
0000
0100
0000
1000
0000
1000
0000
0010
0000
1000
0000
0100
1000
0000
0000
,
0010
1000
0001
0100
0010
0000
0010
0000
,
1000
0001
1000
0000
0100
0000
0100
0000
,
1000
0001
0100
0010
0100
0010
0100
0000
,
0001
0010
0100
1000
0001
0000
1000
0000
,
0010
1000
0001
0000
0100
0000
0100
0000
,
0001
0100
0010
1000
0000
1000
0001
0000
,
1000
0100
0010
0000
0100
0010
0001
0000
,
0100
0010
0100
0000
1001
0000
1001
0000
,
0110
1001
0101
0001
,
1000
0010
1000
0000
0100
1000
0001
0000
,
0100
0010
0100
0000
0010
1000
0100
0000
,
1000
0100
0010
0000
0100
0000
0110
0000
,
0010
0001
0010
0001
1000
0000
0100
0000
,
1000
0010
0100
0000
1000
0000
0100
0000
,
0001
0100
0001
0000
0010
0001
0100
0000
,
0001
1000
0001
0000
1000
0100
0010
0000
,
0100
0010
0001
0000
0010
0000
0010
0000
,
0001
0010
0100
1000
0100
0000
0100
0000
,
1000
0100
0010
0001
0010
0000
0110
0000
,
0100
0010
0001
0100
0010
1000
0100
0000
,
1000
0001
1000
0000
1001
0000
0001
0000
,
0100
0001
0100
0000
0010
1000
0010
0000
,
1000
0001
1000
0000
0100
0000
0010
0000
,
0001
0100
0001
0000
1010
0000
1010
0000
,
1001
0000
1100
0000
0020
0001
0001
0000
,
0001
0001
0031
0000
0200
1000
1000
0000
,
1000
1000
1300
0000
2001
0000
0001
0000
,
0001
3001
1002
1000
,
1000
1003
0210
0310
,
0120
0000
0130
0000
1000
0001
1000
0000
,
2002
3003
1100
1001
,
1001
0101
1001
1001
,
0010
0100
0010
0000
1010
0000
1001
0000
,
1001
0011
1001
1001
,
0010
1000
0001
0000
1010
0000
0110
0000
,
0110
0101
0110
1001
,
0100
0010
1000
0000
1100
0000
0110
0000
,
0110
0000
0000
0000
0011
0000
0000
0000
1000
0001
1000
0001
0020
0000
0030
0000
,
0001
0000
0101
0000
1000
0100
0010
0100
,
1000
0000
1100
0000
0010
0010
0100
0000
,
0010
0001
0010
0000
0001
1000
0100
0000
,
2000
0000
3002
0000
0103
0010
0100
0100
,
0001
0000
1001
0000
1000
0010
0100
0000
,
0010
0000
0110
0000
0100
0001
1000
0000
,
0100
0010
0100
0010
0001
1000
0001
1000
,
0020
0000
0130
0000
0001
0000
1000
0100
,
1000
0000
0010
1000
0010
0000
1000
0000
,
0001
0000
0100
0000
0110
0000
0010
1000
,
0010
0000
0100
0000
0001
0100
0001
0000
,
1000
0000
0100
0000
1000
0000
0010
1000
,
0001
0000
0010
0000
0001
0000
0100
0001
,
0010
0100
1000
0100
,
0001
0000
0100
1000
0100
0000
0010
0001
,
0100
0000
0010
0000
0010
0000
1000
0001
,
1000
0000
0100
0000
0100
0000
1000
0001
,
0100
0010
0000
0010
0100
0000
0001
0010
,
0100
0000
1000
0010
0100
0000
0010
0000
,
1001
0000
0100
0000
0101
0000
0001
0010
,
0000
0001
1000
0001
1000
0000
0100
1000
,
0010
0000
0100
0000
0001
0000
1000
0001
,
0010
0000
0100
0010
0100
0000
0110
0000
,
1001
0201
0301
1020
,
1030
0000
2200
3300
0022
0033
0100
0010
,
0220
0330
0202
0000
0000
0000
0000
0000
,
0303
2200
0000
0000
,
3300
2002
3003
0220
,
0330
0000
1001
0000
0110
0000
1000
0100
,
0010
0001
2000
0000
3100
1000
0010
1000
,
0010
0100
0002
0000
0103
0001
0010
0100
,
0010
0100
0020
0000
0031
0010
0100
0000
,
1000
1000
0200
0000
1300
0010
0100
0000
,
0001
0001
1000
0100
0010
0000
0100
0000
,
1100
0000
0001
0100
0010
0000
0100
0000
,
0101
0000
1001
0000
0001
1000
0100
2000
,
3010
0000
0100
0000
0001
0100
0001
0000
,
1000
0000
0010
0000
1000
0100
1000
0000
,
0100
0010
0100
0000
0010
0001
1000
0000
,
0010
0000
0110
0000
0100
0010
0100
0010
,
1000
0000
1100
0000
1000
0001
0100
0000
,
0001
0000
0101
0000
0010
0001
1000
0000
,
0010
1000
0010
0000
0100
0001
0100
0000
,
0001
0010
0100
1000
0010
0100
0010
0000
,
1100
1000
0100
1000
0011
0001
0010
0001
,
1000
0001
0100
0010
0220
0000
0000
0000
,
0000
0000
0000
0330
,
1001
0000
0000
0000
;

//--------------- dance-single - 8Chasey ----------------
#NOTES:
     dance-single:
     8Chasey:
     Hard:
     10:
     0,0,0,0,0:
0000
0000
0000
0000
,
0000
0000
0000
0000
,
0001
0010
0100
1000
0001
0010
0100
1000
,
0001
1000
0001
1000
0001
0000
0000
0000
0001
0010
0001
1000
0100
1100
0000
0000
,
1000
0010
1000
0001
0100
0101
0000
0000
0100
0010
1000
0001
0010
0011
0000
0000
,
0010
0001
0100
0010
1000
1010
0000
0000
0200
0001
0301
1000
0010
0110
0000
0100
,
0020
1000
1030
0100
1000
1001
0000
0000
0100
0001
0010
0002
0100
0103
0000
0010
,
1000
0000
0100
0000
0010
0000
0001
0000
0100
0001
0100
0001
0100
0001
0100
0000
0020
0000
0000
0000
0000
0000
0000
0000
1000
0000
0000
0000
1000
0000
0000
0000
,
0130
0001
1000
0200
0010
0000
1000
1300
,
0001
0100
0100
0020
0000
0100
0130
0000
,
0001
0010
0001
0100
1000
0100
0001
1000
,
0100
0110
0000
0010
0001
0100
0001
1000
,
0010
0010
1000
0100
0001
0100
0010
0001
,
0100
0000
0001
0000
1000
0000
0010
0000
1000
0000
0010
0000
1010
0000
0000
0100
,
0001
0100
0001
0010
0220
0330
2002
3003
,
0110
0000
0100
1000
0100
0000
1000
0001
1000
0000
0010
0000
1000
0000
0010
0000
,
0100
0000
0001
0000
1000
0001
1000
0000
0100
0000
0010
0000
0001
0000
0100
0000
,
0010
0000
1000
0000
0001
1000
0001
0000
0010
0000
0100
0000
1000
0000
0000
0010
,
1000
0000
1000
0000
0010
0000
1000
0000
0001
0000
0100
0000
0001
0000
0000
0010
,
0001
0001
1000
0100
0010
0001
0010
0010
,
0001
0000
0100
0001
0100
0000
0100
0000
0010
0000
1000
0000
0010
0000
0010
0000
,
1000
0000
0100
1000
0100
0000
1000
0000
0010
0000
1000
0000
1000
0000
0000
0001
,
1000
0000
0100
0000
0010
0001
0010
0000
0001
0000
0100
0000
0001
0000
0000
1000
,
0001
0000
0100
0000
0010
1000
0010
1000
0020
0000
0000
0000
0100
0000
0100
0000
,
1030
0001
0010
0200
0001
0000
1000
1300
,
0010
1000
0001
0020
0000
0100
0100
0031
,
0100
0010
1000
0100
0001
0100
1000
0001
,
1000
0010
1000
0000
0001
0000
1001
0000
1000
0000
0100
0000
1000
0000
0000
1000
,
0010
0000
1000
0000
0001
0100
0001
0000
0010
0000
0010
0000
0001
0000
0000
1000
,
0100
0000
1000
0000
0001
0000
0010
0000
0001
0000
1000
0000
1010
0000
0000
0100
,
0001
1000
0100
0010
0220
0330
2002
3003
,
0110
0000
0001
0000
1000
0001
1000
0010
2000
0000
0001
0000
0100
0000
0001
0000
,
3002
0010
1000
0100
0023
0100
0001
0001
,
0130
1000
0100
1000
0010
1000
0001
0000
0012
0000
0000
0000
1000
0000
0000
0000
,
0100
1000
1003
0000
2010
0000
0001
0000
,
0100
0001
3001
0000
0220
0000
0330
0000
,
2002
0000
0000
0000
3003
0000
0000
0000
0001
0010
0001
1000
0010
1000
0100
1000
,
0002
0000
0010
0000
0100
0000
1003
0100
1000
0000
0000
0000
1100
0000
0000
0000
,
1001
0000
0011
0000
0110
0010
0110
0000
,
1001
0000
0000
0010
0001
0000
0101
0000
1100
0000
0000
0000
0011
0000
0000
0000
,
1001
0100
1001
0000
0101
0000
1010
0000
,
1100
0000
0011
0000
1000
0010
1000
0001
0100
0000
0000
0000
0101
0000
0000
0000
,
1100
0000
0000
0000
1001
0000
0000
0000
0110
0000
0000
0000
1001
0000
0000
0100
,
0001
0000
1000
0001
0100
0000
0101
0000
1010
0000
0000
0000
0011
0000
0100
0000
,
0110
0000
0000
0000
1001
0000
0000
0000
1000
1000
0100
0100
0020
0000
0031
0100
,
0101
0010
1000
0100
0001
0200
1000
1300
,
1010
1000
0001
0010
1000
0020
0001
0031
,
0011
0001
0100
0010
1000
0002
0100
1003
,
1100
0000
1000
0000
0010
0000
0100
0000
0001
0000
2000
0000
0010
0000
3001
1000
,
0001
0100
0102
0103
0010
1000
1020
0130
,
0001
0000
1000
0000
1200
0000
1300
0000
0010
0000
1000
0000
2001
0000
3001
0010
,
0001
0100
0101
1000
0010
1000
1001
0001
,
2200
0000
0000
3300
0001
0000
0100
0000
0100
0000
0001
1000
0001
0000
1000
0000
,
0010
0000
1000
0000
0001
0000
0100
0000
0010
0000
1000
0001
1000
0000
0100
0000
,
0010
0000
0001
0000
0100
0000
0001
0000
1001
0000
1000
0010
1000
0000
0100
0000
,
0010
0000
0001
0000
1000
0000
0001
0000
1000
0000
1000
0000
0100
0000
1000
0001
,
1000
0000
0001
0000
0010
0000
0001
0000
0011
0000
0001
0100
0001
0000
1000
0000
,
0010
0000
0100
0000
0010
0000
1000
0000
1010
0000
1000
0100
1000
0000
0001
0000
,
0001
0000
1000
0000
0100
0000
1000
0000
1001
0000
0001
0010
0100
0000
0010
0000
,
0100
1000
0100
0000
1000
0000
0010
0000
1010
0000
0000
0000
0011
0000
0100
0000
,
0010
0100
0020
0000
1000
1000
0130
0001
,
1000
0001
0200
0000
0000
0000
1000
0000
1000
0000
0001
0000
0310
0000
1000
0001
,
1000
0020
0000
1000
1000
0130
0001
0010
,
0001
0000
0100
0000
1000
0000
0100
0000
0001
0000
1000
0000
0100
1000
0100
0000
,
0010
0001
0010
0000
0100
0000
0010
0000
0110
0000
1000
0010
1000
0000
1000
0000
,
0001
0000
0100
0000
0001
0000
0010
0000
0110
0000
1000
0001
0100
0000
0001
0000
,
0010
0000
0100
0000
1000
0010
1000
0000
1001
0000
0001
0100
0001
0000
0010
0000
,
0001
0100
1000
0000
0100
0000
0010
1000
0100
0000
0010
0001
0100
0000
0001
1000
,
0001
1000
0001
0000
1002
0000
0010
0000
1000
0000
0013
0000
0210
0000
0001
0000
,
0010
0000
0301
0000
2100
0000
0010
0000
0100
0000
3001
0100
0001
0000
1000
0010
,
1000
1000
0001
0000
0202
0000
0000
0000
0300
0000
0000
0000
1000
0000
0000
0000
,
0013
2200
0300
0001
,
3010
0022
0033
2020
,
3030
0000
0000
0000
0000
0000
0000
0000
0000
0000
0000
0000
1001
0000
0000
0000
0000
0000
0000
0000
1000
0000
0000
0000
0100
0000
0000
0000
0010
0000
0000
0000
0001
0000
0000
0000
0010
0000
0000
0001
0000
0000
1000
0000
0000
0100
0000
0000
,
1000
0000
0000
0010
0000
0000
0100
0000
0000
0001
0000
0000
0200
0000
0000
0000
0000
0000
0000
0000
0000
0000
0000
0000
0001
0000
0000
0000
0000
0000
0301
0000
0000
0000
0000
0000
0010
0000
0001
0000
0000
0000
0000
0000
0000
0000
0000
0000
,
0010
0001
0000
0010
0000
0000
0200
0000
0000
0000
0000
0000
1000
0000
0000
1300
0000
0000
0010
1000
0000
0000
0000
0000
,
0010
1000
0000
0010
0000
0000
2000
0000
0000
0000
0000
0000
0100
0000
0000
3100
0000
0000
0010
0001
0000
0000
0000
0000
,
0010
0100
0000
1000
0000
0000
0002
0000
0000
0000
0000
0000
0100
0000
0000
0103
0000
0000
0010
1000
0000
0000
0000
0000
,
0010
0000
0100
0000
0000
0000
0001
0000
0000
0000
0000
0000
1001
0000
0000
0000
0000
0000
0000
0000
0000
0000
1000
0000
0001
0000
0000
0000
0000
0000
0100
0000
0000
0000
0000
0000
0001
0000
0000
0010
0000
0000
0001
0000
0000
0000
0000
0000
,
1000
0000
0000
0010
0000
0000
1000
0000
0000
0000
0000
0000
0110
0000
0000
0000
0000
0000
0000
0000
0000
0000
0010
0000
0100
0000
0000
0000
0000
0000
0010
0000
0000
0000
0000
0000
1000
0000
0000
0100
0000
0000
1000
0000
0000
0000
0000
0000
,
0001
0100
0001
1000
0020
0000
0000
0000
1030
0000
0001
0000
0010
0000
0200
0300
,
1001
0000
0000
0000
0101
0000
1000
0000
0010
0000
1000
0001
1000
0000
0100
0000
,
1100
0000
0000
0000
0110
0000
0010
0001
0010
0000
0001
1000
0001
1000
0010
0000
,
0210
0000
0000
0000
0301
0000
0000
0010
0001
0000
1000
0010
1000
0000
0100
0000
,
0210
0000
0000
0000
1300
0000
0000
0010
1000
0000
0001
1000
0100
1000
0001
0000
,
0101
0000
0010
0000
1100
0000
0010
0000
1001
0000
0100
0000
1001
0000
0001
0010
,
0001
0000
1000
0000
1010
0000
1000
0000
1001
0000
0001
0000
0101
0000
0100
0001
,
0100
0000
0010
0000
1001
0000
0000
0000
1100
0000
0001
0010
1000
0000
0010
0000
,
0100
0000
1000
0100
1000
0000
0010
0000
1010
0000
1010
0000
0011
0000
0011
0000
,
1001
0000
1010
0000
1001
0000
0201
0000
0310
0100
0001
0100
0010
1000
0100
0000
,
1100
0011
0101
1010
0220
0000
0000
0000
,
0000
0000
0000
0000
0000
0000
0000
0330
,
1001
0000
0000
0000
;
