#TITLE:White day dream;
#SUBTITLE:;
#ARTIST:馬場一嘉;
#TITLETRANSLIT:;
#SUBTITLETRANSLIT:;
#ARTISTTRANSLIT:Kazuyoshi Baba;
#GENRE:Guitar Pop;
#CREDIT:8Chasey;
#MUSIC:daydream.ogg;
#BANNER:White day dream-bn.png;
#BACKGROUND:;
#CDTITLE:;
#SAMPLESTART:47.960;
#SAMPLELENGTH:12.000;
#SELECTABLE:YES;
#OFFSET:-0.513;
#BPMS:0.000=146.000
,68.000=73.000
,82.000=146.000
;
#STOPS:99.000=0.822;
#DISPLAYBPM:146.000;
#BGCHANGES:;
#FGCHANGES:;

//--------------- dance-single - 8Chasey ----------------
#NOTES:
     dance-single:
     8Chasey:
     Beginner:
     2:
     0,0,0,0,0:
0000
0000
0000
0000
,
0001
0001
0000
0000
,
0100
0000
0000
0000
,
0001
0000
1000
0000
,
0001
0000
0000
0000
,
1000
1000
0000
0000
,
0010
0000
0000
0000
,
1000
0000
0001
0000
,
1000
0000
0000
0000
,
0001
0000
0001
0000
,
1000
0000
1000
0000
,
0001
0000
1000
0000
,
0001
0000
0000
0000
,
1000
0000
1000
0000
,
0001
0000
0001
0000
,
1000
0000
0001
0000
,
1000
0000
0000
0000
,
0020
0000
0030
0000
,
0200
0000
0300
0000
,
0001
0000
1000
0000
,
1001
0000
0000
0000
,
0000
0000
0001
0000
,
1000
0000
0001
0000
,
1000
0000
0010
0000
,
0000
0000
0100
0100
,
0100
0000
0000
0000
,
0010
0000
0010
0000
,
0010
0000
0000
0000
,
1000
0000
1000
0000
,
1000
0000
0000
0000
,
0001
0000
0001
0000
,
0001
0000
0000
0000
,
1001
0000
0000
0000
,
0010
0000
0100
0000
,
0010
0000
0000
0000
,
0100
0000
0010
0000
,
0100
0000
0000
0000
,
0001
0000
0000
0000
,
1000
0000
0010
0000
,
0110
0000
0000
0000
,
0100
0000
0001
0000
,
1001
0000
0000
0000
,
1000
0000
0001
0000
,
1000
1000
0000
0000
,
0010
0000
0000
0000
,
1000
0000
0001
0000
,
1000
0000
0000
0000
,
0001
0001
0000
0000
,
0100
0000
0000
2002
,
0000
0000
0000
3003
;

//--------------- dance-single - 8Chasey ----------------
#NOTES:
     dance-single:
     8Chasey:
     Easy:
     4:
     0,0,0,0,0:
0000
0000
0000
0000
,
1000
0001
1000
0001
,
2000
0000
3100
0000
,
1000
0010
1000
0000
,
0010
0000
1000
0000
,
0001
1000
0001
1000
,
0002
0000
0103
0000
,
0010
0100
0010
0000
,
0220
0000
0330
0000
,
0100
0001
0000
0001
,
1000
0010
0000
0010
,
0100
0001
1000
0000
,
0010
0010
1000
1000
,
0001
0100
0001
0000
,
1000
0100
1000
0000
,
0010
1000
0001
0000
,
0100
0100
0001
0000
,
2000
0000
3010
0000
1000
0001
1000
0000
,
0002
0000
0103
0000
0001
1000
0001
0000
,
0020
0000
0000
0000
0100
0100
0130
0000
,
1000
0000
0000
1000
0000
0000
2000
0000
0000
0000
0000
0000
0000
0000
0000
0000
,
3000
0000
0001
1000
,
0001
0000
1000
0010
,
0010
1000
0002
0000
,
0103
0000
0001
1001
,
1000
0010
1000
0010
,
1000
1000
0000
0000
,
0001
0100
0001
0100
,
0001
0000
1000
0001
,
2000
0000
3010
0000
,
0200
0000
0301
0000
,
0010
0001
1000
0000
,
0020
0000
0130
0000
,
0010
0010
1000
0000
,
0001
0100
0010
0000
,
2000
0000
3002
0000
,
1003
0001
1000
0000
,
0002
0000
1003
0000
,
2000
0000
3001
0000
,
0100
0100
0001
0000
,
1000
0010
1000
0000
,
0100
0100
1000
0000
,
0001
0010
0001
0000
,
1000
0001
1000
0001
,
2000
0000
3100
0000
,
1000
0010
1000
0000
,
0020
0000
1030
0000
,
0001
1000
0001
1000
,
0002
0000
0103
0020
,
0000
0000
0000
0000
,
0000
0030
0000
0000
;

//--------------- dance-single - 8Chasey ----------------
#NOTES:
     dance-single:
     8Chasey:
     Medium:
     6:
     0,0,0,0,0:
0000
0000
0000
0000
,
0100
0000
0001
0010
0001
0000
1000
0010
,
1000
0000
0100
0010
0200
0000
0310
0000
,
0011
0000
1010
0000
0100
0000
0010
0200
,
0000
0301
1000
0010
,
0110
0000
0001
0100
0001
0000
1000
0100
,
1000
0000
0010
0100
0020
0000
0130
0000
,
0101
0000
1100
0000
1000
0000
0001
0200
,
0000
0010
0000
0310
,
0100
0000
0001
0000
1000
0001
0010
0000
,
0001
0000
1000
0001
0000
1000
0001
0000
,
1000
0000
0010
1000
0010
0000
1000
0000
,
0002
0000
0010
0000
0013
0001
0100
0000
,
0001
0000
1000
0000
0100
1000
0010
0000
,
0100
0000
0001
0010
0001
0000
1000
0000
,
0010
0000
1000
0000
0001
0100
0001
0000
,
1000
0010
1000
0001
0200
0000
0301
0000
,
0001
1000
0001
0000
1000
0010
1000
1000
,
0200
0000
1300
0000
0001
1000
0001
0001
,
0020
0000
0031
0100
0010
0100
0010
0010
,
0100
0000
0000
0100
0000
0000
0002
0000
0000
0000
0000
0000
0000
0000
0000
0000
,
1000
0000
1003
0000
0100
1000
0100
1000
,
0000
0010
1000
0001
,
0100
0001
0100
0002
1000
0000
0100
0000
,
1003
0000
0001
1000
0000
0001
0200
0310
,
0000
0000
0110
0000
0100
0001
0100
0000
,
0001
0000
1000
0000
0100
1000
0010
0000
,
0100
0000
0010
0000
1000
0001
0010
0000
,
0001
0000
1000
0000
0100
1000
0100
0000
,
2000
0010
3010
1000
,
0002
0100
0103
0010
,
0100
0000
0001
0000
1000
0001
1000
0001
,
2000
0000
0000
0000
3100
0000
1000
0001
,
0000
0000
0010
0000
0001
0100
0001
0000
,
1000
0010
0100
0001
,
0010
0110
1000
1001
,
0100
0000
0001
0000
1000
0001
1000
0000
,
0020
1000
1030
0010
,
0200
0000
0001
0000
0301
1000
0001
1000
,
0020
0000
1000
0000
1030
0000
0001
0200
,
0000
0001
0301
1000
,
0002
0000
0010
0000
0013
0000
0100
2000
,
0000
0000
0001
0000
3001
0000
0000
1001
,
0000
0000
0100
0001
0100
0000
0010
1000
,
0010
0000
1000
0001
1000
0000
1001
0000
,
0020
0000
0031
0000
0100
0000
0001
1000
,
0000
0000
0100
0000
1000
0000
0001
0100
,
0001
0000
0010
0001
0010
0000
0100
1000
,
0100
0000
1000
0000
0001
0000
0200
0020
,
0000
0000
0000
0000
,
0000
0000
0000
0330
0000
0000
0000
0000
;

//--------------- dance-single - 8Chasey ----------------
#NOTES:
     dance-single:
     8Chasey:
     Hard:
     9:
     0,0,0,0,0:
0000
0000
0000
0000
,
0020
0000
0000
0030
0001
1000
0001
1000
0010
1000
0010
1000
0100
1000
0100
1000
,
0200
0000
1300
0001
0000
0100
0001
1000
,
1010
0000
0011
0000
0100
0010
0100
1001
,
0000
1000
0001
0000
0101
0000
1100
0000
,
0220
0000
0330
0000
1000
0001
1000
0001
0100
0001
0100
0001
0010
0001
0010
0001
,
0020
0000
0130
1000
0000
0001
0100
0010
,
1010
0000
0011
0000
0100
0001
1000
2002
,
0000
0000
3003
1001
,
0100
0001
0100
0001
1000
0100
1000
0010
,
1000
0010
0100
0001
1000
0100
0010
0001
,
0100
0001
1000
0010
0000
0110
0000
0200
,
0001
0000
0001
0000
0301
0100
0101
0000
,
1000
0010
1000
0001
0010
0100
0010
0100
,
1000
0001
0100
0001
0000
1000
1001
0000
,
0010
0001
0010
0001
0000
1000
1010
0000
,
1000
0001
1000
0000
0001
0100
0001
0000
1000
0000
0001
0000
0010
0000
0000
0000
,
0210
0000
1000
0000
1300
0010
1000
0001
0020
0000
0001
0031
1000
0000
0001
0000
,
0102
0000
1000
0000
0103
0001
1000
0010
2000
0000
0100
3100
1000
0001
0100
0000
,
2002
0000
3003
0000
0010
0001
0010
0000
0210
0000
1300
0000
0010
0000
1010
0000
,
0011
0000
0100
0002
0000
1000
2003
0000
3010
0000
0000
0000
1010
0000
0000
0000
,
0001
0100
0001
0000
0110
0000
0010
2000
,
0100
0000
3010
1000
0000
0001
0100
0001
,
0010
0100
1000
0002
0100
0000
0010
0000
,
0103
0001
1000
1001
0000
1000
1010
0102
,
0000
0103
0001
1000
0100
1000
0010
0100
,
0001
0010
0110
0000
1000
0001
0000
1001
,
0000
0100
0001
0010
0100
0010
0100
2000
,
0010
0000
3001
0100
0002
0000
0103
0000
,
0102
0000
1000
0000
0000
1000
1003
0100
,
2000
0000
3001
0000
0010
0001
0100
0000
,
0101
0000
1010
0000
1100
1000
0001
0200
,
0010
0000
0001
0000
0301
1000
0100
1100
,
0000
1000
0001
0010
0001
0100
0010
1000
,
0001
0100
0002
0000
1003
0100
2000
0000
,
3010
0000
0000
1000
0000
0000
0010
0000
0100
0000
0000
0001
0000
0000
0100
0000
,
0001
1000
0100
1000
0000
0010
0100
0000
,
0110
0000
1000
0001
0000
0010
0001
0100
,
0102
0000
1000
0000
1003
0001
1000
0001
,
0020
0000
0001
0000
0130
1000
0010
0200
,
0000
0000
0001
0000
0310
1000
0001
2000
,
0100
0000
0001
0000
3001
0010
0010
0002
,
0000
0000
0100
0000
0103
0000
1001
1010
,
0000
0000
0100
0000
0001
1000
0010
1000
0100
1000
0010
1000
0001
1000
0010
1000
,
0200
1000
0000
0310
0001
0100
0101
0000
,
1001
0000
1010
0000
0100
0001
1000
0020
,
0100
0000
0130
0000
1001
0010
0001
1000
,
0020
0000
0000
0030
1000
0001
0100
0001
0010
0001
0100
0001
1000
0001
0100
0001
,
0020
0000
0100
0000
0130
0000
0110
2002
,
0000
0000
0000
0000
,
0000
0000
3003
0000
;
