#TITLE:Whistlin';
#SUBTITLE:(from Nintendo DSi Camera);
#ARTIST:Nintendo;
#TITLETRANSLIT:;
#SUBTITLETRANSLIT:;
#ARTISTTRANSLIT:;
#GENRE:;
#CREDIT:;
#BANNER:;
#BACKGROUND:;
#LYRICSPATH:;
#CDTITLE:;
#MUSIC:Whistlin' (from Nintendo DSi Camera).ogg;
#OFFSET:-0.025000;
#SAMPLESTART:0.000000;
#SAMPLELENGTH:80.900002;
#SELECTABLE:YES;
#BPMS:0.000000=92.000000
;
#STOPS:54.500000=0.652000,
85.500000=0.652000
;
#BGCHANGES:;
#KEYSOUNDS:;
#ATTACKS:;

//---------------dance-single - ----------------
#NOTES:
     dance-single:
     :
     Challenge:
     9:
     0.534809,0.490484,0.465051,0.197647,0.482491,322.000000,282.000000,40.000000,17.000000,0.000000,0.000000,0.534809,0.490484,0.465051,0.197647,0.482491,322.000000,282.000000,40.000000,17.000000,0.000000,0.000000:
// measure 0
0000
0000
0000
0000
,  // measure 1
0000
0000
0000
0000
0000
0000
0000
0000
0000
0000
0100
0020
0000
0000
0030
0000
,  // measure 2
1000
0000
0001
0000
0001
0100
0000
0102
0000
0000
0013
0000
0110
0000
0010
0000
,  // measure 3
1000
0100
1000
0000
0001
0100
0000
0020
1000
0000
1030
0000
0001
0000
1000
0000
,  // measure 4
0010
0000
0100
0000
0001
0100
0000
0001
0100
0000
0010
0000
1000
0001
1000
0200
,  // measure 5
0010
0000
0000
0000
0310
0000
0000
0000
1000
0000
1000
0001
0100
0010
1000
0001
,  // measure 6
1000
0000
0010
0000
0100
0001
0000
0021
0000
0000
0130
0000
1000
0001
1000
0000
,  // measure 7
0001
0000
0100
0010
0100
0000
0000
0002
0100
0000
1000
0000
0103
0000
0010
0000
,  // measure 8
1000
0000
1100
0000
0010
0100
0000
0001
0001
0100
0010
0000
1100
0000
0000
0001
,  // measure 9
0010
0000
0011
0000
0100
0000
1100
0000
0010
0100
0001
1000
0001
0000
1001
0000
,  // measure 10
0100
0000
0100
0000
1000
0000
0100
0000
0010
0100
0010
0100
1000
0000
1100
0000
,  // measure 11
0001
0000
0100
0010
0100
0000
0110
0000
1000
0100
0000
0100
0000
1000
0001
1000
,  // measure 12
0010
0000
0010
0000
0101
0000
1000
0100
1000
0010
0100
0001
0000
0001
1000
0000
,  // measure 13
0010
0000
0110
0000
0001
0000
1001
0000
0100
0001
2000
0000
3010
0000
0010
0000
,  // measure 14
0100
0001
0000
0001
1000
0000
1010
0000
0100
0001
0010
0000
1000
0000
1001
0000
,  // measure 15
0001
0000
1001
0000
0010
0100
0001
1000
0100
1000
0010
0000
0110
0000
0001
0000
,  // measure 16
0100
0001
0010
0100
1000
0000
0001
0000
0000
0100
0010
1000
0001
0000
1001
0000
,  // measure 17
0100
0000
0110
0000
0000
0001
1000
0010
1000
0000
1001
0000
0101
0000
0001
0000
,  // measure 18
0010
0100
0000
1000
0001
0000
1001
0000
0010
0100
0000
0100
0001
0000
1000
0000
,  // measure 19
1001
0000
1000
0000
0010
0100
0010
0100
0001
0000
1000
0000
1100
0000
0010
0000
,  // measure 20
0100
0001
0000
0001
1000
0000
0010
0000
1010
0000
0010
0000
0100
0000
0001
0000
,  // measure 21
1000
0000
0010
0100
0010
0000
1002
0000
0203
0000
0000
0000
0310
1000
0001
0000
,  // measure 22
2000
0000
0000
0000
3100
0010
0001
0000
1000
0000
1001
0000
0001
0000
1001
0000
,  // measure 23
0010
0100
0010
0100
0001
0000
0100
0000
1020
0000
1000
0000
0100
0000
0100
0000
,  // measure 24
0001
0000
0100
0000
1030
0001
1000
0100
0010
0000
0110
0000
0100
0000
0000
1100
,  // measure 25
0000
1000
0001
0100
0010
0000
1010
0000
2001
0000
0000
0000
3001
0100
0001
0010
,  // measure 26
0200
0000
0000
0000
1300
0001
1000
0001
0100
0000
0101
0000
1100
0000
0110
0000
,  // measure 27
0001
1000
0100
0010
0100
1000
0001
0000
0100
0020
0000
0000
0130
0002
0000
0000
,  // measure 28
1003
0100
0010
0100
0010
0001
2000
0000
3001
0000
0100
0000
0110
0000
0000
1001
,  // measure 29
0000
0000
0101
0000
1100
0000
0010
0000
0100
0001
1000
0000
0100
1000
0001
0000
,  // measure 30
0010
0000
0000
0000
0010
0000
0000
0000
0000
0000
0000
0000
1000
0001
1000
0000
0020
0000
0000
0000
0000
0000
0000
0000
0000
0000
0000
0000
0000
0000
0000
0000
,  // measure 31
0000
0030
0000
0000
;

//---------------dance-single - ----------------
#NOTES:
     dance-single:
     :
     Hard:
     7:
     0.396955,0.381487,0.174394,0.151142,0.372041,239.000000,224.000000,15.000000,13.000000,0.000000,0.000000,0.396955,0.381487,0.174394,0.151142,0.372041,239.000000,224.000000,15.000000,13.000000,0.000000,0.000000:
0000
0000
0000
0000
,
0000
0000
0000
0000
,
0001
0000
1000
0000
0100
1000
0000
0020
0000
0000
0130
0000
0100
0000
0100
0000
,
0001
0000
1000
0000
0100
1000
0000
0020
0000
0000
1030
0000
0001
0000
1000
0000
,
0001
0000
0100
0000
0010
1000
0000
0002
0000
0000
0103
0000
0000
0100
0010
1000
,
0000
0000
0001
0000
1001
0000
0000
0000
0100
0000
1000
0001
0010
0000
0000
0000
,
0100
0000
0001
0000
1000
0100
0000
0100
1000
0000
0010
0000
0010
0000
0000
0000
,
0100
0000
0001
0000
1000
0001
0000
0001
1000
0000
0100
0000
1100
0000
0000
0000
,
0010
0000
0100
0000
0001
0100
0000
0001
0010
0001
1000
0000
0001
0000
0001
1000
,
0000
0000
1001
0000
0000
0000
0110
0000
0000
1000
0001
1000
0001
0000
0000
0000
,
0000
0010
0000
0100
0001
0002
0003
1000
,
0010
0000
0000
0200
0300
0000
0001
0000
0000
1000
0001
0000
1001
0000
0000
0100
,
0001
0000
0001
0000
0000
0000
1000
0000
0010
0000
0100
0001
0000
0000
0001
1000
,
0001
0000
0100
0000
0000
0000
0100
0000
0000
0010
0100
0000
0001
0000
0001
0000
,
1000
0010
0000
0100
0000
0000
0100
0000
0010
1000
0000
0001
0000
0000
0100
0000
,
0101
0000
0001
0000
1000
0001
0000
0001
1000
0000
0000
0000
0010
0000
0100
0000
,
0001
0100
0000
0001
0100
0000
0010
0000
0000
1000
0100
1000
0000
0000
0001
0000
,
0000
0000
0101
0000
0000
0010
1000
0001
0100
0000
0000
0000
0110
0000
0000
0000
,
1000
0001
0000
0101
0000
0000
0000
0000
0001
0010
0000
0110
0000
0000
1000
0000
,
1100
0000
0001
0000
0010
0001
0000
0001
1000
0000
0001
0000
0100
0000
0000
1000
,
0010
1000
0000
0001
1000
0000
1000
0000
0001
0000
0001
1000
0000
0000
0010
0000
,
0100
0000
0010
0000
0000
0000
1001
0000
0100
0000
0000
0001
0100
0000
0020
0000
,
1030
0000
0000
0100
0010
0000
0001
0000
1000
0001
1000
0000
0010
0000
0010
0000
,
0100
0002
0000
0000
1003
0000
0000
0000
0110
0000
0000
0000
0001
0100
0000
0100
,
0001
0010
0001
1000
0100
0100
0020
0000
,
1030
0000
0001
2000
0000
0000
3000
0000
1020
0000
0000
0000
0130
0001
0000
0001
,
1000
0010
0100
0010
0100
0001
0001
1000
,
0010
0100
0001
2000
0000
0000
3000
0000
1001
0000
0000
0010
1000
0000
0001
0100
,
0001
0000
0010
0000
0010
0000
0100
0000
1000
0001
1000
0000
0001
1000
0001
0000
,
0100
0000
0200
0000
0010
0000
0300
0000
0001
0000
1000
0000
0001
1000
0001
0000
,
1000
0000
1000
0000
0000
0000
0100
0100
0020
0000
0000
0000
0000
0000
0000
0000
,
0000
0030
0000
0000
;
