#TITLE:Weasel Riding On A Bird;
#SUBTITLE:;
#ARTIST:Parry Gripp;
#TITLETRANSLIT:;
#SUBTITLETRANSLIT:;
#ARTISTTRANSLIT:;
#GENRE:;
#CREDIT:8Chasey 2026;
#MUSIC:Weasel Riding On A Bird.ogg;
#BANNER:;
#BACKGROUND:;
#CDTITLE:;
#SAMPLESTART:1.92;
#SAMPLELENGTH:12;
#SELECTABLE:YES;
#OFFSET:-0.228;
#BPMS:0=140;
#STOPS:;
#BGCHANGES:;
#FGCHANGES:;

//--------------- dance-single - 8Chasey ----------------
#NOTES:
     dance-single:
     8Chasey:
     Beginner:
     1:
     0,0,0,0,0:
0000
0000
0000
0000
,
0001
0000
1000
0000
,
0001
0000
0000
0000
,
1000
0000
0000
0000
,
0001
0000
0000
0000
,
1000
0000
0001
0000
,
1000
0000
0000
0000
,
0001
0000
0000
0000
,
1000
0000
0000
0000
,
0010
0000
0010
0000
,
0100
0000
0000
0000
,
0000
0000
0010
0000
,
0100
0000
0000
0000
,
0010
0000
0100
0000
,
0010
0000
0000
0000
,
1000
0000
1000
0000
,
0001
0000
0001
0000
,
0100
0000
0000
0000
,
0010
0000
0000
0000
,
0100
0000
0000
0000
,
0010
0000
0000
0000
,
1000
0000
1000
1000
,
0000
0010
0000
0100
,
0000
0001
0000
0001
,
0001
0000
0000
0000
,
1000
0000
0000
0000
,
0001
0000
0000
0000
,
0100
0000
0000
0000
,
0010
0000
0000
0000
,
1000
0000
0001
0000
,
0100
0000
0010
0000
,
1000
1000
1000
0000
,
0001
0001
0001
0000
,
1000
0000
0001
0000
,
1000
0000
0000
0000
,
0001
0000
0000
0000
,
1000
0000
0000
0000
,
0001
0000
1000
0000
,
0001
0000
0000
0000
,
1000
0000
0000
0000
,
0001
0000
0000
0000
,
0100
0000
0100
0000
,
0010
0010
0010
0000
,
0000
0000
0100
0000
,
0010
0000
0100
0100
,
0100
0000
0010
0000
,
0100
0000
0000
0000
,
0010
0000
0000
0000
,
0100
0000
0000
0000
,
0000
0000
1001
0000
;

//--------------- dance-single - 8Chasey ----------------
#NOTES:
     dance-single:
     8Chasey:
     Easy:
     2:
     0,0,0,0,0:
0000
0000
0000
0000
,
0001
0000
1000
0001
,
2000
0000
3100
0000
,
0010
0000
0100
0010
,
0100
0000
0000
0000
,
1000
0000
0001
1000
,
0002
0000
0103
0000
,
0010
0000
0100
0010
,
0100
0000
0010
0000
,
1001
0000
1000
0001
,
1000
0000
0100
0000
,
0010
0000
0001
1000
,
0001
0000
0100
0000
,
0110
0000
0010
0100
,
0020
0000
1030
0000
,
0001
0000
1000
0000
,
0002
0000
1003
0000
,
0020
0000
0000
0030
,
0200
0000
0000
0300
,
0001
0000
1000
0000
,
0001
0000
0000
1001
,
0000
1000
0001
1000
,
0000
0010
0000
0100
,
0000
0001
0000
1001
,
0000
0000
1000
0000
,
0010
0000
0100
0000
,
0010
0100
0010
0000
,
2000
0000
3001
0000
,
0002
0000
1003
0000
,
0001
0000
1000
0000
,
0001
1000
0001
0000
,
1000
0001
1000
0000
,
0010
0100
0020
0000
,
0130
0000
0001
0100
,
0002
0000
1003
0000
,
0010
0000
1000
0001
,
1000
0000
0001
0000
,
1001
0000
1000
0100
,
2000
0000
3001
0000
,
0010
0000
0001
1000
,
0001
0000
1000
0000
,
0020
0000
0130
0000
,
0010
0010
1000
0000
,
0001
0000
1000
0001
,
1000
0000
0010
0010
,
0100
0000
0001
1000
,
0001
0000
1000
0000
,
0020
0000
0030
0000
,
0200
0000
0000
0000
,
0300
0000
2002
0000
,
0000
0000
0000
0000
,
0000
3003
0000
0000
;

//--------------- dance-single - 8Chasey ----------------
#NOTES:
     dance-single:
     8Chasey:
     Medium:
     5:
     0,0,0,0,0:
0000
0000
0000
0000
,
0010
0000
0100
0000
0001
0100
0001
0000
,
2000
0100
0000
3100
,
0010
0000
0100
0000
1000
0000
0001
1000
,
0001
0000
1000
0000
0010
0100
0010
0000
,
0100
0000
0010
0000
1000
0010
1000
0000
,
0002
0100
0000
0103
,
0010
0000
0100
0000
0001
1000
0001
0000
,
1000
0000
0100
0010
,
0002
0100
0103
0010
,
2000
0100
3100
0010
,
0100
0010
0001
1000
,
0010
0000
0110
0000
0100
0010
0100
0000
,
0001
0000
0100
0000
0010
1000
0010
0000
,
0200
0010
0000
0310
,
1000
0100
0010
0001
,
1001
0000
1000
0000
0001
1000
0001
0000
,
0200
0000
0310
0100
,
0001
0100
0010
0000
,
0100
0010
1000
0000
,
0001
1000
0001
1001
,
2000
0100
0000
3010
,
0100
0010
0000
0100
,
0002
0010
0000
0103
,
0010
1000
0001
1000
,
0100
0100
0010
0000
,
0001
0100
0001
0000
,
1001
0000
1000
0010
,
1000
0000
0100
0000
,
0110
0010
0001
0000
,
1001
1000
0100
0000
,
0010
0010
0100
0100
,
1000
0001
1000
0001
,
1001
0000
1000
0000
0010
0100
0010
0000
,
0200
0001
0000
0301
,
0010
0001
0100
1000
,
0100
0010
0110
0100
,
0001
0000
0001
0000
0010
0100
0010
0000
,
0200
1000
0000
1300
,
0010
0000
1000
0000
0100
0010
0100
0000
,
0010
0001
1000
0001
,
2000
0010
3010
0100
,
0002
0010
0013
0100
,
0010
0001
1000
0010
,
0100
0000
0110
0000
0010
0100
0010
0000
,
0100
0000
0100
0000
0001
0100
0001
0000
,
1000
0001
0100
0010
,
0110
0000
0010
0000
,
0200
0000
0000
0000
,
0300
0000
2002
0000
,
0000
0000
0000
0000
,
0000
0000
0000
3003
;

//--------------- dance-single - 8Chasey ----------------
#NOTES:
     dance-single:
     8Chasey:
     Hard:
     7:
     0,0,0,0,0:
0000
0000
0000
0000
,
2000
0000
0010
0000
3100
0010
0100
0010
,
0001
0000
0101
0000
0100
0000
0010
1000
,
0100
0000
0000
0000
0010
0000
0001
0000
0010
0000
0000
0010
0000
0000
0100
0000
,
0010
0000
0001
0000
1000
0001
1000
0000
,
0002
0000
0100
0000
0013
0100
0010
0100
,
1000
0000
1010
0000
0010
0000
0100
0001
,
0100
0000
0001
0000
0010
0001
0010
0000
,
0100
0000
1100
0000
1000
0001
1000
0001
,
0100
0000
0010
0100
0010
0000
1000
0000
,
0200
0000
1000
0000
0001
0000
1300
0100
,
1000
0000
0000
0000
0010
0000
0000
0000
0100
0000
0000
0001
0000
0000
0100
0000
,
0001
0000
1001
0000
1000
0100
1000
0000
,
0020
0000
0001
0000
1030
0001
1000
0001
,
0100
0000
0110
0000
0010
1000
0010
0000
,
0100
0000
0000
0000
0001
0000
0100
0000
0001
0000
0000
1000
0000
0000
0001
0000
,
1000
0000
0100
0010
0100
0010
0100
0000
,
0110
0000
0010
0000
0001
0000
0100
0010
,
0100
0000
0010
1000
0010
1000
0000
1000
,
0100
0000
0010
0000
0100
0010
0100
0000
,
0020
0000
0001
0000
0130
1000
0000
1000
,
0100
0000
1000
0001
1000
0000
0020
0000
,
0130
0100
0020
0000
0100
0000
0130
0001
,
0100
0000
0010
1000
0100
0000
0110
0000
,
0010
0000
0000
0001
0000
0000
0010
0000
0001
0000
0000
0000
1000
0000
0000
0000
,
0100
0010
0100
0000
0110
0000
0010
0000
,
0001
1000
0001
0000
1001
0000
1000
0000
,
0220
0330
0002
0100
,
1003
0000
0100
0000
0010
0100
0010
0000
,
0011
0001
0101
0110
,
1000
0010
1000
0000
1001
0000
0001
1000
,
0001
0101
1010
1100
,
1000
0001
0010
0001
0100
0010
0100
0000
,
0210
0000
1000
0000
0301
0010
0001
1000
,
0010
0000
0101
0000
0100
0000
0001
1000
,
0001
0000
0000
0000
0010
0000
0001
0000
0010
0000
0000
0010
0000
0000
0100
0000
,
0010
0000
0100
0000
1100
1000
0001
0000
,
0201
0000
1000
0000
0310
1000
0010
0100
,
0001
0000
1010
0000
1000
0000
0100
0010
,
0100
0000
0010
0000
0001
0010
0001
0000
,
1000
0000
1001
0000
0001
0100
0001
0000
,
0010
0000
0100
0010
0200
0000
0001
0000
,
1300
0000
0101
0000
1001
0000
0001
0010
,
0001
0000
0000
0000
1000
0000
0000
0000
0010
0000
0000
0100
0000
0000
0100
0000
,
0010
0000
1000
0000
0001
1000
1001
0000
,
0002
0000
0203
0000
0310
1000
0020
0000
,
2030
0000
3100
0000
0010
0100
0010
0000
,
0220
0000
0000
0000
0330
0000
0000
0000
0010
0000
0000
0001
0000
0000
1000
0000
,
0200
0000
0000
0000
,
0000
0300
2002
0000
,
0000
0000
0000
0000
,
0000
0000
0000
3003
;
