#TITLE:We No Speak Americano;
#SUBTITLE:-Just Dance 4 Mix-;
#ARTIST:Hit The Electro Beat;
#TITLETRANSLIT:;
#SUBTITLETRANSLIT:;
#ARTISTTRANSLIT:;
#GENRE:;
#CREDIT:;
#MUSIC:We No Speak Americano (Just Dance 4 Mix).ogg;
#BANNER:We No Speak Americano (Just Dance 4 Mix).png;
#BACKGROUND:We No Speak Americano (Just Dance 4 Mix)-bg.png;
#CDTITLE:;
#SAMPLESTART:18.475;
#SAMPLELENGTH:15.360;
#SELECTABLE:YES;
#OFFSET:-1.920;
#BPMS:0.000=125.000;
#STOPS:33.000=0.480
,96.000=0.480
,128.000=0.480
,143.000=0.480
;
#ORIGIN:;
#PREVIEWVID:;
#JACKET:;
#CDIMAGE:;
#DISCIMAGE:;
#BGCHANGES:;
#FGCHANGES:;

//--------------- dance-single - ----------------
#NOTES:
     dance-single:
     :
     Beginner:
     1:
     0.192742,0.247784,0.186811,0,0,130,112,18,0,0,0,0,0,0,0.192742,0.247784,0.186811,0,0,130,112,18,0,0,0,0,0,0:
0000
0000
0000
0000
,
0000
0000
0000
0000
,
0001
0000
1000
0000
,
0001
0000
1001
0000
,
1000
0000
0001
0000
,
1000
0000
1001
0000
,
0010
0000
0100
0000
,
0110
0000
0001
0001
,
0000
1001
0000
1000
,
0000
0001
0001
0001
,
0000
1000
0000
0010
,
0010
0010
0000
0100
,
0100
0100
0000
0001
,
0000
1000
1000
1000
,
0000
0001
0000
0010
,
0000
0100
0000
0110
,
0110
0110
0000
0001
,
0001
0001
0000
0100
,
0000
0001
0000
1000
,
1000
1000
0000
0010
,
0000
1000
0000
0001
,
0000
1001
0000
1000
,
0000
1001
0000
0110
,
0000
1000
1000
0000
,
0110
0000
0010
0000
,
0001
0000
0100
0000
,
1000
0000
0010
0000
,
0100
0000
0001
0000
,
1000
0000
0100
0100
,
0100
0000
0010
0010
,
0010
0000
0001
0001
,
0001
0000
1000
1000
,
1000
0000
0100
0000
,
0010
0010
0000
0100
,
0000
0001
0000
1000
,
0000
1001
0000
0000
,
0010
0000
0100
0100
,
0100
0000
0010
0000
,
0001
0001
0001
0000
,
1000
1000
1000
0000
,
0100
0000
0010
0010
,
0010
0000
0100
0000
,
0001
0000
1000
0000
,
1001
1001
1001
0000
,
0001
0001
0001
0000
,
1000
1000
1000
0000
,
0010
0000
0100
0000
,
0110
0000
1001
1001
;

//--------------- dance-single - ----------------
#NOTES:
     dance-single:
     :
     Easy:
     3:
     0.209051,0.223006,0.093406,0.114162,0,141,132,9,11,0,0,0,0,0,0.209051,0.223006,0.093406,0.114162,0,141,132,9,11,0,0,0,0,0:
0000
0000
0000
0000
,
0000
0000
0000
0000
,
0001
0010
0001
0000
,
2000
0000
3100
0000
,
1000
0010
1000
0000
,
0002
0000
0103
0000
,
0010
0010
0100
0100
,
0110
0000
0001
1000
,
0000
1001
0000
0001
,
0010
0100
0000
1000
,
1000
1000
0000
1000
,
0010
0100
0000
0001
,
0001
0001
0000
0100
,
0010
0110
0000
0001
,
0001
1000
0000
0010
,
0001
0100
1000
0001
,
1000
0010
0000
0001
,
0001
0010
0000
0100
,
1000
0001
0000
1000
,
1000
0010
0000
0100
,
0001
1000
0000
0002
,
0010
0013
0000
2000
,
0010
3010
0000
0100
,
0000
0010
0000
0110
,
1001
0000
0001
1000
,
0001
0000
1000
0001
,
1000
0000
0010
0010
,
0010
0000
0200
0000
,
0310
0000
0001
0001
,
0001
0000
1000
1000
,
1000
0000
0010
0100
,
0010
0100
0010
0000
,
0110
0001
0001
1000
,
1000
0010
0100
0001
,
0000
1000
0001
0001
,
1000
0010
0000
0000
,
0001
0100
0010
0000
,
0000
1000
1000
0000
,
1000
0001
1000
0000
,
0202
0000
0303
0000
,
1000
0100
0010
0000
,
0000
0001
0001
0000
,
0001
1000
0001
0000
,
2200
0000
3300
0000
,
0010
0010
0100
0001
,
0010
0010
0100
1000
,
0001
1000
0020
0030
,
0200
0300
0010
1001
;

//--------------- dance-single - ----------------
#NOTES:
     dance-single:
     :
     Medium:
     6:
     0.354348,0.421233,0.124541,0.093406,0.103784,239,227,12,9,0,0,0,0,0,0.354348,0.421233,0.124541,0.093406,0.103784,239,227,12,9,0,0,0,0,0:
0000
0000
0000
0000
,
0000
0000
0000
0000
,
0001
0100
1000
0000
1000
0100
0001
0000
,
0020
0000
0130
0000
1000
0001
1000
0000
,
0001
0010
1000
0010
,
0100
0100
0010
0100
,
0001
0100
0001
0000
1000
0100
1000
0000
,
0010
0000
0100
0001
0010
0000
0100
1000
,
0010
1001
0000
0001
,
0010
0000
0000
0000
0100
0000
0000
1000
0000
0000
0000
0000
1000
0000
0001
0000
,
1000
0000
0000
0000
0010
0000
0000
0010
0000
0000
0000
0000
0100
0000
0001
0000
,
0010
0000
0000
0000
0001
0000
0000
1000
0000
0000
0000
0000
0010
0000
0100
0000
,
0010
0000
0000
0000
1000
0000
0000
0001
0000
0000
0100
0000
0010
0000
0000
0000
,
1000
0000
0000
0000
0001
0000
0000
0100
0000
0000
0000
0000
0001
0000
0001
0000
,
0001
0000
0000
0000
1000
0000
0000
0100
0000
0000
0000
0000
0010
0000
0000
0000
,
1100
0000
0000
0000
0001
0000
0000
0100
0000
0000
0000
0000
0010
0000
0000
0000
,
0100
0110
0000
1000
,
0100
0000
0000
0000
0001
0000
0000
0010
0000
0000
0000
0000
0100
0000
0010
0000
,
0100
0000
0000
0000
1000
0000
0000
0100
0000
0000
0000
0000
1000
0000
0001
0000
,
0100
0000
0000
0000
0010
0000
0000
0010
0000
0000
0000
0000
0101
0000
0000
0000
,
0010
0000
0100
1000
0010
0100
0010
0000
,
1000
0000
0000
0000
0001
0000
0000
0001
0000
0000
0000
0000
0010
0000
0001
0000
,
1000
0000
0000
0000
0100
0000
0000
0100
0000
0000
0000
0000
2000
0000
0100
0000
,
0000
3100
0002
0100
0000
0103
0010
0000
,
1001
0000
0000
0000
0010
0100
0001
0000
,
1000
0000
0000
1000
0000
0000
0000
0000
0010
0000
0100
0000
0001
0000
0000
0000
,
0010
0000
0000
0100
0000
0000
0000
0000
1000
0000
0000
0000
0001
0000
0000
0000
,
0010
0000
0000
0010
0000
0000
0000
0000
0001
0000
1000
0000
0001
0000
1000
0000
,
0010
0100
0010
0000
0110
0000
0001
0000
,
0100
0000
0000
0010
0000
0000
1000
0000
0100
0000
0010
0000
0001
0000
0000
0000
,
1000
0001
1000
0000
0011
0000
1010
0000
,
0100
0000
0010
0000
0100
0000
0000
0000
0001
0000
1000
0000
0000
0010
0000
0000
,
0110
0000
0001
0100
0001
0100
1000
0100
,
1000
0100
0010
1000
0001
0100
0010
0010
,
0010
0000
1000
0001
1000
0001
0100
0010
,
0100
0010
2000
0000
3000
0000
0001
0000
,
0100
0000
0000
0000
0101
0000
0000
0000
1000
0000
0000
0100
0000
0000
0000
0000
,
0000
0000
0010
0010
0010
0100
0001
1000
,
0001
0000
0000
0000
1000
0000
0000
0000
0010
0000
0000
0100
0000
0000
0000
0000
,
1000
0001
0100
0001
2000
0000
3010
0000
,
0100
0000
0010
0000
0100
0000
0000
0000
0001
0000
0000
0001
0000
0000
0000
0000
,
0000
0000
1000
1000
1000
0001
0010
0100
,
2000
3010
0002
0013
,
0100
1000
0001
0000
1001
0000
0000
0000
,
0010
0100
0001
1000
,
0100
0010
0001
1000
,
0010
0100
0002
0103
,
2000
3100
0010
1001
;

//--------------- dance-single - ----------------
#NOTES:
     dance-single:
     :
     Hard:
     8:
     0.517437,0.644239,0.51892,0.124541,0.192,349,299,50,12,0,0,0,0,0,0.517437,0.644239,0.51892,0.124541,0.192,349,299,50,12,0,0,0,0,0:
0000
0000
0000
0000
,
0000
0000
0000
0000
,
1000
0100
1000
0000
0001
0000
1000
0000
0001
0100
0001
0000
1000
0000
0001
0000
,
0100
0000
0001
1000
0100
0000
1000
0001
,
0010
0010
0001
0010
0100
0100
1000
0000
,
0010
0010
1000
0010
0100
0100
0001
0000
,
0100
0000
0000
1000
0000
0010
0100
0001
0100
0000
0000
0001
0000
0010
0100
1000
,
0100
2010
0000
0001
3100
0012
0000
1000
,
0103
0000
1001
0010
0010
0100
0001
1000
,
0100
0000
0000
0000
0110
0000
0000
1001
0000
0000
0000
0000
1000
0000
0001
0000
,
0100
0000
0000
0000
0110
0000
0000
1001
0000
0000
0000
0000
0201
0000
0000
0000
,
0010
0000
0010
0000
0301
0000
0000
1001
0000
0000
0000
0000
1200
0000
0000
0000
,
0010
0000
0010
0000
1300
0000
0000
1001
0000
0000
0000
0000
0010
0000
0000
0000
,
1100
0000
0000
0000
0001
0000
0100
0001
0000
0000
1000
0000
0010
0000
0000
0000
,
0101
0000
0000
0000
1000
0000
0100
1000
0000
0000
0001
0000
0100
0000
0000
0000
,
1010
0000
0000
0000
0100
0000
0000
0000
0011
0000
0000
0000
1000
0000
0010
1000
,
0100
0000
1000
0001
1000
0000
0000
0000
1001
0000
0000
0000
0101
0000
0000
0000
,
1200
0000
0000
0000
0310
0000
0100
0010
0000
0000
0000
0000
1100
0000
0000
0000
,
0201
0000
0000
0000
0310
0000
0100
0010
0000
0000
0000
0000
1001
0000
0000
0000
,
0110
0000
1000
0100
0010
0001
1001
0000
,
0110
0000
0001
0100
0010
1000
1001
0000
,
0110
0000
1000
0010
0100
0001
1001
0000
,
0110
0000
0001
0010
0100
1000
0000
0012
,
0000
1000
0103
2010
0000
0001
3100
0000
,
0110
0000
0001
1000
0001
0000
0100
0000
0010
0000
0000
0000
0110
0000
0000
0000
,
1000
0001
1000
0100
0010
0000
0110
0000
,
0001
1000
0001
0010
0100
0000
0110
0000
,
1000
0001
1000
0010
0100
0000
0110
0000
,
1000
1000
0100
0100
0010
0000
1001
0000
,
0001
0001
0100
0100
0010
0000
1001
0000
,
0010
0010
0001
0001
1000
0000
1001
0000
,
0010
0000
0010
0000
1000
0000
1000
0000
0001
0000
0010
0001
0100
0000
0001
1000
,
0001
0000
0010
0001
0100
0100
0000
0001
,
0100
0001
0010
1000
0100
0100
0000
1000
,
0100
1000
0001
0010
0100
0010
1000
0010
,
0100
0010
0220
0000
0330
0000
1001
0000
,
0001
0000
0000
0000
0100
0000
0010
0000
0100
0000
0000
0010
0000
0000
0000
0000
,
0010
0000
0000
0000
0100
0010
0100
0010
0100
0000
0001
0000
0001
0000
1000
0000
,
1000
0000
0000
0000
0100
0000
0010
0000
0100
0000
0000
0010
0000
0000
0000
0000
,
0010
0000
0000
0000
0100
0010
0100
0010
0100
0000
1000
0000
1000
0000
0001
0000
,
0001
0210
0301
1001
,
1000
0210
1300
1001
,
0001
0100
0010
0100
0010
1000
0100
0000
,
1000
0100
0010
0100
0010
0001
0100
0000
,
1000
0100
1000
0000
0001
0100
0001
0000
1000
0100
1000
0000
0001
0100
0001
0000
,
1000
0010
1000
0000
0001
0010
0001
0000
1000
0010
1000
0000
0001
0010
0001
0000
,
1000
0001
1000
0000
0010
0100
0010
0000
0110
0000
0000
0000
0101
0000
0000
0000
,
1100
0011
1010
1001
;

//--------------- dance-single - Choreography ----------------
#NOTES:
     dance-single:
     Choreography:
     Edit:
     5:
     0,0,0,0,0:
0000
0000
0000
0000
,
0000
0000
0000
0000
,
0000
0000
0000
0000
,
0000
0000
0000
0000
,
0001
1000
0001
1000
,
0001
1000
0001
1000
,
0001
1000
0001
1000
,
0000
0001
0000
0000
0100
0000
0000
0000
0000
1000
0000
0000
0100
0000
0000
0000
,
0000
0010
0000
0001
,
1000
0001
0001
1000
,
0001
1000
1000
0001
,
0001
0001
0001
1000
,
1000
1000
1000
0001
,
1000
0001
0001
1000
,
0001
1000
1000
0001
,
0001
0001
0001
1000
,
1000
1000
0000
0001
,
1000
0001
1000
0001
,
1000
0001
2000
0010
,
0100
0010
0100
0010
,
0100
0010
3100
0001
,
1000
0001
1000
0001
,
1000
0000
0000
0000
0001
0000
0000
0000
1000
0000
0000
0000
0000
0001
0000
0000
,
0100
0000
0000
0000
0000
1000
0000
0000
0100
0000
0000
0000
0000
0000
0000
0000
,
0010
0000
0001
1000
,
0001
0001
1000
0001
,
1000
1000
0001
0001
,
0001
0001
1000
1000
,
1000
1000
0001
1000
,
0001
0001
1000
0001
,
1000
0000
0000
0000
1000
0000
0000
0000
0000
0001
0000
0000
0100
0000
0000
0000
,
0000
1000
0000
0000
0100
0000
0000
0000
0001
0000
0000
0000
1000
0000
0000
0000
,
0001
0000
0001
1000
0001
1000
0001
1000
,
0001
1000
0010
0100
0010
0100
0010
0100
,
0010
0100
0001
1000
0001
1000
0001
1000
,
0001
1000
0010
0100
0010
0100
0010
0000
,
0001
1000
0001
0001
,
1000
0001
1000
1000
,
0001
0001
0001
0001
,
1000
1000
1000
1000
,
0001
1000
0001
0001
,
1000
0001
1000
1000
,
0000
0001
0000
0000
0100
0000
0000
0000
0000
1000
0000
0000
0100
0000
0000
0000
,
0001
1000
0001
0000
,
0001
1000
0001
1000
,
0001
1000
0001
1000
,
0001
0000
0000
0000
1000
0000
0000
0000
0000
0001
0000
0000
0100
0000
0000
0000
,
0000
1000
0000
0000
0100
0000
0000
0000
0000
0000
0000
0000
0010
0000
0000
0000
;
