#TITLE:We Are The Champions;
#SUBTITLE:;
#ARTIST:Queen;
#TITLETRANSLIT:;
#SUBTITLETRANSLIT:;
#ARTISTTRANSLIT:;
#GENRE:;
#CREDIT:;
#MUSIC:We Are The Champions.ogg;
#BANNER:;
#BACKGROUND:;
#CDTITLE:;
#SAMPLESTART:34.050;
#SAMPLELENGTH:15.000;
#SELECTABLE:YES;
#OFFSET:2.162;
#BPMS:0.000=62.950
,20.000=60.500
,21.000=61.200
,22.000=66.200
,23.000=62.500
,24.000=59.900
,25.000=61.200
,26.000=63.600
,27.000=65.200
,28.000=62.200
,32.000=63.600
,38.000=62.000
,40.000=63.000
,42.000=65.000
,43.000=62.000
,44.000=63.300
,50.000=67.600
,51.000=62.100
,52.000=63.220
,62.000=63.600
,72.000=63.400
,80.000=63.000
,94.000=63.100
,95.000=63.800
,108.000=61.700
,109.000=63.600
,118.000=63.400
,126.000=63.800
,152.000=65.100
,156.000=65.200
,168.000=64.300
,180.000=64.200
,183.000=64.900
,184.000=66.000
,185.000=64.000
;
#STOPS:;
#DISPLAYBPM:61.000;
#BGCHANGES:;
#FGCHANGES:;

//--------------- dance-single - ----------------
#NOTES:
     dance-single:
     :
     Beginner:
     1:
     0,0,0,0,0:
0000
0000
0000
0000
,
0000
0000
0000
0000
,
0000
0000
0000
0000
,
0001
0000
0000
0000
,
1000
0000
0000
0000
,
0100
0000
0100
0000
,
0010
0000
0010
0000
,
1000
0000
0001
0000
,
0100
0000
0010
0000
,
0010
0010
0010
0000
,
1000
0000
0100
0000
,
0000
0000
0010
0000
,
0001
0000
0100
0000
,
0000
0000
0010
0000
,
0001
0000
0100
0000
,
1000
0000
0100
0000
,
0100
0000
0010
0000
,
0010
0000
0000
0000
,
0100
0000
0000
0000
,
0000
0000
0000
0000
,
0001
0000
1000
0000
,
0100
0000
0000
0000
,
0010
0000
0100
0000
,
0001
0000
0100
0000
,
1000
0000
0000
0000
,
0100
0000
0001
0000
,
0010
0000
1000
0000
,
0001
0000
1000
0000
,
0010
0000
0100
0000
,
0100
0100
0100
0000
,
0001
0000
1000
0000
,
0000
0000
0010
0000
,
1000
0000
0001
0000
,
0000
0000
0000
0000
,
0100
0100
0000
0000
,
0010
0010
0000
1000
,
1000
0000
0000
0001
,
0001
0000
0010
0000
,
0100
0000
0000
0000
,
0100
0000
0001
0000
,
1000
0000
0000
0000
,
0100
0000
1000
0000
,
0001
0000
0000
0000
,
0010
0000
0000
0000
,
1000
0000
0001
0000
,
1000
0000
0001
0000
,
0100
0000
0000
0000
;

//--------------- dance-single - ----------------
#NOTES:
     dance-single:
     :
     Easy:
     1:
     0,0,0,0,0:
0000
0000
0000
0000
,
0000
0000
0000
0000
,
0000
0000
0000
0000
,
0001
0000
0000
0000
,
1000
0000
0000
0000
,
0100
0000
0100
0000
,
0010
0000
0010
0000
,
1000
0000
0001
0000
,
0100
0000
0010
0000
,
0010
0010
0010
0000
,
1000
0000
0100
0000
,
0000
0000
0010
0000
,
0001
0000
0100
0000
,
0000
0000
0010
0000
,
0001
0000
0100
0000
,
1000
0000
0100
0000
,
0100
0000
0010
0000
,
0010
0000
0000
0000
,
0100
0000
0000
0000
,
0000
0000
0000
0000
,
0001
0000
1000
0000
,
0100
0000
0000
0000
,
0010
0000
0100
0000
,
0001
0000
0100
0000
,
1000
0000
0000
0000
,
0100
0000
0001
0000
,
0010
0000
1000
0000
,
0001
0000
1000
0000
,
0010
0000
0100
0000
,
0100
0100
0100
0000
,
0001
0000
1000
0000
,
0000
0000
0010
0000
,
1000
0000
0001
0000
,
0000
0000
0000
0000
,
0100
0100
0000
0000
,
0010
0010
0000
1000
,
1000
0000
0000
0001
,
0001
0000
0010
0000
,
0100
0000
0000
0000
,
0100
0000
0001
0000
,
1000
0000
0000
0000
,
0100
0000
1000
0000
,
0001
0000
0000
0000
,
0010
0000
0000
0000
,
1000
0000
0001
0000
,
1000
0000
0001
0000
,
0100
0000
0000
0000
;

//--------------- dance-single - ----------------
#NOTES:
     dance-single:
     :
     Medium:
     3:
     0,0,0,0,0:
0000
0000
0000
0000
,
0000
0000
0000
0000
,
0000
0000
0000
0000
,
0001
0100
0010
0010
,
1000
0100
0001
0000
,
1001
0000
1000
0010
,
0001
0000
0100
0001
,
1000
0010
0010
0100
,
1001
0000
0001
1000
,
0001
1000
0010
0000
,
1000
0001
0100
0100
,
0010
1001
1000
0100
,
0001
0010
0001
1000
,
0100
0000
0010
1000
,
0001
0001
0100
0010
,
0100
0100
0001
1000
,
0100
0110
0010
0001
,
1000
1001
0100
0000
,
0010
0000
0000
0000
,
0001
0000
0000
0000
,
1000
0000
0100
0000
,
0010
0001
1000
0000
,
1000
1000
0100
0000
,
0001
1000
0010
0100
,
0001
0001
0100
0000
,
1010
1000
0001
0010
,
0011
0001
0100
0010
,
1000
1000
0100
0001
,
0001
0000
0010
0001
,
1000
0010
0110
1000
,
0100
0001
0010
0000
,
0001
0000
1000
0001
0000
0000
0010
0000
0000
0100
0000
0000
,
1000
0000
0000
1000
0000
0000
0001
0000
0000
0100
0010
0100
,
0010
0000
1001
0001
,
1000
0100
0110
0010
,
0001
1000
0010
0010
,
1000
1000
0001
0001
,
0100
0010
1001
0000
,
1000
0100
0001
1000
,
0010
0000
1000
0101
,
0010
1000
0001
0010
,
0100
0000
0000
0000
0010
0100
0010
0000
0000
1100
0000
0000
,
0001
0001
0010
0001
,
1000
1000
0010
0100
,
1000
0100
0001
0010
,
0001
1000
0100
0010
,
1001
0000
0000
0000
;

//--------------- dance-single - ----------------
#NOTES:
     dance-single:
     :
     Hard:
     6:
     0,0,0,0,0:
0000
0000
0000
0000
,
0000
0000
0000
0000
,
0000
0000
0000
0000
,
0010
0000
0000
0001
0000
0000
1000
1000
0000
0100
1000
0001
,
0010
0000
0000
1000
0000
0000
0001
1000
0001
0100
0000
0100
,
0010
1000
1000
0100
,
0001
0100
0010
1000
,
0101
0001
1100
1000
,
0010
0000
0000
0001
1000
0001
1000
0000
1000
0001
0000
0001
,
0100
0000
0100
0010
0000
0000
1000
0000
1000
0100
1000
0001
,
0010
0000
0010
0001
1000
0100
1000
0000
0010
0100
1000
0100
,
0001
0000
0000
1001
0000
0000
0010
0000
0010
0001
0100
0010
,
1000
0000
1000
0001
1000
0100
0010
0000
1000
0010
0001
0100
,
0010
0000
1000
0000
0001
0000
1001
0000
0001
0001
0000
1000
,
1000
0000
0100
0010
0000
0000
0110
0000
0000
1000
0000
0100
,
0001
0000
0010
0100
0000
0000
1100
0000
1000
0001
0000
0001
,
0100
0000
0010
1000
0000
0000
0101
0000
0001
1000
0000
0010
,
1000
0000
0100
0010
0100
1000
0001
1000
0000
0000
0000
0000
,
0010
0000
0000
0000
0000
0000
0000
0000
0000
0000
0000
0100
,
0100
0000
0000
0000
,
1000
0100
0001
0010
,
0001
0000
0000
1000
0000
1000
0010
0100
0001
0000
0001
0000
,
1000
0000
0000
0001
0000
0010
0001
1000
0010
0000
0010
0000
,
0100
0000
0001
1000
0000
0100
1000
0000
0001
0100
0000
0100
,
0010
0000
1000
0100
0000
0000
0010
0001
0100
0000
0001
0000
,
1000
0000
1000
0010
0000
0010
1000
0001
0010
0100
0000
0100
,
1000
0000
0010
0100
0000
0100
0001
0100
0010
1000
0100
0010
,
0100
1100
0101
1001
,
0001
0010
0001
1000
0010
1000
0100
0000
0100
1000
0000
1000
,
0001
0000
0001
0010
0000
0000
1001
0000
1000
0001
0000
0001
,
0010
0001
0100
0010
0000
0010
1000
0000
1000
0001
0001
0010
,
0001
0000
0100
0010
0000
0000
1100
0000
1000
0010
0100
1000
,
0100
0000
0001
1000
0100
0010
0001
0000
0000
0001
0100
0001
,
0101
0000
0010
0000
1000
0000
1001
0000
0000
1000
0000
0100
,
0010
0001
1000
0010
0000
0000
0001
0000
0000
0010
0000
1000
,
0100
0000
0000
0010
0000
0000
0001
0100
0000
0100
0000
0010
,
1000
0100
0000
0100
0000
1000
0001
0000
0000
0010
0001
0100
,
0010
0000
1000
0001
0100
0010
0100
0100
0000
0000
0000
0000
,
1001
0000
0000
1000
0100
0001
0010
0000
0010
0001
1000
0010
,
0100
0000
0000
0100
0001
1000
0100
0000
0010
0100
0000
0010
,
0100
1000
0001
0100
0000
0001
1000
0010
0100
1000
0000
0100
,
0001
0010
0100
0010
0100
1000
0001
0000
1001
0000
1000
0000
,
0010
0000
0010
1000
0000
0001
0010
0000
0100
0010
0000
0000
,
1100
0000
1000
0001
0000
0001
0101
0000
0010
0100
0000
0000
,
0001
0100
1000
0010
0000
0000
1000
0100
0001
0100
0000
0000
,
0010
0000
0001
1000
0000
0010
0100
0001
1000
0100
0000
0000
,
0010
0010
0000
0000
0000
0000
0000
0000
0000
0000
0000
0000
;

//--------------- dance-single - ----------------
#NOTES:
     dance-single:
     :
     Challenge:
     7:
     0,0,0,0,0:
0000
0000
0000
0000
,
0000
0000
0000
0000
,
0000
0000
0000
0000
,
2000
0000
3100
1000
0100
0010
0002
0100
0000
0013
0001
0010
,
0200
0000
0000
1300
0100
0010
0001
0010
0000
0010
0001
1000
,
0010
0000
0000
1001
1000
0000
0100
0001
0100
0010
0001
1000
,
0010
0000
0000
0110
0001
0000
1000
0010
0001
0100
0001
1000
,
0200
0000
1300
0002
0000
0010
0023
0000
0031
2000
0000
0010
,
3020
0000
0000
0130
0001
1000
0110
0000
1000
1100
0000
0001
,
0101
0000
0010
2002
0000
3003
0001
0000
0001
1000
0100
0010
,
0100
0000
0100
1000
0001
0100
0110
0000
0010
1000
0001
0010
,
1100
0000
0010
0101
0000
0000
0010
0000
0010
0001
1000
0010
,
0100
0000
0100
1000
0100
0001
1000
0100
0010
0001
1000
0001
,
2000
0000
3020
0000
0230
0000
0301
0000
0001
0010
0100
2000
,
0010
0000
3020
0100
0000
0000
0230
0000
0301
0010
0001
1000
,
0002
0000
0203
0010
0000
0000
0302
0000
0010
0013
0001
1000
,
2000
0000
0100
3100
0010
0100
0020
0000
0000
0031
1000
0010
,
0200
0000
0000
0301
0000
0000
1000
1001
0000
0000
0001
0010
,
2100
0000
0000
0000
0000
0000
0010
0000
0000
0000
0100
0001
,
3002
0000
0000
0000
0000
0000
0010
0010
0100
0000
1000
0000
,
0013
0000
0000
0100
1000
0001
0100
0010
0010
0000
1000
0001
,
1001
0000
1000
0010
0000
0010
0100
0001
0010
0001
0010
0100
,
0110
0000
0010
0100
1000
0100
0001
0100
0010
0001
1000
0010
,
1000
1000
0100
0001
0001
0010
0001
1000
0010
0000
1100
0010
,
0101
0000
0000
0010
0001
0010
0100
1000
0010
0100
0000
0000
,
0102
0000
0000
0013
0001
0010
0001
1000
0010
0100
1000
0100
,
2010
0000
0000
3010
0100
1000
0100
0001
0010
0001
1000
0010
,
0102
0000
0013
0200
0000
1300
2000
0000
3001
0020
0000
0000
,
0130
0000
0000
0110
1000
0100
0011
0000
0001
1100
0000
0010
,
0100
0000
0000
0220
0000
0330
0010
0001
0010
0001
1000
0010
,
0101
0000
0001
1000
0010
0100
1001
0000
0001
0100
0010
0001
,
1010
0000
1000
0011
0000
0000
0110
0000
0010
0001
1000
0010
,
0010
0000
0100
0010
1000
0100
0001
0000
0100
0010
0001
1000
,
0002
0000
0023
0000
0230
0000
2300
0000
0000
3010
0100
0001
,
0012
0000
0100
0203
0000
0000
0310
1000
0001
0020
0000
0100
,
0130
1000
0010
0101
0000
0000
2100
0000
0010
3020
0100
0000
,
0230
0000
0001
0302
0000
0000
1003
0100
0001
1000
0010
0001
,
0100
0001
0010
1100
0000
0000
0101
1001
0000
1000
0001
0010
,
0002
0000
0100
0103
0010
2000
0100
0000
3010
0100
1000
0100
,
0001
0000
0001
1000
0100
0010
1100
1000
0001
0011
0010
0100
,
0010
0000
0010
0100
1000
0001
0100
0000
0100
0000
0010
1000
,
0011
0010
0000
0010
0001
1000
0200
0000
2300
0000
3002
0000
,
0103
0000
0100
0001
0010
0100
1000
0000
1000
0001
0100
0010
,
0101
0000
0001
0010
0001
1000
1100
0000
0010
1001
0000
0000
,
0001
0010
0001
0100
1000
0100
0010
1000
0100
0001
0100
0010
,
0001
0100
0010
1000
0001
0100
0010
0010
1000
0001
0100
0100
,
0010
0020
0000
0000
0000
0000
0000
0000
0000
0030
0000
0000
;

//--------------- dance-double - ----------------
#NOTES:
     dance-double:
     :
     Easy:
     2:
     0,0,0,0,0:
00000000
00000000
00000000
00000000
,
00000000
00000000
00000000
00000000
,
00000000
00000000
00000000
00000000
,
00001000
00000000
01000000
00000000
,
00010000
00000000
00000100
00000000
,
00000010
00000000
00000010
00000000
,
00000100
00000000
00000100
00000000
,
00001000
00000001
00001000
00000001
,
00000100
00000000
00011000
00000000
,
00100000
01000000
00100000
00000000
,
10000000
00000000
00010000
00000000
,
01000000
01000000
00001000
00000000
,
00010000
00000000
00000100
00000000
,
00000010
00000000
00000001
00000001
,
00000001
00000000
00001000
00001000
,
00001000
00000000
00000100
00000000
,
00010000
00000000
00001000
00000000
,
01000000
00000000
00100000
00000000
,
01100000
00000000
00000000
00000000
,
00000000
00000000
00000000
00000000
,
00001000
00000000
00010000
00000000
,
00000100
00000000
00000010
00000000
,
00000010
00000000
00000100
00000000
,
00010000
00001000
00010000
00000000
,
00001000
00000000
00000000
00000000
,
00100000
00010000
00100000
00000000
,
01000000
10000000
01000000
00000000
,
00010000
00000000
00001000
00001000
,
00010000
00000000
00011000
00000000
,
00000010
00000100
00000010
00000000
,
00001000
00000000
00000001
00000000
,
00000100
00000100
00010000
00000000
,
00001000
00000000
01000000
00000000
,
00100000
00000000
10000000
10000000
,
10000000
00000000
00010000
00010000
,
00010000
00000000
01000000
00000000
,
00001000
00000000
00010000
00000000
,
00000100
00000000
00000010
00000000
,
00001001
00000000
00000000
00000000
,
00000001
00000000
00001000
00000001
,
00001000
00000000
00000100
00000000
,
00010000
00001000
00011000
00000000
,
00100000
00000000
00010000
00100000
,
01000000
00000000
10000000
01000000
,
00100000
00000000
00001000
00000000
,
00010000
00000000
00000010
00000000
,
00000110
00000000
00000000
00000000
;
