#TITLE:We Are Number One;
#SUBTITLE:;
#ARTIST:LazyTown;
#TITLETRANSLIT:;
#SUBTITLETRANSLIT:;
#ARTISTTRANSLIT:;
#GENRE:;
#CREDIT:;
#BANNER:;
#BACKGROUND:;
#LYRICSPATH:We Are Number One.lrc;
#CDTITLE:;
#MUSIC:We Are Number One.ogg;
#OFFSET:-0.015000;
#SAMPLESTART:44.450001;
#SAMPLELENGTH:15.000000;
#SELECTABLE:YES;
#BPMS:0.000000=162.000000
,108.000000=81.000000
,112.000000=162.000000
;
#STOPS:128.000000=0.741000,
186.000000=0.741000,
360.000000=0.741000
;
#BGCHANGES:;
#KEYSOUNDS:;
#ATTACKS:;

//---------------dance-single - ----------------
#NOTES:
     dance-single:
     :
     Hard:
     7:
     0.543064,0.512032,0.613592,0.253900,0.007053,539.000000,452.000000,87.000000,36.000000,0.000000,0.000000,0.543064,0.512032,0.613592,0.253900,0.007053,539.000000,452.000000,87.000000,36.000000,0.000000,0.000000:
0000
0000
0000
0000
,
0000
0000
0000
0000
,
0000
0000
0000
0000
,
0001
1000
0001
1000
0010
0000
1001
0000
,
0100
1000
0010
0000
1000
0001
0100
0001
,
0010
0000
0110
0000
1000
0001
0100
0000
,
0020
0000
1030
0000
0100
1000
0010
0000
,
0100
0001
0010
1000
0010
0000
1001
0000
,
0010
2000
0010
0000
3001
0010
1000
0010
,
0001
1100
0101
2000
,
3010
1000
0100
0000
0010
0001
0100
0000
,
1000
0100
0001
0010
0100
0000
1002
0000
,
0000
0100
0000
0100
0000
0010
0000
0010
,
0000
1000
0000
1000
0000
1003
0100
0000
,
1000
1000
0010
0000
0100
0001
1000
0000
,
2010
0000
0100
3200
0000
0010
0310
0000
,
0001
0010
1000
0000
0010
0100
1000
0000
,
0001
0100
1000
0200
0000
0010
0310
0000
,
1100
0101
0110
1001
,
1000
0010
0100
0002
0000
1000
1003
0000
,
0010
1000
0100
0000
0010
1000
0010
0001
,
0100
0000
0000
0110
0000
0000
2002
0000
0000
0000
0000
0000
3003
0000
0000
0000
,
0001
0100
1000
0100
0001
0010
1000
0010
,
0001
0001
1000
1000
1001
0000
0000
0000
,
0100
0000
1000
0010
0000
0100
0010
0000
,
0001
0000
0010
1000
0000
0010
0100
0000
,
1000
0000
0001
0100
1000
0100
0010
0000
,
2200
0000
0000
0000
,
0000
3300
1010
0000
0101
0000
0011
0000
,
1000
0100
0001
0000
0010
0001
1000
0000
,
0100
0000
1001
0000
0010
1000
0001
0100
,
1000
0101
1100
1001
,
0010
0000
1001
0000
0200
1000
1000
0000
,
1300
0010
0100
0001
0010
0000
2100
0000
,
0010
0010
3001
0000
0010
0001
0100
0000
,
1000
0100
0001
0000
1100
0000
0101
0000
,
0220
0000
0330
0000
1000
1000
0100
0100
,
0010
0010
0001
0001
1000
0100
0001
0000
,
0020
0000
0031
0000
1000
0010
0100
0000
,
1000
0100
0001
0000
2000
0000
3010
0000
,
0100
0001
0010
1000
0010
0100
1000
0001
,
0100
0000
2001
0000
0000
0100
0000
0010
,
0000
0100
0000
3002
0100
0000
0100
0000
,
0010
0000
0013
0000
0100
1000
0010
2000
,
0000
0001
3001
0000
0011
0000
1010
0000
,
0110
0000
0000
0000
1000
0100
0001
1000
,
0010
0001
2002
3003
,
4004
0000
0000
0000
0000
3003
2001
0001
,
0000
0010
0000
0010
0000
0100
0000
3200
,
0000
0010
0000
0001
0000
0010
0000
0310
,
0001
0101
1100
1000
,
0010
1000
0001
0100
0000
0010
1001
0000
,
1000
0100
0001
0000
1000
0001
0010
0000
,
0001
0000
0000
0101
0000
0000
2010
0000
0000
0000
0000
0000
3100
0000
0011
0000
,
0000
1100
0000
0011
0000
1100
0000
0001
,
1000
0000
0000
0000
0001
0010
0100
1000
,
0001
0101
1010
1001
,
0100
1000
0010
0000
0100
1000
0100
0001
,
0010
0000
1001
0000
0000
1000
1000
0100
,
0010
0011
1010
0100
,
0001
0001
0010
0010
1000
0010
0001
0000
,
1000
0000
1100
0000
1000
0010
0100
0000
,
1000
0100
0010
0000
0000
0100
0100
0001
,
0010
1100
1001
0101
,
0010
0000
1000
0000
0001
1000
0011
0000
,
0200
0000
0000
1300
0010
1000
0010
0100
,
0001
0000
0011
0000
0000
0011
0010
0100
,
1000
1100
1000
0101
,
0010
1000
0100
0001
0100
0000
1001
0000
,
1020
0000
0000
0130
1000
0100
0001
0010
,
0001
0000
1100
0000
0000
1010
1000
0001
,
0010
1001
0100
0110
,
2002
0000
3003
0000
0001
1000
1001
0000
,
0010
1000
0100
1000
0010
0100
0001
0010
,
0001
0000
0011
0000
0000
0011
0010
0001
,
0100
1010
0100
1100
,
0010
0001
0100
1000
0100
0000
0101
0000
,
0020
0000
1030
0000
1000
0100
0010
0010
,
0010
0000
0011
0000
0000
1010
1000
0100
,
1000
0000
0001
0100
0010
0000
1000
0000
,
1000
1000
1000
1000
2000
0000
0000
0000
,
3100
0000
0000
1100
0010
0001
0100
0010
,
1000
0000
0101
0000
0000
0101
0100
0010
,
1000
1001
1000
0110
,
0001
0010
1000
0010
0001
0000
0000
0000
,
1100
0000
0000
1010
0100
1000
0100
0010
,
1000
0000
0011
0000
0000
0101
0100
0010
,
1000
0101
1100
1001
,
0010
1000
0100
0010
0002
0000
0100
0000
,
0013
0100
1000
0010
0200
0000
0010
0000
,
0310
0110
2002
3003
;

//---------------dance-single - ----------------
#NOTES:
     dance-single:
     :
     Challenge:
     9:
     0.719384,0.736046,0.557170,0.402009,0.366745,714.000000,635.000000,79.000000,57.000000,0.000000,0.000000,0.719384,0.736046,0.557170,0.402009,0.366745,714.000000,635.000000,79.000000,57.000000,0.000000,0.000000:
0000
0000
0000
0000
,
0000
0000
0000
0000
,
0001
0101
1000
1100
,
0010
0000
1000
0000
0001
0000
0100
0000
1001
0000
0000
1000
0001
0000
0000
0000
,
2000
0000
0010
0000
0000
0000
3010
0000
0100
0001
0100
0001
0100
0000
0001
0000
,
0010
0000
1100
0000
1000
0001
0010
0001
,
0200
0310
1100
0101
,
0010
0000
0010
0000
1000
0000
0001
0000
0100
0000
0000
1000
0100
0000
1000
0000
,
0020
0000
0001
0000
0000
0000
1030
0000
0001
1000
0001
1000
0001
0000
1000
0000
,
1100
0000
1000
0000
0020
0000
0000
0000
0100
0000
1030
0000
1000
0000
0001
0010
,
0100
0010
0001
0000
1000
0001
0101
0000
,
0010
1000
0100
0010
1000
0010
0001
0002
,
0000
0100
0000
0023
0000
1000
0000
0230
,
0000
0001
0000
2300
0000
0010
3010
0000
,
0002
0000
0000
0103
0001
0000
1000
0000
0010
0000
0100
0000
0110
0000
0000
0000
,
1000
0100
1000
1020
0000
0100
0130
0000
,
0001
0010
0001
1000
0100
1000
0010
0100
,
0001
0000
0000
0001
0010
0000
0100
0000
0000
1000
0010
0000
0100
0000
0001
0000
,
1000
0000
1100
0000
0001
0001
0010
0010
,
0102
0000
0203
0010
0000
0310
1000
0100
,
0010
1000
0010
0001
0100
0010
1000
0100
,
0010
0000
0000
0011
0000
0000
1010
0000
0000
1001
0000
0000
1000
0000
0001
0000
,
0010
0000
0000
0001
1000
0000
0000
0100
1000
0000
0000
0010
0100
0000
0000
0001
,
1000
0001
1000
0001
1000
0001
1000
0002
2000
0000
0000
0000
0003
0000
0001
0000
,
3010
0000
0000
0100
0000
0000
0001
0000
0000
0010
0000
0000
0100
0000
0100
0000
,
1000
0000
0000
1100
0000
0000
0010
0000
0000
0110
0000
0000
0100
0000
0001
0000
,
0010
0000
0000
0100
0000
0000
1000
0000
0000
0000
0001
1000
0001
0000
0100
0000
,
2010
0000
0000
0000
0000
0000
0000
0000
0000
0000
0000
0000
0200
0000
0000
3000
0000
0000
0000
0000
0000
0000
0000
0000
1300
0000
0000
0000
0000
1010
0000
0000
0000
0000
0101
0000
0000
0000
0000
0011
0000
0000
0000
0000
0000
0000
0000
0000
,
0000
0000
0000
0000
0100
0000
1000
0010
0100
0000
0001
0010
1000
0000
0010
0000
,
0012
0000
0000
0000
0103
0000
0010
0000
1000
0100
1000
0100
1000
0000
0001
0000
,
0100
0010
0102
0000
0013
0100
1000
0010
,
1000
0000
0000
0100
1000
0000
0001
0000
0010
0000
0001
0000
0100
0000
0010
0000
,
1100
0000
0000
1000
0001
0000
0010
0000
1001
0000
0000
0000
0001
0000
0010
0000
,
0001
0100
0001
0100
0010
0000
1000
0000
1100
0000
0010
0000
0002
0000
0000
0000
,
0100
0013
0100
1000
0010
1000
0001
0010
,
0100
1000
0010
0100
0001
0010
0001
1000
,
0100
0000
0000
0000
0000
0000
0000
0000
1000
0100
1000
0000
0100
0010
0100
0000
,
0010
0001
0010
0000
0001
1000
0001
0000
1000
0000
0010
0000
1000
0000
0100
0000
,
0010
0001
0100
0001
0010
0000
0100
0000
1000
0000
0001
0000
0100
0000
1000
0000
,
0100
0010
1000
0001
1001
0000
0001
1000
,
1001
0000
0010
1000
0100
1000
0001
0010
,
0110
0000
0110
0000
0110
0000
0000
0000
0001
0000
0000
0100
0010
0000
0000
1000
,
0100
0000
0000
1000
0001
0000
0010
0000
0200
0000
0000
0000
0310
0000
0001
0000
,
1000
0000
0100
0000
1001
0000
0000
0000
0010
0000
1000
0100
0000
1000
0100
0000
,
0000
0000
0010
0000
0001
0000
0100
0000
0010
0000
0000
1000
0100
0000
1000
0000
,
0001
0010
0100
0010
0101
0000
1100
0000
,
0110
0110
1001
0000
2002
0000
3003
0000
,
0010
0000
1000
0010
0000
0000
0101
0000
0000
0000
1100
0000
0000
0000
0220
0000
,
0000
0000
0330
0000
0000
0000
1000
0100
1000
0000
0010
0000
0100
0000
0001
0010
,
0001
0000
0100
0000
0010
0000
1000
0100
0001
0000
0100
0000
1000
0000
0010
0100
,
0001
0000
0010
0001
1000
0000
0100
0000
,
1100
0000
0000
0101
0000
0000
0110
0000
0000
0100
0000
0000
0001
0000
0010
0000
,
0100
0000
1000
0000
0100
0000
1000
0000
0000
0000
0001
0010
0001
0000
0100
0000
,
1010
0000
0000
0101
0000
0000
2002
0000
0000
0000
0000
0000
3003
0000
0010
1000
,
0000
0000
0001
0100
0000
0000
0010
1000
0000
0000
0001
0100
0000
0000
1000
0001
,
0010
0000
0000
0100
0000
0000
0000
0000
0000
0000
0000
0000
0000
0000
0000
0000
0000
0000
0000
0000
0000
0000
0000
0000
1100
0000
0000
0000
0000
0000
0000
1100
0000
0000
0000
0000
0000
0000
0101
0000
0000
0000
0000
0000
0000
0000
0020
0000
,
0000
0000
0000
0000
0100
0000
0000
0000
0000
0000
0000
0000
1030
0000
0000
0000
0000
0000
0000
0000
0000
1000
0000
0000
0100
0000
0000
0000
0000
0000
0010
0000
0000
0000
0000
0000
1001
0000
0000
0000
0000
0000
0010
0000
0000
0001
0000
0000
,
0200
0000
0000
0000
0310
0000
0001
0000
1000
0100
1000
0001
0100
0000
0010
0000
,
1100
0000
0000
0001
0020
0000
0000
0000
0130
0000
1000
0001
1000
0000
0100
0000
,
0020
0032
2003
3200
,
1300
0000
0001
0000
0100
0000
0010
0000
1100
0000
0000
0001
0100
0000
0010
0000
,
0101
0000
0000
0000
0001
0000
0010
0000
0100
1000
0100
0010
0001
0000
1000
0000
,
1001
0000
0001
0000
0020
0000
0000
0000
0031
0000
0100
0001
1000
0000
0100
0000
,
0020
0000
1030
0010
0001
0100
0010
1000
,
0001
0000
0000
0000
1001
0000
0000
1000
0010
0000
0100
0001
0020
0000
0000
0000
,
0100
0000
0200
0000
0030
0000
1000
0000
1300
0010
0100
0001
0010
0000
0100
0000
,
1100
0000
0000
0000
0101
0000
0000
0000
0000
0000
0001
0010
1000
0000
0010
0000
,
0200
2300
3002
0203
,
0301
0100
1000
0100
0010
1000
0102
0000
,
0023
0000
0001
0000
0000
0000
0130
0000
1000
0010
0100
1000
0100
0000
0001
0000
,
1000
0000
1100
0000
0110
0010
1000
0010
,
0002
0000
0103
0010
1000
0100
0001
0100
,
0010
0000
0000
0000
1001
0000
0000
0000
1000
0001
0010
0100
1000
0000
0000
0000
,
0001
0000
0200
0000
1000
0000
0000
0000
0310
1000
0100
0001
0100
0000
0010
0000
,
0001
1000
1200
0000
0310
0001
1000
0100
,
0011
1000
0010
0000
0100
1000
0100
0001
,
0010
0000
0001
0000
0010
0000
0001
0000
0011
0000
1000
0100
2000
0000
0000
0000
,
3002
0000
0010
0000
0000
0000
0013
0000
0100
1000
0010
0100
0001
0000
0010
0000
,
1100
0000
0000
0001
0010
0000
0100
0000
0000
0000
0010
0001
0100
0000
1000
0000
,
0100
0000
0001
0000
0011
0000
0000
0000
1000
0010
0100
0000
1000
0000
0100
0000
,
0010
0110
0100
0110
2002
0000
3003
0000
,
0200
0000
1000
0000
0000
0000
0010
0000
0310
0001
0010
0100
1000
0000
0001
0000
,
1100
0000
0000
0000
0101
0000
0000
0000
0000
0000
0010
1000
0100
0000
0010
0000
,
0001
0100
1000
0100
0010
1000
0100
0010
,
0002
0100
0100
0100
0103
0010
1000
0100
,
1001
0000
0000
0000
0000
0000
1001
0000
1000
0010
1000
0010
1000
0000
0100
0000
,
0010
0001
0010
0001
0100
0000
0000
0000
0000
0000
0001
0100
1000
0000
0100
0000
,
0010
1000
0200
0000
0310
0001
1100
0000
,
0001
0010
1100
1000
0002
0000
0103
0000
,
0100
0000
0010
0000
1000
0000
0100
0000
0011
0000
0000
1000
0010
0000
0100
0000
,
0002
0003
0000
0000
0110
0000
0000
0000
2002
0000
0000
0000
3003
0000
0000
0000
;

//---------------dance-single - ----------------
#NOTES:
     dance-single:
     :
     Medium:
     6:
     0.408054,0.448028,0.211583,0.296217,0.000000,405.000000,375.000000,30.000000,42.000000,0.000000,0.000000,0.408054,0.448028,0.211583,0.296217,0.000000,405.000000,375.000000,30.000000,42.000000,0.000000,0.000000:
0000
0000
0000
0000
,
0000
0000
0000
0000
,
0000
0000
0000
0000
,
0001
1000
0001
1000
0001
0000
1000
0000
,
0010
0000
0000
1000
0001
0100
0100
0000
,
0002
0000
0023
0000
0030
0001
0010
0100
,
1000
0001
1000
0110
,
0010
1000
0001
0000
0100
0000
0100
0000
,
0001
0000
1000
0000
0001
0100
0001
0000
,
0020
0000
2030
0000
3000
0001
1000
0001
,
0010
0100
1100
0101
,
0001
0100
1000
0000
0010
0000
1000
0200
,
0000
0000
0000
0000
,
0300
0000
0000
0000
,
0110
0010
0001
0100
,
0001
0000
0002
2000
0000
0000
3003
0000
,
1000
0001
0010
0000
0100
0010
0100
0000
,
1000
0000
0020
0200
0000
0000
0330
0000
,
0001
0010
1000
0000
0001
0100
1000
0000
,
0010
0000
2000
0200
0000
0000
3300
0000
,
0110
0000
0001
0000
0010
0100
1000
0000
,
0001
0000
0002
0200
0000
0000
0303
0000
,
0001
0010
0001
0000
1000
0010
1000
0000
,
0100
0010
0011
0000
,
1000
0010
0000
0100
0000
0000
0000
0100
,
0001
1000
0001
0110
,
0010
0100
1000
0000
0001
0000
0100
0000
,
0020
0000
0000
0030
,
0000
0100
0100
0110
,
2002
0000
3003
0000
1000
0001
1000
0000
,
0001
0000
0010
0000
0100
0010
0100
0000
,
1000
0001
0100
0000
1000
0100
0001
0000
,
0010
0000
0200
0000
2300
0000
3001
0010
,
0001
0000
1000
0100
1000
0001
0010
0000
,
0100
1000
0010
0000
0100
0000
1001
0000
,
0010
0000
0001
0010
0002
0000
0203
0000
,
0310
0010
0010
0000
2000
0000
3200
0000
,
0320
0032
0103
1001
,
1000
1000
0001
0000
0010
0001
0100
0000
,
0000
0010
1000
0100
0010
0000
0100
0000
,
1000
0001
0100
0000
0010
0000
0010
0000
,
1001
2002
0000
0000
,
3003
0000
1000
0001
,
0001
0000
0010
0000
0100
0010
0100
1000
,
0000
0000
0001
0100
0001
0000
0010
0100
,
1000
0001
0101
1100
,
1000
0010
0020
0030
,
0200
0000
0000
0000
0000
0320
0000
0200
,
0000
0000
0330
0110
,
1001
0000
0000
0000
0000
0000
1000
1000
,
0001
0000
0000
0001
1000
0000
0000
0001
,
0010
0000
0100
0000
0010
0001
0100
0000
,
1000
0100
1000
0000
1000
0100
1000
0000
,
0001
0110
1000
0110
,
0001
1000
0001
1000
,
0000
0000
0001
1000
,
0001
1001
1000
0100
,
0020
0000
0000
0000
0130
1000
0001
0000
,
0100
0000
0100
0000
0000
0001
0100
0000
,
1000
0010
0100
0010
,
1000
0100
1000
0100
1000
0000
1100
0000
,
0010
0000
0100
0000
0010
0001
1000
0000
,
0001
0000
0001
0000
0000
0010
0001
0000
,
0100
0010
0100
0100
,
0012
0013
2100
3100
,
0200
0000
0000
0310
0100
0000
0010
0000
,
0001
0100
0010
0000
0000
1000
0001
0000
,
0001
0011
0100
0001
,
0001
0100
0001
0100
0001
0000
0101
0000
,
0010
0000
0100
0000
0010
0100
1000
0000
,
0001
0001
0000
1000
,
0001
0100
0010
0010
,
0020
0000
0200
0030
,
0310
0000
0010
1000
0100
0000
0100
0000
,
0010
0000
0001
1000
0001
0000
0001
0010
,
0100
1000
0010
0100
,
0010
0100
0010
0100
0010
0000
1001
0000
,
1000
0100
0001
0010
,
0001
0100
0010
1001
,
1000
1000
0001
0001
,
1000
0001
1000
0001
1000
0000
0010
0000
,
2000
3000
0002
0103
,
0010
0000
0010
0000
0000
1000
0100
0100
,
1000
0000
0001
0010
0100
0000
0010
0000
,
0001
1000
0001
1000
0001
0000
0011
0000
,
1100
0000
0000
1000
0001
0000
0100
0000
,
0100
0000
0010
0000
0000
0010
1000
0001
,
0010
0100
0100
0010
,
0100
0010
0100
0010
0200
0000
0000
0300
,
0010
0100
0010
0100
0020
0000
0000
0030
,
0001
1000
2002
3003
;

//---------------dance-single - ----------------
#NOTES:
     dance-single:
     :
     Easy:
     3:
     0.223674,0.320020,0.098739,0.141056,0.000000,222.000000,208.000000,14.000000,20.000000,0.000000,0.000000,0.223674,0.320020,0.098739,0.141056,0.000000,222.000000,208.000000,14.000000,20.000000,0.000000,0.000000:
0000
0000
0000
0000
,
0000
0000
0000
0000
,
0000
0000
0000
0000
,
0000
0000
0000
0000
,
0001
0000
1000
0000
,
0100
0100
0000
0010
,
0100
0000
0100
0000
,
1000
0001
1000
0000
,
1001
0000
0001
0000
,
0001
0010
0000
0100
,
0100
0000
0010
0000
,
0100
1000
0001
0000
,
0000
0000
0000
0000
,
0000
0000
0000
0000
,
1001
0000
1000
0000
,
0001
0010
0001
0000
,
1000
0010
0100
0001
,
1000
0010
1000
0000
,
0001
0000
1000
0000
,
0010
0000
0110
0000
,
0100
0100
0001
0001
,
1000
1000
0010
0010
,
1000
0001
1000
0001
,
0020
0000
0030
0000
,
2000
0000
3100
0000
,
0200
0000
0310
0000
,
0020
0000
0031
0000
,
0002
0000
0003
0000
,
0000
1000
0010
0010
,
0001
0000
1000
0000
,
0001
1001
0000
0000
,
1000
0010
0100
0001
,
0010
0000
0100
0000
,
1000
0000
0001
0100
,
0000
0000
0010
1000
,
0001
0100
0100
0100
,
0100
0000
2000
0000
,
3002
0000
0203
0300
,
0010
0000
0010
0010
,
0000
1000
0001
0000
,
1001
0000
0100
0000
,
0010
0000
0000
0000
,
0000
0000
1000
0000
,
1000
0000
0001
0000
,
0001
0000
1000
0000
,
1000
0000
0001
0000
,
0001
0010
0110
0000
,
2000
0000
0000
0000
,
0002
0000
0000
0000
,
3003
0000
0000
0000
,
1001
0000
1001
0000
,
0010
0000
0010
0000
,
0110
0000
0110
0000
,
0100
0000
0100
0000
,
0001
1000
0001
1000
,
0000
0000
1000
0001
,
1000
0001
0010
0010
,
0200
0300
0100
1000
,
0001
0000
0000
0010
,
0010
0000
0001
0000
,
1000
0000
1001
0000
,
1000
0000
0001
0000
,
0100
0100
0000
0100
,
0010
0000
0010
0000
,
0000
0010
0000
0010
,
1001
0000
1000
0100
,
0001
0010
0000
0010
,
0200
0300
0020
0030
,
0100
1000
0001
0000
,
0002
0000
0010
0013
,
0100
2000
0000
0010
,
3010
0000
0100
0000
,
0200
0000
0300
0000
,
0001
0000
1000
0000
,
1000
0020
0000
0030
,
0100
0000
0001
0000
,
1000
0100
0200
0000
,
0310
0000
0100
1000
,
0001
0010
0000
0000
,
0100
0010
0100
0010
,
0001
1000
0001
1000
,
1001
0000
1000
0000
,
1000
0010
0000
0001
,
0010
0000
0100
0000
,
0100
1000
0001
0010
,
0100
0000
0100
1000
,
0010
0010
0000
0100
,
0001
0000
1000
0000
,
0010
0010
0010
0000
,
0010
0010
0010
0000
,
0010
0010
2002
3003
;

//---------------dance-single - ----------------
#NOTES:
     dance-single:
     :
     Beginner:
     1:
     0.132995,0.255311,0.042317,0.000000,0.000000,132.000000,126.000000,6.000000,0.000000,0.000000,0.000000,0.132995,0.255311,0.042317,0.000000,0.000000,132.000000,126.000000,6.000000,0.000000,0.000000,0.000000:
// measure 0
0000
0000
0000
0000
,  // measure 1
0000
0000
0000
0000
,  // measure 2
0000
0000
0000
0000
,  // measure 3
0000
0000
0000
0000
,  // measure 4
0001
0000
0000
0000
,  // measure 5
0001
0001
0000
0000
,  // measure 6
1000
0000
0000
0000
,  // measure 7
0010
0000
0010
0000
,  // measure 8
1000
0000
0000
0000
,  // measure 9
1000
1000
0000
0000
,  // measure 10
0001
0000
0000
0000
,  // measure 11
0010
0000
0010
0000
,  // measure 12
0000
0000
0000
0000
,  // measure 13
0000
0000
0000
0000
,  // measure 14
1000
0000
0000
0000
,  // measure 15
0001
0000
0000
0000
,  // measure 16
1000
0000
0000
0000
,  // measure 17
0001
0000
0000
0000
,  // measure 18
0100
0000
0000
0000
,  // measure 19
0100
0000
0000
0000
,  // measure 20
0010
0000
0000
0000
,  // measure 21
0100
0000
0000
0000
,  // measure 22
0001
0000
1000
0000
,  // measure 23
0010
0010
0010
0000
,  // measure 24
1000
0000
0000
0000
,  // measure 25
0100
0000
0000
0000
,  // measure 26
0001
0000
0000
0000
,  // measure 27
0010
0000
0000
0000
,  // measure 28
0000
0100
0100
0100
,  // measure 29
0100
0000
0000
0000
,  // measure 30
0001
0001
0000
0000
,  // measure 31
0001
0000
0000
0000
,  // measure 32
0010
0010
0010
0000
,  // measure 33
0000
0000
1000
1000
,  // measure 34
0000
0000
1000
0000
,  // measure 35
0000
0000
0010
0000
,  // measure 36
0100
0000
0100
0000
,  // measure 37
0100
0000
0100
0000
,  // measure 38
0001
0000
1000
0000
,  // measure 39
0000
0000
0001
0000
,  // measure 40
0000
0000
1000
0000
,  // measure 41
0000
0000
0000
0000
,  // measure 42
0000
0000
0010
0000
,  // measure 43
0000
0000
0010
0000
,  // measure 44
0000
0000
0010
0000
,  // measure 45
0000
0000
0010
0000
,  // measure 46
0000
0000
0110
0000
,  // measure 47
0100
0000
0000
0000
,  // measure 48
0010
0000
0000
0000
,  // measure 49
0000
0000
0000
0000
,  // measure 50
1000
0000
0001
0000
,  // measure 51
1000
0000
0000
0000
,  // measure 52
0001
0000
1000
0000
,  // measure 53
0001
0000
0000
0000
,  // measure 54
0000
0000
0000
0000
,  // measure 55
0000
0000
0000
0000
,  // measure 56
0000
0010
0010
0010
,  // measure 57
0010
0000
1000
0000
,  // measure 58
0001
0000
0000
0100
,  // measure 59
0100
0000
0100
0000
,  // measure 60
0100
0000
0001
0000
,  // measure 61
1000
0000
0001
0000
,  // measure 62
1000
1000
0000
0000
,  // measure 63
0001
0000
0000
0000
,  // measure 64
0010
0000
0000
0000
,  // measure 65
1001
0000
0000
0000
,  // measure 66
0100
0100
0000
0000
,  // measure 67
0010
0000
1000
0000
,  // measure 68
0001
0000
0100
0000
,  // measure 69
0100
0000
0000
0000
,  // measure 70
0010
0010
0000
0000
,  // measure 71
0001
0000
1000
0000
,  // measure 72
0000
0000
0000
0000
,  // measure 73
1000
0000
0000
0000
,  // measure 74
1000
0000
1000
0000
,  // measure 75
0001
0000
0000
0000
,  // measure 76
0001
0000
0001
0000
,  // measure 77
0010
0000
0000
0000
,  // measure 78
0010
0000
0010
0000
,  // measure 79
0100
0000
0000
0000
,  // measure 80
0100
0000
0100
0000
,  // measure 81
1001
0000
0000
0000
,  // measure 82
1000
1000
0000
0000
,  // measure 83
0010
0000
0100
0000
,  // measure 84
0010
0010
0010
0000
,  // measure 85
1001
0000
0000
0000
,  // measure 86
0001
0001
0000
0000
,  // measure 87
0010
0000
0100
0000
,  // measure 88
0010
0010
0010
0000
,  // measure 89
0010
0010
0010
0000
,  // measure 90
0000
1001
1001
0000
;
