#TITLE:Waypoint;
#SUBTITLE:;
#ARTIST:Sinetile's Odyssey;
#TITLETRANSLIT:;
#SUBTITLETRANSLIT:;
#ARTISTTRANSLIT:;
#GENRE:;
#CREDIT:8Chasey 2026;
#MUSIC:Waypoint.ogg;
#BANNER:Waypoint-bn.png;
#BACKGROUND:Waypoint-bg.png;
#CDTITLE:;
#SAMPLESTART:85.564;
#SAMPLELENGTH:12.000;
#SELECTABLE:YES;
#OFFSET:-2.086;
#BPMS:0.000=57.500
,32.000=115.000
,96.000=57.500
,112.000=115.000
,304.000=57.500
;
#STOPS:;
#BGCHANGES:;
#FGCHANGES:;

//--------------- dance-single - 8Chasey ----------------
#NOTES:
     dance-single:
     8Chasey:
     Beginner:
     1:
     0,0,0,0,0:
0000
0000
0000
0000
,
0000
0000
0000
0000
,
0000
0000
0000
0000
,
0000
0000
0000
0000
,
0001
0000
0000
0000
,
0001
0000
0000
0000
,
1000
0000
0000
0000
,
1000
0000
0000
0000
,
0001
0000
0000
0000
,
1000
0000
0000
0000
,
0001
0000
0001
0000
,
0001
0000
0001
0000
,
1000
0000
0000
0000
,
0001
0000
0000
0000
,
1000
0000
1000
0000
,
1000
0000
1000
0000
,
0010
0000
0000
0000
,
0100
0000
0000
0000
,
0001
0000
0001
0000
,
0001
0000
0000
0000
,
0100
0000
0000
0000
,
0010
0000
0000
0000
,
1000
0000
1000
0000
,
1000
0000
0000
0000
,
0001
0000
0000
0000
,
1000
0000
0000
0000
,
0010
0000
0000
0000
,
0100
0000
0000
0000
,
1001
0000
0000
0000
,
0001
0000
1000
0000
,
0002
0000
0000
0000
,
0003
0000
0000
0000
,
0100
0000
0000
0000
,
0010
0000
0000
0000
,
1000
0000
0000
0000
,
0001
0000
0000
0000
,
2000
0000
0000
0000
,
3000
0000
0000
0000
,
0010
0000
0000
0000
,
0100
0000
0000
0000
,
0010
0000
0000
0000
,
0100
0000
0000
0000
,
0001
0000
0001
0000
,
1000
0000
1000
0000
,
0001
0000
0000
0000
,
1000
0000
0000
0000
,
0001
0000
1000
0000
,
0001
0000
0000
0000
,
1000
0000
0000
0000
,
0001
0000
0000
0000
,
1000
0000
0001
0000
,
1000
0000
1001
0000
,
0001
0000
0000
0000
,
0010
0000
0000
0000
,
0100
0000
0000
0000
,
1000
0000
0000
0000
,
0010
0000
0000
0000
,
0100
0000
0000
0000
,
0001
0000
0001
0000
,
1000
0000
1000
0000
,
1001
0000
0000
0000
,
0001
0000
0001
0000
,
0002
0000
0000
0000
,
0003
0000
0000
0000
,
1000
0000
0000
0000
,
0001
0000
0000
0000
,
1000
0000
1000
0000
,
2000
0000
0000
0000
,
3000
0000
0000
0000
,
0010
0000
0000
0000
,
0100
0000
0000
0000
,
0001
0000
1000
0000
,
0001
0000
0000
0000
,
1000
0000
0001
0000
,
1000
0000
0000
0000
,
0010
0000
0100
0000
,
0010
0000
0000
0000
,
0010
0000
0000
0000
,
0100
0000
0000
0000
,
0100
0000
0000
0000
,
0001
0000
0000
0000
,
0001
0000
0000
0000
,
1000
0000
0000
0000
,
1000
0000
0000
0000
,
0002
0003
0000
0000
,
0001
0000
0000
0000
,
2000
3000
0000
0000
,
1000
0000
0000
0000
;

//--------------- dance-single - 8Chasey ----------------
#NOTES:
     dance-single:
     8Chasey:
     Easy:
     3:
     0,0,0,0,0:
0000
0000
0000
0000
,
0000
0000
0000
0000
,
0000
0000
0000
0000
,
0000
0000
0000
0000
,
0001
0000
1000
0000
,
0002
0000
0000
0003
,
1000
0000
0001
0000
,
2000
0000
3000
0000
,
1001
0000
0001
0000
,
1000
0001
1100
0000
,
1000
0000
0010
0000
,
0100
0000
0001
0000
,
1001
0000
1000
0000
,
0001
1000
0101
0000
,
0001
0000
0010
0000
,
0100
0000
1000
0000
,
0010
0000
0100
0000
,
1000
0000
0001
0000
,
0200
0000
0310
0000
,
0200
0000
0310
0000
,
0100
0000
1001
0000
,
0010
0000
1001
0000
,
1000
0001
1000
0000
,
0001
1000
0001
0000
,
0200
0000
0310
0000
,
0020
0000
0130
0000
,
0002
0000
2003
0000
,
3010
0100
0010
0100
,
0220
0000
0330
0000
,
0001
0000
1000
0001
,
2000
0000
3001
0000
,
0010
0000
0100
0100
,
0010
0000
0010
0000
,
0100
0000
0100
0000
,
1000
0000
0001
0000
,
1000
0000
0001
0000
,
1001
0000
1000
0000
,
0001
0000
1000
0000
,
0020
0030
0010
0000
,
0200
0300
0100
0000
,
1001
0000
0001
0000
,
1000
0000
0001
0000
,
0200
0300
0100
0000
,
0020
0030
0010
0000
,
1000
0000
1000
0000
,
0001
0000
0001
0000
,
0100
0000
0010
0000
,
0100
0010
0100
0000
,
0110
0000
0010
0000
,
1000
0000
0100
0000
,
0001
0000
0100
0000
,
0010
0000
0100
0000
,
0001
0000
0001
0000
,
1000
0000
1000
0000
,
0010
0000
0010
0000
,
0100
0000
0100
0000
,
0110
0000
0100
0000
,
0001
0000
1000
0000
,
0010
0000
0100
0000
,
0001
1000
0001
1000
,
1001
0000
0001
0000
,
0010
0000
0001
0001
,
0020
0000
0000
0030
,
0100
0000
0010
0000
,
0100
0000
1000
0000
,
0001
0000
1000
0000
,
0010
0000
1000
1000
,
0020
0000
0000
0030
,
0110
0000
0010
0000
,
0100
0000
0010
0000
,
1000
0000
1000
0000
,
0001
0000
0001
0000
,
2000
0000
0000
3000
,
0100
0000
0010
0000
,
0002
0000
0000
0003
,
0100
0000
0010
0000
,
0200
0300
0020
0030
,
2000
3000
0002
0003
,
2000
0000
3000
0000
,
0002
0000
0003
0000
,
0100
0000
0010
0100
,
0010
0000
0100
0010
,
0100
0000
0010
0000
,
1000
0000
0001
0000
,
2000
0000
3000
0000
,
0002
0000
0003
0000
,
0200
0000
0300
0000
,
0020
0000
0000
0030
;

//--------------- dance-single - 8Chasey ----------------
#NOTES:
     dance-single:
     8Chasey:
     Medium:
     6:
     0,0,0,0,0:
0000
0000
0000
0000
,
0000
0000
0000
0000
,
0000
0000
0000
0000
,
0000
0000
0000
0000
,
0001
1000
0100
1000
,
0010
0000
0100
0000
0001
0100
0001
0001
,
1000
0001
0100
0001
,
0010
0000
0100
0000
1000
0100
1000
1000
,
1001
0000
0001
0000
0010
0000
0000
0001
,
0100
0000
0001
0000
1000
0100
0000
0000
,
1000
0001
0010
0100
,
0010
0000
0100
0010
0100
0000
0010
0000
,
0100
0000
1000
0000
0010
0000
0000
0010
,
0100
0000
0001
0000
0100
0010
0000
0000
,
0010
0100
0001
1000
,
0100
0000
0010
0100
0010
0000
0100
0000
,
2100
0000
0000
0000
3001
0000
0001
1000
,
0002
0000
0000
0000
0103
0010
0100
0000
,
0010
0000
0100
0000
0001
0000
0100
0010
,
0100
0000
0010
0000
1000
0000
0010
0100
,
0010
0000
0100
0000
1010
0000
0000
1000
,
0100
0000
0010
0000
0011
0000
0000
0001
,
1000
0100
1000
1000
,
0001
0100
0001
0001
,
0020
0000
0230
0010
,
2300
0000
0000
0000
0000
0000
0000
0001
3001
0000
0000
0000
1000
0000
0001
0000
,
2000
3000
2000
3000
0002
0003
0002
0003
,
2000
3000
0002
0003
1000
0001
1000
0001
,
1001
0000
0000
0000
1000
0000
0010
0100
,
0010
0100
0001
0100
,
0020
1000
1030
0100
,
1000
0000
0001
1000
0001
0000
1000
0000
,
0010
0000
1000
0000
0100
0010
0100
0000
,
0010
0000
0001
0000
0100
0010
0100
0000
,
0001
0000
0100
0010
0100
0000
0001
0000
,
1000
0000
0100
0010
0100
0000
1000
0000
,
2001
0010
3002
0010
,
0203
0000
1000
0000
0310
0000
0100
0010
,
0200
0010
0302
0010
,
2003
0010
3100
0110
,
2001
0100
3020
0001
,
0230
0000
0001
0000
0310
0000
1000
0001
,
2000
0010
3002
0100
,
0013
0010
0100
0100
1000
0001
1000
0001
,
0200
0000
0000
0300
0010
0000
0000
0100
,
0002
0000
0000
0003
1001
0000
1000
0100
,
1000
0000
0010
0000
0100
0000
0001
0100
,
0001
0100
0010
0100
,
0110
0000
0000
0100
0010
0000
1000
0000
,
0100
0000
0000
1000
0001
0000
0100
0000
,
0001
0000
0000
0100
0010
0000
0100
0000
,
0210
0302
2003
3010
,
0101
0000
0000
1000
0100
0000
1000
0000
,
0010
0000
0000
1000
0001
0000
1001
0000
,
1000
0000
0000
0001
0100
0000
0001
0000
,
0010
0000
0000
0010
0000
0000
0010
0000
,
0110
0000
0000
0001
0100
0000
0001
0000
,
0010
0000
0000
0001
1000
0000
1001
0000
,
0001
0000
0000
1000
0100
0000
1000
0000
,
0010
0100
0010
0100
0010
0000
0100
0000
,
0002
0100
0010
0103
,
0010
0000
1000
0001
1000
0000
0001
0000
,
2000
0100
0010
3100
,
0010
0000
0001
1000
0001
0000
1000
0000
,
1001
0000
0000
0000
0010
0000
0000
0100
,
0010
0000
0010
0100
0000
0100
0000
0000
,
0001
0000
1000
0001
0000
0200
0000
0010
,
0000
0010
0020
0330
,
0110
0000
0000
0100
0001
0000
0000
0000
,
0010
0000
0000
0100
1000
0000
0001
0000
,
1001
0000
0000
1000
0010
0000
1000
0000
,
0001
0100
0010
0100
,
0110
0000
0000
0100
0010
0000
1000
0000
,
0100
0000
0000
0100
0010
0000
0001
0000
,
0100
0000
0000
0001
1000
0000
0100
0000
,
0010
0100
0010
0100
,
1001
0001
0100
0100
,
0010
1000
0100
0100
,
0020
0100
0230
0010
,
0310
0000
0001
0000
1000
0001
1000
0001
,
2000
0001
3001
1000
,
0002
0000
1000
1000
1003
0000
0001
0000
,
0200
0010
0310
0100
,
0020
0000
0100
0000
0130
0001
1000
0001
,
2000
0000
0000
0000
0000
0000
3000
0000
0001
0000
0000
1000
0000
0000
0000
0000
,
0002
0000
0000
0000
0000
0000
0003
0000
1000
0000
0000
0001
0000
0000
0000
0000
,
0200
0000
0000
0300
0010
0000
0010
0000
,
0020
0000
0200
0000
0000
0000
0000
0330
;

//--------------- dance-single - 8Chasey ----------------
#NOTES:
     dance-single:
     8Chasey:
     Hard:
     8:
     0,0,0,0,0:
0000
0000
0000
0000
,
0000
0000
0000
0000
,
0000
0000
0000
0000
,
0000
0000
0000
0000
,
0001
1000
0010
1000
0200
0000
1300
0000
,
0010
0000
0000
0000
0100
0000
0000
0000
0001
0000
1000
0001
2000
0000
3001
0000
,
1000
0001
0100
0001
0020
0000
0031
0000
,
0100
0000
0000
0000
0010
0000
0000
0010
0100
0000
0001
1000
0002
0000
1003
0000
,
1001
0000
0001
0100
0010
0000
0100
0100
,
0010
0000
1000
0100
1000
0001
0100
0000
,
0010
0100
0010
0000
0220
0000
0330
0100
,
0001
0000
1000
0100
0010
0000
0110
0000
,
0100
0000
1000
0100
0010
0000
0100
0100
,
0010
0000
0001
0100
0001
1000
0100
0000
,
0010
0001
1000
0000
2002
0000
3003
1000
,
0001
0000
1000
0100
0020
0000
0031
0000
,
0102
0000
1003
0010
2000
0000
3100
0010
,
0200
0000
0310
0001
0020
0000
0130
1000
,
0001
0000
0000
0001
0000
0000
0001
0000
0200
0000
0000
0000
0310
0000
0000
0000
,
1000
0000
0000
1000
0000
0000
1000
0000
0200
0000
0000
0000
0310
0000
0000
0000
,
0102
0000
1003
0100
0020
0000
0130
0100
,
2000
0000
3001
0100
0020
0100
0000
0130
,
0001
0000
0000
1000
0000
0000
0001
0000
0200
0000
0000
0000
0310
0000
0100
0000
,
0001
0000
1000
0001
2002
0000
3003
0000
,
1000
0100
0010
0001
1000
0100
0010
0001
,
0001
0000
0010
0000
0100
0000
1000
0000
0001
0000
0010
0100
0010
0000
0100
0000
,
1100
0000
1000
0000
0001
1000
0001
0000
0101
0000
0001
0000
0010
0100
0010
0000
,
0110
0000
0100
0000
1000
0010
0100
0000
0001
0000
1000
0001
2000
0000
3010
0000
,
0110
0000
0100
0001
0100
0000
0010
1000
,
0100
0000
0000
0100
0000
0000
1000
0000
0010
0000
0000
0010
0000
0000
0100
0000
,
0002
0000
0100
0000
1003
0100
1000
0010
,
0100
0000
0001
0010
0001
0000
1001
0000
,
1000
0100
1000
0000
0010
0000
0100
0000
,
0001
0000
0000
0100
0000
0000
0001
0000
0010
0000
0000
0000
0100
0000
0010
0000
,
0100
0000
0010
0001
0000
0010
1000
0000
,
0010
0000
0100
0000
1000
0000
0001
0000
0200
0000
0000
0000
0310
0000
0100
0010
,
0100
0001
0100
0000
0010
1000
0010
0000
,
1000
0100
0010
0000
0001
0010
0100
0000
,
1000
0010
0200
0000
0301
0100
0020
0000
,
1030
0000
0100
0000
0010
0000
0001
0000
0100
0000
0000
0010
0100
0000
0010
0000
,
1000
0100
1000
0000
0010
0100
0010
0000
,
0100
0001
0100
0000
0001
0010
0001
0000
,
1000
0010
2000
0000
3001
0100
0002
0000
,
0013
0100
0010
0000
0001
1000
0001
0000
2001
0000
0000
0000
3001
0000
0100
0000
,
0110
0000
0000
0100
0000
0000
0001
0000
0020
0000
0000
0000
0000
0000
0031
0000
,
1000
0000
0000
0100
0000
0000
1000
0000
0020
0000
0000
0000
0130
0000
0010
0100
,
0010
0000
1000
0000
1000
0000
0001
0000
0100
0000
0001
0100
0001
0000
0010
0000
,
0010
0000
0001
0000
0001
0000
1000
0000
0100
0000
1000
0100
1000
0000
0010
0000
,
0200
0000
0010
0000
0310
0000
1000
0000
0001
0000
0010
0001
0000
0010
0001
0000
,
0020
0100
0130
1000
0001
1000
2002
3003
,
0200
0000
0010
0000
0310
0000
0001
0000
1001
0000
1000
0100
0000
1000
0100
1000
,
0200
0000
0000
0000
0310
0000
0001
0010
0002
0000
0000
0000
1003
0000
0000
0000
,
1001
0000
0001
0100
0020
0000
2030
0001
,
3002
0000
0000
0013
0100
0010
0220
0330
,
0100
0000
0000
1000
0000
0000
0100
0000
1000
0000
0000
0000
1000
0000
0010
0000
,
0100
0000
0000
0001
0000
0000
0100
0000
0000
0000
0001
0000
1000
0000
0001
0000
,
1001
0000
1000
0100
2000
0000
0000
3001
,
0002
0000
0103
0010
0100
0000
0220
0330
,
0010
0000
0000
1000
0000
0000
0010
0000
0100
0000
0000
0000
0100
0000
0001
0000
,
1000
0001
1000
0000
0010
0100
0010
0000
1000
0010
1000
0000
0001
0100
0001
0100
,
0020
0000
1030
0000
1001
0000
0001
0100
,
0001
0000
0000
1000
0000
0000
0001
0000
0010
0000
0000
0100
0000
0000
0010
0000
,
0100
0000
1000
1000
0010
0000
1000
0000
,
1001
0000
0000
0000
0001
0000
0001
0000
0100
0000
0000
0000
0010
0100
0010
0000
,
0200
0000
0001
0000
0010
0000
0301
0010
,
0001
0000
1000
0100
1000
0010
0000
0010
,
1000
0000
0100
0020
0000
0230
0000
1300
,
0001
0100
0001
0000
1000
0100
1000
0000
0010
0000
0100
0000
0020
0000
0000
0000
,
0130
0000
0000
0001
0000
0000
0100
0000
0001
0000
0000
0000
0010
0000
0000
0000
,
0100
0000
0000
1000
0000
0000
0100
0000
1000
0000
0000
0000
0010
0000
0100
0000
,
0010
0000
0000
1000
0000
0000
0010
0000
1000
0000
0000
0000
0100
0000
0000
0000
,
0010
0000
0000
0001
0000
0000
0010
0000
0001
0000
1000
0000
0001
0000
0000
0000
,
1001
0000
1000
0100
0010
0000
0001
0010
,
0100
0000
1000
0001
0100
0000
0010
0000
,
0110
0000
0100
0001
1000
0100
0010
0000
,
2000
0000
3001
0010
0200
0000
0310
0000
,
0110
0000
0000
0100
0010
0000
0000
0000
0001
0000
0000
0100
0001
0000
0000
0000
,
1000
0000
0000
0100
1000
0000
0000
0000
0010
0000
0000
0100
0010
0000
0100
0000
,
0110
0000
0010
1000
0100
0010
0001
0000
,
0100
0000
0001
1000
0100
0010
0100
0010
,
0110
0000
0000
0000
0100
0000
0000
0000
1000
0000
0000
0010
1000
0000
0000
0000
,
0001
0000
0000
0010
0001
0000
0000
0000
0010
0000
0000
0100
0010
0000
0000
0000
,
0100
1000
0010
0000
0100
0001
0010
0000
,
0200
0000
0320
0000
0130
0010
0001
1000
,
0200
0000
0000
0000
1300
0000
0100
0000
0010
0001
0000
0100
0000
0001
0000
1000
,
0020
0000
0000
0000
0000
0000
0030
0100
0010
0000
0010
1000
0000
0001
0000
0010
,
0200
0000
0000
0000
0300
0000
0010
0001
0020
0000
0000
0000
0031
0000
0100
0000
,
0002
0000
2000
0000
0000
0000
0000
3003
;
