#VERSION:0.83;
#TITLE:Water Melon Woman;
#SUBTITLE:;
#ARTIST:NAKATEK;
#TITLETRANSLIT:;
#SUBTITLETRANSLIT:;
#ARTISTTRANSLIT:;
#GENRE:Techno;
#CREDIT:;
#MUSIC:Water Melon Woman (Best Hits! REMIX).ogg;
#BANNER:Water Melon Woman-bn.png;
#BACKGROUND:Water Melon Woman-bg.png;
#CDTITLE:;
#SAMPLESTART:25.020;
#SAMPLELENGTH:12.000;
#SELECTABLE:YES;
#OFFSET:-0.130;
#BPMS:0.000=115.600;
#STOPS:;
#DISPLAYBPM:115.000;
#BGCHANGES:;
#FGCHANGES:;

//--------------- dance-single - 8Chasey ----------------
#NOTEDATA:;
#STEPSTYPE:dance-single;
#DESCRIPTION:8Chasey;
#DIFFICULTY:Beginner;
#METER:1;
#RADARVALUES:0,0,0,0,0;
#MUSIC:Water Melon Woman (Original).ogg;
#NOTES:
0000
0000
0000
0000
,
0000
0000
0000
0000
,
0000
0000
0000
0000
,
0000
0000
0000
0000
,
0001
0000
1000
0000
,
0001
0001
0001
0000
,
1000
1000
0000
0000
,
0010
0010
0000
0000
,
1000
0000
0001
0000
,
1000
1000
1000
0000
,
0001
0001
0000
0000
,
0100
0100
0000
0000
,
0001
0000
0000
0000
,
1000
0000
0000
0000
,
0001
0000
0000
0000
,
1000
0000
0000
0000
,
0010
0000
1000
0000
,
0001
0000
0001
0000
,
0010
0000
0001
0000
,
1000
0000
1000
0000
,
0100
0000
0010
0000
,
0100
0000
0100
0000
,
0010
0000
0000
0000
,
0100
0000
0010
0000
,
1001
0000
0001
0000
,
1000
1000
1000
0000
,
0001
0000
0000
0000
,
1000
0000
0000
0000
,
1001
0000
1000
0000
,
0001
0001
0001
0000
,
1000
0000
0000
0000
,
0001
0000
0000
0000
,
0100
0000
0000
0000
,
0010
0000
0000
0000
,
0100
0000
0000
0000
,
0010
0000
0000
0000
,
1000
0000
0010
0000
,
1000
1000
1000
0000
,
0001
0000
0010
0000
,
0001
0000
0100
0000
,
0001
0000
1000
0000
,
0001
0001
0001
0000
,
1000
0000
0000
0000
,
0010
0000
0100
0000
,
0010
0000
0000
0000
,
0100
0000
0000
0000
,
0100
0000
0000
0000
,
0010
0000
0000
0000
,
1000
0000
0000
0000
,
0001
0000
0000
0000
,
0001
0000
0000
0000
,
1000
0000
0000
1001
;

//--------------- dance-single - 8Chasey ----------------
#NOTEDATA:;
#STEPSTYPE:dance-single;
#DESCRIPTION:8Chasey;
#DIFFICULTY:Easy;
#METER:3;
#RADARVALUES:0,0,0,0,0;
#MUSIC:Water Melon Woman (Original).ogg;
#NOTES:
0000
0000
0000
0000
,
0000
0000
0000
0000
,
0001
0000
1000
0000
0000
0010
0000
0000
,
0100
0010
0000
1000
,
0001
0000
0100
0001
,
2000
0000
3001
0000
,
0010
0010
0000
0000
,
0100
0010
0000
0100
,
2000
0000
3100
1000
,
0002
0010
0013
0000
,
0001
1000
0000
0100
,
1000
0001
0100
0010
,
0200
0000
0000
0300
,
0002
0000
0000
0003
,
2000
0000
0000
3000
,
0020
0000
0000
0130
,
0020
0030
2000
3000
,
0001
1000
0001
0000
,
0200
0300
0002
0003
,
1000
0100
0010
0100
,
1000
0010
2000
3000
,
0100
0010
0001
0010
,
0002
0003
0100
0000
,
0010
0000
0100
0110
,
0010
0000
1000
0010
,
1000
0001
0200
0300
,
0001
0001
0000
0001
,
1000
1000
0001
1000
,
0200
0000
1300
0100
,
0020
0001
0031
0000
,
0100
0001
0010
0000
,
0100
1000
0010
0100
,
0020
0000
0000
0030
,
2000
0000
0000
3000
,
0002
0000
0000
0003
,
0200
0000
0000
0310
,
2000
0000
3010
1000
,
0100
0010
0100
0010
,
0002
0000
0013
0001
,
1000
0001
1000
0000
,
0001
0100
0001
0000
,
1000
0010
1000
0000
,
1001
0000
0000
0000
,
0110
0000
0010
0100
,
0002
0000
0000
0000
,
2003
0000
0000
0000
,
3002
0000
0000
0000
,
2003
0000
0000
0001
,
3010
0100
0000
0000
,
0100
0010
0000
0000
,
1000
0001
0000
0000
,
0001
1000
0001
1001
;

//--------------- dance-single - 8Chasey ----------------
#NOTEDATA:;
#STEPSTYPE:dance-single;
#DESCRIPTION:8Chasey;
#DIFFICULTY:Medium;
#METER:4;
#RADARVALUES:0,0,0,0,0;
#MUSIC:Water Melon Woman (Original).ogg;
#NOTES:
0000
0000
0000
0000
,
0000
0000
0000
0000
,
0001
1000
0001
0000
0000
0010
0000
0000
,
0100
1000
0001
0000
0100
0000
0110
0000
,
0010
0000
1000
0001
,
0100
0001
1000
1100
,
1000
0000
0010
0000
0000
0100
0000
0000
,
0001
1000
0010
0110
,
0010
0000
1000
0100
,
0010
0001
1000
1001
,
0001
0000
0010
0000
0000
0100
0000
0000
,
1000
0100
0010
0110
,
0002
0000
0000
0000
0000
0000
0003
0010
,
0200
0000
0000
0000
1000
0000
0300
1000
,
0020
0000
0000
0030
,
2000
0000
0000
0000
0000
0100
3100
0010
,
0001
0100
0010
1010
,
1000
0000
0010
0000
0001
0000
0100
0001
,
0100
0001
0010
0011
,
0100
1000
0100
2000
0000
0000
3001
0000
,
0101
1000
1100
1001
,
0001
0100
1000
0000
0100
0000
0010
0000
,
2000
0100
0000
3100
,
0020
0000
0031
0000
0010
0001
0100
0000
,
0010
0000
0100
0001
,
1000
0100
0010
0110
,
0100
0000
1000
0000
0000
0001
0000
0000
,
1000
0001
1000
1001
,
0001
0000
0100
0100
,
0001
1000
0100
0110
,
0010
0000
0001
0000
0000
1000
0000
0000
,
0010
1000
0001
1001
,
2000
0000
0000
0000
0000
0000
3000
1000
,
0002
0000
0000
0000
0010
0000
0000
0013
,
0200
0000
0000
0300
,
0020
0000
0000
0130
,
1000
0001
0100
0101
,
0001
0000
0010
0000
0100
0000
1000
0001
,
1000
0010
1000
1010
,
0100
0001
0100
0002
0000
0000
1003
0000
,
0100
1000
0010
0000
0100
0001
0010
0000
,
0100
1000
0001
0100
,
0020
1000
0000
1030
,
0200
0000
0310
0000
0100
1000
0100
0000
,
2000
0000
0000
0000
0000
3010
0000
0000
,
0002
0000
0000
0000
0000
0103
0000
0000
,
0020
0000
0000
0000
0000
0130
0000
0000
,
0200
0000
0000
0000
0000
0310
0100
0000
,
1001
0000
0001
0000
0000
1000
0000
0000
,
0100
0000
0010
0000
0000
0001
0000
0000
,
1000
0000
0100
0000
0000
0100
0000
0000
,
0010
0001
1000
1001
;

//--------------- dance-single - 8Chasey ----------------
#NOTEDATA:;
#STEPSTYPE:dance-single;
#DESCRIPTION:8Chasey;
#DIFFICULTY:Hard;
#METER:7;
#RADARVALUES:0,0,0,0,0;
#MUSIC:Water Melon Woman (Original).ogg;
#NOTES:
0000
0000
0000
0000
,
0000
0000
0000
0000
,
0001
0100
0101
0000
1000
0020
0000
0030
,
1000
0100
1100
0000
0010
0100
0110
0000
,
0020
0000
0031
1000
1000
0100
1000
0000
,
0010
0000
1000
0001
0100
0000
0110
0000
,
1000
0010
0010
0000
0100
0002
0000
0013
,
0001
0010
0000
0100
1100
0000
0011
0000
,
2000
0000
3010
1000
1000
0001
0002
0000
,
0013
0000
0001
1000
0100
0000
0110
0000
,
0010
0001
0010
0000
0001
1000
0000
0010
,
1000
0010
0000
0100
0101
0000
1010
0000
,
2000
0000
0100
0000
0001
0000
3100
1000
,
0002
0000
0100
0000
1000
0000
0103
0001
,
0020
0000
0130
0000
1000
0010
1000
0001
,
0020
0000
0130
0000
1000
0010
1000
0001
,
0020
0001
0031
1000
0001
1000
0100
0000
,
1000
0010
1000
0100
2000
0000
3010
0010
,
0200
0001
0301
1000
0100
0010
0100
0000
,
1000
0000
0001
0000
1000
0000
0001
0000
0000
0000
0010
0001
0010
0000
0000
0000
,
0220
0000
0330
0100
0200
0000
1300
0000
,
1000
0010
1000
0001
0200
0000
0001
0000
,
0320
0000
0000
1000
0000
1030
0010
0000
,
2000
3002
0103
1001
,
0020
0000
0031
1000
1000
0100
1000
0000
,
0010
0000
1000
0001
0100
0000
0110
0000
,
1000
0010
0010
0000
0100
0002
0000
0013
,
0001
0010
0000
0100
1100
0000
0011
0000
,
2000
0000
3010
1000
1000
0001
0002
0000
,
0013
0000
0001
1000
0100
0000
0110
0000
,
0010
0001
0010
0000
0001
1000
0000
0010
,
1000
0010
0000
0100
0101
0000
1010
0000
,
2000
0000
0100
0000
0001
0000
3100
1000
,
0002
0000
0100
0000
1000
0000
0103
0001
,
0020
0000
0130
0000
1000
0010
1000
0001
,
0020
0000
0130
0000
1000
0010
1000
0001
,
0020
0001
0031
1000
0001
1000
0100
0000
,
1000
0010
1000
0100
2000
0000
3010
0010
,
0200
0001
0301
1000
0100
0010
0100
0000
,
1000
0000
0001
0000
1000
0000
0001
0000
0000
0000
0010
0001
0010
0000
0000
0000
,
0220
0000
0330
0100
0200
0000
1300
0000
,
1000
0010
1000
0001
0200
0000
0001
0000
,
0320
0000
0000
1000
0000
1030
0010
0000
,
2000
3002
0103
1001
,
1000
0010
1000
0000
0000
1001
0000
0000
,
0100
0001
0100
0000
0000
0110
0000
0000
,
0001
0010
0001
0000
0000
1100
0000
0000
,
0100
1000
0100
0000
0000
0101
0100
0000
,
0001
0010
0001
0000
1000
0020
0000
0030
,
1000
0100
1000
0000
0001
0200
0000
0300
,
0001
1000
0001
0000
1000
0002
0000
0003
,
1000
0001
2000
0000
3010
0000
1001
0000
;

//--------------- dance-single - 8Chasey - CHALLENGE-ONLY concept ----------------
#NOTEDATA:;
#STEPSTYPE:dance-single;
#DESCRIPTION:8Chasey - CHALLENGE-ONLY concept;
#DIFFICULTY:Challenge;
#METER:9;
#RADARVALUES:0,0,0,0,0;
#OFFSET:-0.130;
#BPMS:0.000=115.600;
#SCROLLS:16.000=1.150,
48.000=0.800,
64.000=1.250,
88.000=1.100,
96.000=1.150,
128.000=0.800,
144.000=1.250,
168.000=1.100,
176.000=1.000,
204.000=1.200,
207.000=1.500
;
#NOTES:
0000
0000
0000
0000
,
0000
0000
0000
0000
,
0001
0100
0001
1000
0000
1000
0001
0000
1001
0000
1000
0000
0000
0000
0010
0000
,
1000
0010
1000
0000
0001
0100
0000
0001
0000
1000
0010
0000
0220
0000
0330
0000
,
0200
0000
0001
0000
0301
0000
1000
0010
1000
0000
0001
0000
0020
0000
0130
0000
,
0010
0000
0100
1000
0100
0000
1000
0000
0002
0000
1000
0000
1003
0000
0010
1000
,
0001
1000
2100
0001
0001
3001
0010
0001
,
0100
0000
0100
0000
0001
0010
0001
1000
0001
1000
0010
0000
0220
0000
0330
0000
,
2000
0000
0010
0000
3010
0000
1000
0001
0100
0000
0002
0000
0010
0000
0013
0000
,
0001
0000
0100
0001
1000
0000
0010
0000
2000
0000
0100
0000
3001
0000
0010
0000
,
0001
0000
0100
0000
0102
0000
0000
0000
0013
0000
0001
1000
0001
0000
1000
0000
,
0010
1000
0100
0000
1000
0000
0001
0000
0010
0001
0010
0000
0011
0000
0001
0000
,
2000
0010
0001
0010
,
3002
0000
0100
0000
1000
0000
0103
0010
,
0200
0001
0001
0000
0001
0000
0301
1000
,
0020
1000
1000
0000
0130
0001
0100
0001
,
0101
0000
0000
1000
0001
0000
1000
0000
0010
0000
1010
0000
1010
0000
0000
0000
,
0100
0001
0100
0000
0001
0000
0010
0001
1000
0000
0001
0000
1000
0000
0100
0000
,
0020
0100
0130
0010
0001
0011
0011
0000
,
0010
0001
1000
0000
0010
0000
1000
0100
1000
0000
0001
0000
1000
0000
0001
0001
,
0020
0000
0000
0001
0000
0000
0100
0000
0230
0000
1000
0000
1300
0000
0000
0010
,
1000
0000
0001
0100
0001
0000
1000
0000
0001
0000
0010
0000
0001
1000
0001
1000
,
0200
0000
0010
0000
1300
0010
1000
0010
,
0200
0000
0000
0000
0301
0000
0010
0000
0001
0000
1001
0000
1000
0100
1000
0000
,
0020
0000
0130
0001
0100
0001
2000
0000
,
3010
0000
1000
0001
1000
0000
0001
0000
0200
0000
0001
0000
0310
0000
1000
0000
,
0200
1000
0320
0001
0001
0031
0100
0001
,
0201
0000
0000
0000
0310
1000
0000
1000
0010
1000
0100
0000
0010
0001
0010
0000
,
0110
0000
1000
0000
0100
0000
1000
0010
1000
0000
0001
0000
0200
0000
0001
0000
,
0301
0000
0010
0000
0001
0000
1000
0000
0010
0000
1010
0000
1000
0001
2000
0000
,
0000
0000
3002
0000
0100
0000
0000
0000
1000
0000
1000
0000
1003
0000
0010
1000
,
0010
0000
0100
0000
0001
0010
0000
0011
0000
1000
0000
2020
0000
0000
3030
0000
,
0101
1000
0010
2000
0100
0000
3001
0000
,
1100
0100
1000
0002
0100
0000
1003
0000
,
0110
0100
0001
1000
0100
0200
0010
0000
,
0310
0000
0100
0000
1000
0000
0001
0000
0010
0000
0100
0000
1000
0001
1000
0000
,
0011
0000
0010
0001
1000
0000
0010
0000
0100
0000
0110
0000
0110
0000
0100
0000
,
0001
0100
0001
0000
1000
0000
0010
1000
0100
0000
1000
0000
0002
0000
0100
0000
,
0103
0000
0010
1000
0100
0000
1000
0000
0001
0000
1001
0000
1001
0000
0010
0000
,
0001
0000
0010
0000
0001
0010
0001
1000
0001
0000
1000
1000
0010
0000
1000
0000
,
2010
0000
0000
0100
0000
0000
0001
0000
3002
0000
0100
0000
0103
0000
0001
0000
,
0010
0001
0010
0000
0001
0000
1000
0000
0100
1000
0001
0000
1000
0010
0010
1000
,
0020
0000
0130
0001
0100
0010
0100
0001
,
1000
0000
0100
0000
1000
0000
0010
0000
1000
0001
0100
0000
0010
1000
0010
0000
,
1000
0000
0100
1000
0000
1000
0002
0000
0100
0000
0200
0000
0000
0000
0303
0000
,
0001
0000
0100
0001
0000
0001
2000
0000
0100
0000
0200
0000
0000
0000
3300
0000
,
0010
0000
0010
0001
0000
1000
0020
0000
0100
0000
0200
0000
0000
0000
0330
0000
,
0010
0000
0010
1000
0000
0001
0020
0000
0100
0000
0130
0000
0010
0000
0100
0000
,
1000
0010
1000
0010
0000
1000
0001
0000
0101
0000
0200
0000
0000
0000
0300
0000
,
0001
0010
0001
0010
0000
0001
1000
0000
1100
0000
0200
0000
0000
0000
0300
0000
,
1000
0001
1000
0001
0000
0100
0002
0000
1000
0000
1003
0000
0010
1000
0010
0000
,
1000
0000
0100
0000
1000
0010
1000
0010
0100
0100
0010
0000
2002
0000
0000
0000
,
0000
0000
0000
0000
0000
3003
0000
0000
;
