#TITLE:Wash Your Hands;
#SUBTITLE:;
#ARTIST:Preschool Popstars;
#TITLETRANSLIT:;
#SUBTITLETRANSLIT:;
#ARTISTTRANSLIT:;
#GENRE:;
#CREDIT:8Chasey 2025;
#MUSIC:Wash Your Hands.ogg;
#BANNER:;
#BACKGROUND:;
#CDTITLE:;
#SAMPLESTART:26.11;
#SAMPLELENGTH:12;
#SELECTABLE:YES;
#OFFSET:-0.190;
#BPMS:0.000=120.000;
#STOPS:;
#BGCHANGES:;
#FGCHANGES:;

//--------------- dance-single - 8Chasey ----------------
#NOTES:
     dance-single:
     8Chasey:
     Beginner:
     1:
     0,0,0,0,0:
0000
0000
0000
0000
,
0000
0000
0000
0000
,
0000
0000
0000
0000
,
0000
0000
0000
0000
,
0001
0000
0000
0000
,
0001
0000
0000
0000
,
1000
0000
0001
0000
,
1000
0000
0000
0000
,
1000
0000
0000
0000
,
1000
0000
0000
0000
,
0001
0000
1000
0000
,
0001
0000
0000
0000
,
0100
0000
0000
0000
,
0010
0000
0000
0000
,
0010
0000
0000
0000
,
1000
0000
0000
0000
,
0001
0000
0000
0000
,
0100
0000
0000
0000
,
0100
0000
0000
0000
,
0001
0000
0000
0000
,
1000
0000
0000
0000
,
0000
0000
0001
0000
,
0001
0000
0001
0000
,
0000
0000
1000
0000
,
1000
0000
1000
0000
,
0000
0000
0001
0000
,
1000
0000
0001
0000
,
1000
0000
0000
0000
,
0000
0000
0000
0000
,
0001
0000
0000
0000
,
0000
0000
0000
0000
,
0100
0000
0000
0000
,
0000
0000
0000
0000
,
0010
0000
0000
0000
,
0000
0000
0000
0000
,
1000
0000
0000
0000
,
0001
0000
0000
0000
,
1000
0000
1000
0000
,
0001
0000
0001
0000
,
0100
0000
0000
0000
,
0010
0000
0000
0000
,
0010
0000
0000
0000
,
0100
0000
0000
0000
,
1000
0000
0001
0000
,
1000
0000
0001
0000
,
0100
0000
0000
0000
,
0100
0000
0000
0000
,
0001
0000
0000
0000
,
1000
0000
0000
0000
,
0010
0000
0000
0000
,
0010
0000
0000
0000
,
1000
0000
0000
0000
,
0001
0000
0000
0000
,
0000
0000
1000
0000
,
1000
0000
1000
0000
,
0000
0000
0001
0000
,
0001
0000
0001
0000
,
0000
0000
1000
0000
,
0001
0000
1000
0000
,
0001
0000
0000
0000
;

//--------------- dance-single - 8Chasey ----------------
#NOTES:
     dance-single:
     8Chasey:
     Easy:
     2:
     0,0,0,0,0:
0000
0000
0000
0000
,
0000
0000
0000
0000
,
0000
0000
0000
0000
,
0000
0000
0000
0000
,
0001
0000
1000
0000
,
0002
0000
0003
0000
,
0010
0000
0100
0000
,
0010
0000
0100
0000
,
1000
0000
0001
0000
,
2000
0000
3000
0000
,
0010
0000
0100
0000
,
0010
0000
0010
0000
,
0100
0000
0100
0000
,
2000
0000
0000
3000
,
0001
1000
0001
0000
,
1000
0000
1000
0000
,
0001
0000
0001
0000
,
0010
0000
0100
0000
,
1000
0001
1000
0000
,
0001
0000
0001
0000
,
1000
0000
1000
0000
,
0000
0001
1000
0000
,
0001
0100
0001
0000
,
0000
1000
0001
0000
,
1000
0100
1000
0000
,
0010
0000
0100
0000
,
0010
0100
0010
0000
,
0110
0000
0100
0000
,
0001
0000
1000
0000
,
0010
0010
0100
0000
,
0010
0000
1000
1000
,
0001
0000
1000
0000
,
0100
0100
0010
0000
,
0001
0000
1000
0000
,
0001
0001
1000
0000
,
0020
0000
0030
0000
,
0100
0001
0100
0000
,
0001
0000
1000
0000
,
0100
1000
0100
0000
,
0020
0000
0030
0000
,
0100
0010
0100
0000
,
1000
0000
1000
0000
,
0001
0000
0001
0000
,
0100
0000
0100
0000
,
0010
0000
0010
0000
,
2000
0000
3100
0000
,
1000
0001
1000
0000
,
0010
0000
0010
0000
,
0100
0000
0100
0000
,
0002
0000
0103
0000
,
0001
1000
0001
0000
,
0100
0000
0100
0000
,
0010
0000
0010
0000
,
0000
1000
0001
0000
,
1000
0010
1000
0000
,
0000
0001
1000
0000
,
0001
0010
0001
0000
,
0100
0000
0010
0000
,
0100
0010
0100
0000
,
0220
0000
0000
0000
,
0330
0000
0000
0000
;

//--------------- dance-single - 8Chasey ----------------
#NOTES:
     dance-single:
     8Chasey:
     Medium:
     4:
     0,0,0,0,0:
0000
0000
0000
0000
,
0000
0000
0000
0000
,
0000
0000
0000
0000
,
0000
0000
0000
0000
,
0001
0000
0100
0000
0010
0100
0010
0000
,
2000
0100
0000
3100
,
1000
0000
0010
0000
0100
0010
0100
0000
,
0001
0100
0000
0100
0000
0001
0000
0000
,
1000
0000
0010
0100
0010
0000
0100
0000
,
0002
0010
0000
0013
,
0100
0000
0010
0100
0010
0000
0100
0000
,
1000
0001
0000
0001
0000
1000
0000
0000
,
0001
1000
0000
1000
0000
0001
0000
0000
,
1001
0000
1000
0000
0100
1000
0100
0000
,
1000
0000
0001
0000
0100
0001
0100
0000
,
0001
0000
0000
0010
0000
0000
0001
0000
,
1000
0000
0000
0100
0000
0000
1000
0000
,
0010
0000
0100
0000
0001
0100
0001
0000
,
0010
0000
0000
0100
0000
0000
1000
0000
,
0010
0000
0000
1000
0000
0000
0010
0000
,
0100
0000
0000
0001
0000
0000
0100
0000
,
0000
0001
1000
0001
,
0100
0000
0001
0100
0000
0000
0001
0000
,
0000
0000
1000
0000
0001
1000
0001
0000
,
1000
0000
0000
0100
0000
0100
1000
0000
,
0000
0020
0100
0130
,
0001
0100
1000
0100
,
0110
0020
0100
0100
,
0100
0130
0002
0000
,
1003
0000
0100
0000
0010
0100
0010
0000
,
0001
0000
0100
0001
0100
0000
0001
0000
,
1000
0010
0000
1000
0010
0000
1000
0000
,
0100
0000
0010
0000
0001
1000
0001
0000
,
0100
0001
1000
0100
,
0010
0100
0010
0000
0100
0000
0010
0000
,
0002
0100
0100
0103
,
0001
0000
1000
0001
0000
0000
0000
0000
,
2000
0100
0100
3100
,
1000
0000
0010
0000
0100
0010
0100
0000
,
0020
0100
0100
0130
,
0001
0000
0010
0001
0000
0000
1000
0000
,
0200
0000
0320
0000
,
0032
0000
2003
0000
,
3010
0100
0001
1000
,
0010
0100
0010
0000
1000
0000
0001
0000
,
1001
0000
1000
0000
0100
1000
0100
0000
,
1000
0000
0001
0000
0100
0001
0100
0000
,
0010
0000
0000
0100
0000
0000
0010
0000
,
0100
0000
0000
0010
0000
0000
0100
0000
,
0001
0000
0010
0000
0100
0010
0100
0000
,
1000
0000
0010
0100
0000
0000
0010
0000
,
1000
0000
0000
0100
0000
0000
1000
0000
,
0001
0000
0000
0010
0000
0000
0001
0000
,
0000
0200
0001
0301
,
0010
0000
0001
1000
0000
0000
0001
0000
,
0010
0000
0100
0000
1000
0100
1000
0000
,
0001
0000
0000
1000
0000
1000
0001
0000
,
0010
0200
1000
1300
,
0100
0001
0100
1000
,
2002
0000
0000
0000
,
0000
0000
0000
3003
;

//--------------- dance-single - 8Chasey ----------------
#NOTES:
     dance-single:
     8Chasey:
     Hard:
     7:
     0,0,0,0,0:
0000
0000
0000
0000
,
0000
0000
0000
0000
,
0000
0000
0000
0000
,
0000
0000
0000
0000
,
0001
0100
0001
0000
1000
0001
1000
0000
,
0020
0100
1000
1030
,
0100
1000
0100
0000
1000
0010
1000
0000
,
0001
0200
0000
0010
0000
0310
0000
0000
,
1000
0000
0001
0010
0001
0000
0100
0000
,
0002
0010
1000
0103
,
0010
1000
0010
0000
1000
0100
1000
0000
,
0010
2000
0000
0001
0000
3001
0000
0000
,
0100
0002
0000
1000
0000
1003
0000
0000
,
1001
0000
0001
1000
0010
0000
1000
0000
,
0200
1000
1300
0010
,
0100
0000
0001
0010
0000
0001
0010
0000
,
0100
0000
1000
0010
0000
1000
0010
0000
,
0110
0000
0100
0001
0100
0000
0010
0000
,
2000
0000
3001
0010
0000
0001
0100
0000
,
0001
0000
0010
0100
0000
0010
0100
0000
,
1000
0000
0010
0100
0000
0010
0100
0000
,
0002
0100
1000
1003
,
0010
0000
1000
0100
0000
1000
0001
0000
,
0010
0000
0001
0000
0100
0001
0100
0000
,
0001
0000
0010
0001
0000
1000
0001
0000
,
2000
0010
0001
3001
,
0102
1003
2100
3001
,
1001
0000
0001
0010
0001
0010
0001
0000
,
0100
0000
0000
0001
0000
0000
0100
0000
0000
0000
0000
0000
0001
0000
0000
0000
1000
0000
0000
0000
0001
0000
0000
0000
,
2000
0000
0000
0000
0100
0000
0000
0000
3100
0000
0000
0100
0020
0000
0000
0000
,
0000
0000
0031
0000
0100
0001
0100
0001
,
1000
0000
0000
0000
0010
0000
1000
0000
0000
0001
0000
0000
1000
0000
0000
0000
,
0100
0000
0000
0010
0000
0000
0000
0100
0000
0000
0020
0000
0000
0000
0000
0000
,
0031
0000
0000
0100
0000
0000
0010
0000
0000
1000
0000
0000
0001
0000
0000
0010
,
0000
0000
0100
0000
0000
1000
0000
0000
0020
0000
0000
0100
0000
0130
0000
0000
,
0002
0000
0010
0000
0013
0000
0001
1000
,
0001
0000
0001
0200
0000
0000
0310
0000
,
1000
0100
1000
0000
0001
0000
1001
0000
,
0001
0100
0001
0000
0010
0000
0110
0000
,
0100
2000
0010
3010
,
0100
0000
0001
0100
0000
0001
1000
0000
,
0020
1000
2030
0001
,
3002
0100
0200
0303
,
2010
3100
0010
0001
,
0012
0000
0103
0000
0100
0001
1000
0001
,
1001
0000
1000
0010
1000
0000
0100
0000
,
0020
0001
0031
0100
,
0001
0000
0010
0001
0000
0100
0001
0000
,
1000
0000
0010
1000
0000
0100
1000
0000
,
1001
0000
0001
0010
0001
0000
0100
0000
,
0020
0000
1030
0001
0000
0001
0100
0000
,
0010
0000
1000
0100
0000
1000
0001
0000
,
0010
0000
0001
0100
0000
0001
1000
0000
,
0100
0010
0100
0000
0010
0000
0001
0000
,
0100
0000
0010
0100
0000
0010
0100
0000
,
0001
0000
1000
0000
0100
1000
0100
0000
,
1000
0000
0010
0100
0000
0100
0001
0000
,
0020
0100
0130
1000
,
2100
3010
0102
0013
,
0220
0000
0000
0000
,
0000
0000
0000
0330
;

//--------------- dance-double - 8Chasey ----------------
#NOTES:
     dance-double:
     8Chasey:
     Easy:
     1:
     0,0,0,0,0:
00000000
00000000
00000000
00000000
,
00000000
00000000
00000000
00000000
,
00000000
00000000
00000000
00000000
,
00000000
00000000
00000000
00000000
,
00001000
00000000
00000000
00000000
,
00010000
00000000
00000000
00000000
,
00001000
00000000
00010000
00000000
,
00001000
00000000
00000000
00000000
,
00010000
00000000
00000000
00000000
,
00001000
00000000
00000000
00000000
,
00010000
00000000
00001000
00000000
,
00010000
00000000
00000000
00000000
,
00000100
00000000
00000000
00000000
,
00000010
00000000
00000010
00000000
,
00000010
00000000
00000000
00000000
,
00000001
00000000
00001000
00000000
,
00000001
00000000
00001000
00000000
,
00000100
00000000
00000100
00000000
,
00000100
00000000
00000000
00000000
,
00010000
00000000
00001000
00000000
,
00010000
00000000
00001000
00000000
,
00000000
00100000
00100000
00000000
,
01000000
00000000
00100000
00000000
,
00000000
01000000
01000000
00000000
,
00100000
00000000
01000000
00000000
,
00000000
00000000
10000000
00000000
,
00010000
00000000
10000000
00000000
,
00010000
00000000
00000000
00000000
,
01000000
00000000
00100000
00000000
,
00100000
00000000
00000000
00000000
,
10000000
00000000
01000000
00000000
,
01000000
00000000
00000000
00000000
,
00010000
00000000
00000000
00000000
,
00001000
00000000
00000000
00000000
,
00010000
00000000
00001000
00000000
,
00010000
00000000
00000000
00000000
,
00000010
00000000
00000100
00000000
,
00000001
00000001
00000001
00000000
,
00001000
00001000
00001000
00000000
,
00000100
00000000
00000000
00000000
,
00010000
00000000
00001000
00000000
,
00010000
00000000
00010000
00000000
,
00001000
00000000
00001000
00000000
,
00100000
00000000
00100000
00000000
,
01000000
00000000
01000000
00000000
,
00100000
00000000
00100000
00000000
,
00010000
00000000
00000000
00000000
,
10000000
00000000
10000000
00000000
,
00010000
00000000
00010000
00000000
,
01000000
00000000
01000000
00000000
,
00001000
00000000
00000000
00000000
,
00010000
00000000
00010000
00000000
,
00001000
00000000
00001000
00000000
,
00000000
00000000
00000010
00000000
,
00000010
00000000
00000001
00000000
,
00000000
00000000
00000100
00000000
,
00000100
00000000
00001000
00000000
,
00000000
00000000
00010000
00000000
,
00001000
00001000
00001000
00000000
,
00011000
00000000
00000000
00000000
;

//--------------- dance-double - 8Chasey ----------------
#NOTES:
     dance-double:
     8Chasey:
     Medium:
     4:
     0,0,0,0,0:
00000000
00000000
00000000
00000000
,
00000000
00000000
00000000
00000000
,
00000000
00000000
00000000
00000000
,
00000000
00000000
00000000
00000000
,
00010000
00000000
10000000
00000000
00010000
10000000
00010000
00000000
,
00200000
01000000
00000000
01300000
,
00010000
00000000
00001000
00000000
00010000
00001000
00010000
00000000
,
00000100
00000010
00000000
00000010
00000000
00000100
00000000
00000000
,
00001000
00000000
00000001
00001000
00000001
00000000
00001000
00000000
,
00000200
00000010
00000000
00000310
,
00000100
00000000
00010000
00001000
00010000
00000000
00001000
00000000
,
00100000
00010000
00000000
00010000
00000000
00100000
00000000
00000000
,
01000000
10000000
00000000
10000000
00000000
01000000
00000000
00000000
,
01100000
00100000
00010000
00100000
,
00002000
00010000
00013000
00000100
,
00000010
00000000
00000000
00000001
00000000
00000000
00000010
00000000
,
00000100
00000000
00000000
00001000
00000000
00000000
00000100
00000000
,
00011000
00001000
00100000
00001000
,
01000000
00000000
00010000
00100000
00000000
00000000
00010000
00000000
,
10000000
00000000
00000000
01000000
00000000
00000000
10000000
00000000
,
00010000
00000000
00000000
00100000
00000000
00000000
00010000
00000000
,
02000000
00100000
03100000
10000000
,
01000000
00000000
10000000
01000000
00000000
00000000
00100000
00000000
,
00002000
00010000
00013000
00000100
,
00001000
00000000
00000000
00000010
00000000
00000010
00000100
00000000
,
00000002
00000100
00000103
00000001
,
00002000
00000100
00003100
00010000
,
00022000
00033000
00001000
00001000
,
00010000
00010000
00001000
00100000
,
02000000
00100000
03100000
01000000
,
10000000
01000000
10000000
00000000
00010000
01000000
00010000
00000000
,
00100000
00001000
00010000
00000010
,
00000100
00000001
00000100
00001000
,
00010000
00001000
00100000
01000000
,
10000000
00000000
00100000
00000000
01000000
00100000
01000000
00000000
,
20020000
30030000
00010000
00100000
,
00001000
00000000
00010000
00001000
00000000
00000000
00010000
00000000
,
00000100
00001000
00000100
00000000
00001000
00000000
00000001
00000000
,
00000100
00000001
00000100
00000000
00001000
00000000
00010000
00000000
,
00001000
00200000
00010000
00310000
,
10000000
00000000
01000000
10000000
00000000
00000000
00010000
00000000
,
00200000
00000000
02300000
00000000
,
23000000
00000000
30020000
00000000
,
01030000
01000000
00001000
00010000
,
00000100
00000010
00000100
00000000
00001000
00000000
00000001
00000000
,
00001001
00000001
00000100
00001000
,
00010000
00002000
00100000
00103000
,
00010000
00000000
00000000
01000000
00000000
00000000
00100000
00000000
,
10000000
00000000
00000000
01000000
00000000
00000000
00100000
00000000
,
10010000
00010000
00100000
00001000
,
00010000
00000000
00000100
00001000
00000000
00000000
00000100
00000000
,
00000010
00000000
00000000
00000001
00000000
00000000
00000100
00000000
,
00000010
00000000
00000000
00001000
00000000
00000000
00000100
00000000
,
00020000
00001000
00031000
00100000
,
00010000
00000000
01000000
00010000
00000000
00000000
10000000
00000000
,
01000000
00000000
00100000
00000000
00001000
00010000
00001000
00000000
,
00010000
00000000
00000000
00000010
00000000
00000010
00000100
00000000
,
00000002
00000100
00000103
00001000
,
00100000
00000000
00010000
00000000
10000000
00010000
10000000
00000000
,
20020000
00000000
00000000
00000000
,
00000000
00000000
00000000
30030000
;

//--------------- dance-double - 8Chasey ----------------
#NOTES:
     dance-double:
     8Chasey:
     Hard:
     7:
     0,0,0,0,0:
00000000
00000000
00000000
00000000
,
00000000
00000000
00000000
00000000
,
00000000
00000000
00000000
00000000
,
00000000
00000000
00000000
00000000
,
00010000
00100000
01000000
00100000
01000000
00000000
00100000
00000000
,
00002000
01000000
00100000
00013000
,
00000100
00001000
00000100
00000010
00000001
00000000
00000100
00000000
,
00001000
00020000
00000000
00001000
00000000
00031000
00100000
00000000
,
01000000
00100000
01000000
00000000
00010000
00100000
00010000
00000000
,
02000000
00001000
00010000
03001000
,
00010000
00000100
00010000
00000000
00000100
00000010
00000100
00000000
,
00000010
00000002
00000000
00000100
00000000
00000103
00000000
00000000
,
00000010
00002000
00000000
00000100
00000000
00003100
00000000
00000000
,
00011000
00000000
00001000
00100000
01000000
00000000
10000000
00000000
,
01000000
00100000
00010000
00000000
02000000
00000000
03001000
00000000
,
00010000
00000000
00000010
00000100
00000000
00000010
00000100
00000000
,
00001000
00000000
00100000
01000000
00000000
00100000
01000000
00000000
,
10000000
00000000
00100000
01000000
00100000
00000000
01000000
00000000
,
00001000
00000000
00010000
00000100
00000000
00000100
00001000
00000000
,
00000010
00000000
00000100
00000001
00000000
00000100
00001000
00000000
,
00010000
00000000
00001000
00100000
00000000
00010000
01000000
00000000
,
00001000
00000000
00010000
00001000
00010000
00000000
00000100
00000000
,
00001000
00000000
00000010
00001000
00000000
00000001
00000100
00000000
,
00000010
00000000
00001000
00000000
00000100
00010000
00000100
00000000
,
00010000
00000000
00001000
00100000
00000000
00010000
00100000
00000000
,
01000000
00000000
10000000
00100000
10000000
00000000
01000000
00000000
,
00210000
00302000
00023000
00030100
,
00000110
00000000
00000001
00000010
00000001
00000010
00000001
00000000
,
00000100
00000010
00000100
00000000
00001000
00000000
00010000
00000000
,
00011000
00000000
00001000
00000000
00100000
00010000
00100000
00000000
,
02000000
00000000
13000000
00000000
00010000
10000000
00010000
10000000
,
00100000
00000000
01000000
00000000
00001000
00010000
00001000
00000000
,
00010000
00000000
00000100
00000000
00000010
00000100
00000010
00000000
,
00000001
00000000
00000000
00000100
00000000
00000000
00001000
00000000
00000000
00010000
00000000
00000000
00100000
00000000
00000000
10000000
,
00000000
00000000
01000000
00000000
00000000
10000000
00000000
00000000
01000000
00000000
10000000
00000000
01000000
00000000
00100000
00000000
,
00002000
00010000
00013000
00000100
,
00001000
00000000
00000010
00001000
00000000
00000001
00000100
00000000
,
00001000
00010000
00001000
00100000
00010000
01000000
00001000
00000000
,
00010000
00001000
00010000
00000010
00001000
00000100
00010000
00000000
,
00002000
00000000
00010000
00000000
00103000
00000000
00010000
00100000
,
00010000
00000000
01000000
00010000
00000000
00010000
00100000
00000000
,
02000000
10000000
23000000
00100000
,
30200000
01000000
02300000
03001000
,
00010000
00000100
00000010
00000000
00000001
00000010
00000100
00000000
,
00001000
00000010
00000100
00001000
00010000
00001000
00100000
00000000
,
01100000
00000000
01000000
10000000
00100000
00000000
01000000
00000000
,
00002000
00100000
00013000
00000100
,
00001000
00000000
00000010
00001000
00000000
00000001
00000010
00000000
,
00000001
00000000
00000010
00000001
00000000
00001000
00000010
00000000
,
00000100
00000000
00001000
00010000
00001000
00000000
00100000
00000000
,
00010000
01000000
00010000
00100000
00000000
00010000
10000000
00000000
,
01000000
00000000
10000000
00100000
00000000
00100000
01000000
00000000
,
00001000
00000000
00010000
00000010
00000000
00000010
00000100
00000000
,
00000001
00000000
00000100
00000001
00000100
00000000
00001000
00000000
,
00010000
00000000
00001000
00100000
00000000
00010000
00100000
00000000
,
01000000
00000000
10000000
01000000
10000000
00010000
01000000
00000000
,
00001000
00010000
00000100
00001000
00000000
00000100
00000010
00000000
,
00000001
00000010
00000100
00000000
00001100
00000000
00011000
00000000
,
01010000
00000000
11000000
00000000
10000000
00100000
01000000
00000000
,
02200000
00000000
00000000
00000000
,
00000000
00000000
00000000
03300000
;
