#TITLE:Trapped in the Drive Thru;
#SUBTITLE:;
#ARTIST:"Weird Al" Yankovic;
#TITLETRANSLIT:;
#SUBTITLETRANSLIT:;
#ARTISTTRANSLIT:;
#GENRE:;
#CREDIT:;
#MUSIC:Trapped in the Drive Thru.ogg;
#BANNER:;
#BACKGROUND:;
#CDTITLE:;
#SAMPLESTART:163.580;
#SAMPLELENGTH:12.000;
#SELECTABLE:YES;
#OFFSET:0.819;
#BPMS:0.000=108.000
,683.000=160.000
,688.000=156.000
,689.000=165.000
,691.000=168.000
,695.000=170.000
,697.000=162.000
,700.000=163.000
,704.000=165.000
,707.000=162.000
,713.000=164.000
,724.000=170.000
,728.000=160.000
,728.500=125.000
,729.000=108.000
;
#STOPS:360.000=6.111
,557.000=0.556
,729.000=0.556
,808.000=6.667
;
#DISPLAYBPM:108.000;
#BGCHANGES:;
#FGCHANGES:;

//--------------- dance-single - 8Chasey ----------------
#NOTES:
     dance-single:
     8Chasey:
     Beginner:
     2:
     0,0,0,0,0:
0000
0000
0000
0000
,
0000
0000
0000
0000
,
0000
0000
0000
0000
,
0000
0000
0000
0000
,
0000
0000
0000
0000
,
0000
0000
0000
0000
,
0000
0000
0000
0000
,
0000
0000
0000
0000
,
0000
0000
0000
0000
,
0000
0000
0000
0000
,
0001
0000
1001
0000
,
1000
0000
0010
0000
,
0100
0000
0100
0000
,
0010
0010
0010
0000
,
0010
0000
1000
0000
,
0001
0000
0001
0000
,
0010
0000
0001
0000
,
1000
0000
1000
0000
,
0100
0000
0010
0000
,
0100
0000
0000
0000
,
0010
0000
0100
0000
,
0010
0000
0000
0000
,
1000
0000
1000
0000
,
0001
0000
0000
0000
,
0001
0000
0001
0000
,
1000
0000
0000
0000
,
0010
0000
1000
0000
,
0010
0000
0000
0000
,
0100
0000
0001
0000
,
0100
0000
0000
0000
,
0001
0000
0001
0000
,
1000
0000
1000
0000
,
0001
0000
1001
0000
,
1000
0000
0010
0000
,
0100
0000
0100
0000
,
0010
0000
0010
0000
,
0100
0100
0100
0100
,
0100
0000
1001
0000
,
0100
0000
0000
0000
,
0010
0000
0110
0000
,
0110
0000
0010
0000
,
0100
0000
1001
0000
,
0001
0000
0001
0000
,
1000
0000
1000
0000
,
0001
0000
1000
0000
,
0010
0010
0010
0000
,
0100
0000
0001
0000
,
1000
0000
0100
0000
,
0010
0000
0010
0010
,
0000
0100
0100
0000
,
0001
0000
0001
0000
,
1000
0000
1000
0000
,
0001
0000
1000
0000
,
0010
0010
0010
0000
,
0100
0000
0000
0000
,
0001
0000
1000
0000
,
1001
0000
0110
0000
,
1001
0000
0110
0000
,
0100
0000
0010
0000
,
1000
0000
0001
0000
,
0010
0000
0010
0000
,
0001
0000
1000
0000
,
0100
0000
0000
0000
,
0100
0000
0010
0000
,
0010
0000
0000
0000
,
0100
0000
1001
0000
,
1000
0000
0100
0000
,
0001
0000
0100
0000
,
0010
0000
0000
0000
,
0110
0000
0100
0000
,
0100
0000
0000
0000
,
0010
0000
0000
0000
,
0100
0100
0100
0000
,
0100
0100
0100
0000
,
1001
0000
0001
0000
,
0001
0000
1000
0000
,
1001
0000
1000
0000
,
1000
0000
0001
0000
,
0110
0000
0010
0000
,
0010
0000
0100
0000
,
0110
0000
0100
0000
,
0100
0000
0010
0000
,
1000
1000
1000
0000
,
1000
1000
1000
0000
,
1000
0000
0001
0000
,
1000
1000
1000
0000
,
0001
0001
0001
0000
,
0001
0001
0001
0000
,
0001
0000
1000
0000
,
0001
0001
0001
0000
,
0000
0000
0000
0000
,
0000
0001
0000
1000
,
0000
0001
0000
1000
,
0000
0010
0000
0100
,
0000
0010
0010
0010
,
0000
1000
0000
1000
,
0000
0001
0000
0001
,
0000
0010
0000
0100
,
0000
0010
0000
0100
,
0000
0001
0000
0000
,
0000
1000
0000
0000
,
0000
0100
0000
0100
,
0000
0010
0010
0010
,
0000
1000
0000
0000
,
0000
0001
0000
0000
,
0000
0010
0000
0010
,
0000
0100
0100
0100
,
0000
1001
0000
0000
,
0000
0001
0000
1000
,
0000
0010
0000
0000
,
0000
1000
0000
0001
,
0000
0100
0000
0100
,
0000
0010
0000
0010
,
0000
1000
0000
1001
,
0000
0001
0000
0110
,
0000
0100
0000
0000
,
0001
0001
0000
0000
,
1000
1000
0000
0000
,
0010
0010
0000
0100
,
0000
0100
0000
0001
,
0000
0100
0000
1000
,
0000
0100
0000
0100
,
0000
0010
0010
0010
,
0000
0010
0000
0000
,
0000
0010
0000
0100
,
0000
0001
0000
0000
,
0000
0100
0000
0010
,
0000
1000
0000
0000
,
0000
0001
0000
1000
,
0000
0010
0000
0000
,
0000
0100
0000
0100
,
0000
1001
0000
0000
,
0000
1001
0000
0000
,
0000
1001
0000
0000
,
0000
0110
0000
0000
,
0000
0001
0000
0001
,
0000
1000
0000
0001
,
0000
1000
0000
1000
,
0000
0001
0000
1000
,
0000
0010
0000
0000
,
0010
0000
0010
0000
,
0100
0000
0000
0000
,
0100
0000
0100
0000
,
0001
0000
0000
0000
,
1000
0000
0000
0000
,
0001
0000
1000
0000
,
0010
0010
0010
0000
,
0100
0000
0000
0000
,
0100
0000
0001
0000
,
1000
0000
0000
0000
,
0010
0000
0010
0000
,
0010
0000
0000
0000
,
0001
0000
1000
0000
,
0001
0000
0000
0000
,
1000
0000
0001
0000
,
1000
0000
0010
0010
,
0010
0000
0100
0000
,
0010
0000
0100
0100
,
0100
0000
0010
0000
,
0100
0000
0001
0000
,
1000
0000
0001
0000
,
1000
0000
0000
0000
,
0010
0000
0100
0100
,
0100
0000
0000
0001
,
0001
0000
0000
1000
,
1000
0000
0100
0000
,
0010
0010
0010
0010
,
0010
0000
0000
0100
,
0100
0000
0001
0000
,
1000
0000
0000
0000
,
0010
0000
0110
0000
,
0000
0100
0000
0100
,
0000
0010
0000
0010
,
0000
0100
0000
0000
,
0000
1001
0000
0000
,
0000
0010
0000
0010
,
0000
0100
0000
0100
,
0000
0010
0000
0000
,
0000
0110
0000
0000
,
0000
0001
0000
1000
,
0000
0001
0000
1000
,
0000
1001
0000
0000
,
0000
0100
0000
0000
,
0100
0000
0000
0000
,
0100
0000
0000
0000
,
0100
0000
0000
0000
,
0000
0000
0001
0000
,
0000
0000
1000
0000
,
0000
0000
0010
0000
,
0010
0000
0100
0000
,
0000
0000
0001
0000
,
1000
0000
0001
0000
,
0000
0000
1000
0000
,
0001
0000
1000
0000
,
0000
0000
1001
0000
,
0000
0100
0100
0000
,
0100
0000
0000
0000
,
0010
0010
0010
0000
,
0010
0000
0001
0000
,
1000
0000
0100
0000
,
0010
0000
0100
0000
,
0010
0000
0110
0000
,
0000
0000
0000
0000
,
0001
0001
0001
0000
,
0001
0000
0000
0000
,
1000
1000
1000
0000
,
1000
0000
0000
0000
,
0100
0000
0000
0000
,
0100
0000
0010
0000
,
0010
0000
0000
0000
,
0010
0000
0010
0000
,
0010
0000
0001
0000
,
0010
0000
1000
0000
,
0100
0000
0100
0000
,
0010
0000
0100
0000
,
0010
0000
0000
0000
,
1000
0000
1001
0000
,
0001
0000
0000
0000
,
0100
0100
0100
0000
,
0100
0000
0001
0000
,
1000
0000
0100
0000
,
0010
0000
0000
0000
,
0001
0000
1000
0000
,
1001
0000
0000
0000
,
1000
0000
1000
0000
,
0001
0000
0001
0000
,
0100
0000
0010
0000
,
0100
0000
0000
0000
,
0001
0000
1000
0000
,
0001
0000
0000
0000
,
1000
0000
0001
0000
,
1000
0000
0000
0000
,
0010
0000
0000
0000
,
0100
0000
0100
0100
,
0100
0000
0001
0000
,
1000
0000
0000
0000
,
0100
0000
0000
0000
,
0010
0000
0000
0000
,
0001
0000
0000
0000
,
0100
0000
0001
0000
,
0000
0000
0001
0000
,
1001
0000
1000
0000
,
0000
0000
1000
0000
,
0010
0000
0000
0100
,
0100
0000
0100
0000
,
0100
0000
0001
0000
,
1000
0000
0010
0000
,
0100
0000
0100
0000
,
0010
0000
0010
0000
,
0100
0000
0000
0000
,
0001
0000
1000
0000
,
0010
0000
0000
0000
,
0010
0000
0100
0000
,
0100
0000
0000
0000
,
0001
0000
1000
0000
,
0001
0000
0000
0000
,
0001
0000
0000
0000
,
1000
0000
0000
0000
,
1000
0000
0000
0000
,
0000
0000
0100
0000
,
0000
0000
0100
0000
,
0000
0000
0100
0000
,
0000
0000
0100
0000
,
0000
0000
0100
0000
,
0000
0000
0100
0000
,
0000
0000
0010
0000
,
0100
0000
0010
0000
,
0000
1000
1000
0000
,
0000
0001
0001
0000
,
0100
0000
0010
0000
,
0000
0010
0010
0000
,
1001
0000
0000
0000
,
0001
0000
1000
0000
,
0001
0000
0000
0000
,
1000
0000
0001
0000
,
1000
0000
0000
0000
,
0001
0000
0001
0000
,
0001
0000
0000
0000
,
1000
0000
1000
0000
,
1001
0000
0010
0000
,
0100
0000
0100
0000
,
0010
0000
1000
1000
,
0000
0000
0001
0001
,
0000
0000
1000
0000
,
1000
0000
0001
0000
,
0001
0000
1000
0000
,
0001
0000
0100
0000
,
1001
0000
0000
0000
;

//--------------- dance-single - 8Chasey ----------------
#NOTES:
     dance-single:
     8Chasey:
     Easy:
     4:
     0,0,0,0,0:
0000
0000
0000
0000
,
0000
0000
0000
0000
,
0000
0000
0000
0000
,
0000
0000
0000
0000
,
0000
0000
0000
0000
,
0000
0000
0000
0000
,
0000
0000
0000
0000
,
0000
0000
0000
0000
,
0000
0000
0000
0000
,
0000
0000
0000
0000
,
0001
0000
1001
0000
,
1000
0001
2000
3000
,
0100
0000
1001
0000
,
0010
0100
0010
0000
,
0010
0000
0001
0100
,
0001
0100
0001
0000
,
0010
0000
1000
0100
,
1000
0100
1000
0000
,
0002
1003
1001
0000
,
2000
0000
3100
1000
,
2000
3001
1001
0000
,
0002
0000
0103
0001
,
0020
0030
0010
0001
,
2000
3000
0001
1000
,
0020
0030
0010
1000
,
0002
0003
1000
0001
,
0200
0000
0301
0000
,
1000
0001
1000
1000
,
0200
0000
1300
0000
,
0001
1000
0001
0001
,
1001
0000
1000
0010
,
1000
0000
0001
0100
,
1001
0000
0001
0010
,
0001
0000
1000
0100
,
0110
0000
0100
0000
,
0200
0000
0310
0001
,
1000
0100
0100
0010
,
2002
3003
0001
1000
,
2002
3003
0001
1000
,
0002
0003
1000
2000
,
3010
0000
1000
0001
,
0100
0000
1001
0110
,
0002
0000
0013
0001
,
2000
0000
3100
1000
,
0002
0013
0001
0000
,
2000
3010
1000
0000
,
1000
1000
0001
0001
,
1000
0001
0200
0300
,
1001
0000
0001
1000
,
0000
0010
0020
0000
,
0130
0000
0100
0001
,
0100
0000
0010
1000
,
0010
0000
0010
0000
,
1000
0001
1000
0001
,
0010
0000
0001
0001
,
1000
0100
2000
3000
,
0010
0100
0010
0100
,
0010
0100
0110
0110
,
2000
0000
3010
0000
,
1000
1000
0001
1000
,
0002
0000
0013
0000
,
0001
0001
1000
0001
,
0100
0000
0001
0001
,
0010
0000
1000
1000
,
0010
0100
0100
0000
,
0001
1000
1001
0000
,
1000
1000
0010
1000
,
0001
0001
0100
0001
,
1001
0000
1000
0000
,
0001
0010
0020
0000
,
0130
0000
0100
0000
,
0100
0010
0001
0000
,
0100
0000
0100
0000
,
0100
0010
1000
1001
,
0002
0000
0010
0013
,
0002
0000
1000
1003
,
0002
0000
0100
0103
,
0200
0000
0310
1001
,
2000
0000
0010
3010
,
2000
0000
0001
3001
,
2000
0000
0100
3100
,
0020
0000
0130
1001
,
0001
0001
0001
0000
,
1000
1000
1000
0000
,
0001
0001
0001
0000
,
1000
1000
1000
0000
,
0001
1000
0001
0000
,
1000
0001
1000
0000
,
0001
1000
1001
0000
,
1100
0101
2002
0000
,
0000
0000
0000
3003
,
0000
1001
0000
0001
,
0001
1001
0000
1000
,
1000
0010
0010
0100
,
0100
0010
0100
0020
,
0030
1000
0000
1000
,
0100
0001
0100
0002
,
0000
0013
0001
1000
,
0100
0020
0000
0200
,
0330
0002
0003
0100
,
0001
2000
3000
0100
,
1000
0020
0030
0010
,
0100
0200
0300
0001
,
1000
1001
0000
0001
,
0010
0001
1000
0010
,
1000
0200
0000
1300
,
0000
1000
0001
0200
,
0000
0310
0000
0010
,
0000
0010
0010
0200
,
0000
0310
0000
1000
,
0001
0100
0000
0200
,
0000
0301
1000
0001
,
0000
1000
0001
1000
,
0000
0001
1000
0001
,
0001
1000
0001
1000
,
1001
2000
0000
3010
,
0000
1000
0001
0002
,
0000
0013
0001
1000
,
0000
0010
0000
0110
,
0000
1000
1000
0001
,
0000
1000
0001
1000
,
0000
0001
0001
1000
,
0000
0001
1000
0001
,
0000
0000
0100
1000
,
0010
0000
0100
0001
,
0010
0000
0001
0001
,
1000
0001
1000
1000
,
0001
1000
0000
0010
,
1000
0001
0000
0010
,
0001
1000
0000
0200
,
0000
1300
0001
0100
,
0000
2002
3003
0001
,
1000
2002
3003
1000
,
0001
1001
0010
0010
,
0100
0100
0010
0200
,
0000
1300
1000
0010
,
1000
0001
0001
0010
,
0001
0200
0000
0010
,
0000
0301
1000
0010
,
0100
0020
0130
0000
,
1000
0001
0020
0030
,
0001
0001
2000
3010
,
0100
0100
0002
1003
,
0001
0100
0001
0000
,
1000
0100
1000
0000
,
0020
0030
1001
0000
,
0001
1000
1001
0000
,
2000
0000
3001
0000
,
0002
0000
1003
0010
,
0010
0000
0100
0100
,
0001
1000
0020
0030
,
0020
0000
0130
0001
,
1000
0000
0100
1000
,
0001
0000
0010
0000
,
0100
0000
0010
0100
,
0010
0000
0001
1000
,
0001
0000
1000
0001
,
1000
0000
0001
0001
,
0002
0000
1003
1000
,
2000
0000
3010
0010
,
0100
0100
0001
1000
,
0001
0000
0010
0001
,
1000
0000
0100
0100
,
1001
0000
1000
0010
,
1000
0000
0001
1000
,
0001
0000
0001
0000
,
1000
0001
1000
0010
,
0020
0000
1030
0001
,
0100
0000
0200
0000
,
0301
1000
1001
0000
,
0020
0000
0230
0300
,
0001
1000
0001
0000
,
1000
1000
0100
0000
,
1000
0001
1000
0000
,
0001
0001
0100
0000
,
0000
1001
0000
1000
,
0000
0001
1000
0010
,
0000
1000
0001
0010
,
0000
0001
0000
0100
,
0010
0110
0000
0100
,
0000
0001
0010
0001
,
0000
1000
0010
1000
,
1001
0100
0010
0000
,
0010
0000
0010
0000
,
0020
0000
0000
0000
,
0100
0000
0100
0130
,
0002
0003
0001
0000
,
0001
1000
0001
0000
,
2000
3000
1000
0000
,
1000
0001
1000
0000
,
0100
0000
0100
1000
,
0001
0000
0010
0000
,
0100
0000
1001
0000
,
0001
0001
1000
1000
,
0001
0000
0010
0000
,
0000
1000
0001
0000
,
2000
0000
3100
0000
,
1000
0001
1000
0001
,
1000
0000
1001
0000
,
0000
0010
0010
0100
,
0020
0000
0031
0000
,
1000
1000
0020
0000
,
0000
0000
0030
0000
,
1000
1000
0002
0003
,
0001
0001
2000
3000
,
0001
1000
0001
0000
,
1000
0001
1000
0100
,
0100
0000
1000
0000
,
1000
0000
1001
0000
,
0100
0000
0001
0000
,
0001
0000
1000
0001
,
1000
0000
1000
1000
,
0000
0001
0010
0001
,
0000
0100
0100
0100
,
0000
0010
0010
0100
,
0010
0000
1001
0000
,
1000
0000
0001
0100
,
0100
0000
0200
0000
,
0310
1000
0001
0010
,
1001
0000
0001
0001
,
1000
1000
0100
0010
,
0200
0300
1000
0000
,
0001
0000
1000
0001
,
1001
0000
2000
0000
,
3010
0000
0002
0000
,
0103
0000
0100
0100
,
0001
1000
0200
0300
,
0000
1000
1000
0010
,
0000
0001
0001
0100
,
0000
0001
1001
0000
,
1000
0000
0100
0100
,
0000
1000
0010
0000
,
0000
1000
0001
1000
,
0000
0001
0010
0000
,
0000
0001
1000
0001
,
0100
0000
0100
0000
,
0000
0001
1000
0001
,
1000
0100
0000
0100
,
0000
1000
0001
1000
,
0001
0000
0010
0000
,
0100
1000
0001
0000
,
0220
0330
0100
0000
,
0001
1000
0001
1000
,
0002
0000
1003
0000
,
1000
0010
1000
0010
,
2000
0000
3100
0000
,
1000
0001
1000
0001
,
0100
0000
1001
0000
,
0001
0000
1000
0000
,
0001
0010
0001
0000
,
1000
0010
1000
0000
,
0100
0000
0100
0000
,
0010
0001
1000
0000
,
1001
0000
0001
0000
,
1000
0000
1000
0001
,
0100
0000
0100
0100
,
0001
0000
0100
0100
,
1000
0000
0100
0100
,
0010
1000
0001
0010
,
0000
0000
1001
0000
,
0000
0000
0110
0000
,
0000
0000
1001
0000
,
0000
0000
0110
0000
,
0000
0000
1001
0000
,
0000
0000
0110
0000
,
0000
0100
0100
0000
,
0001
1000
0100
0000
,
0010
0000
1001
0000
,
1000
0010
1000
0000
,
0001
0010
0001
0000
,
0100
0000
0100
0100
,
0010
2000
3001
0000
,
0010
2000
3100
0000
,
0010
0002
1003
0000
,
0010
0002
0103
0010
,
0010
0000
1000
0100
,
1000
0000
0001
0100
,
0001
0000
1000
1000
,
0001
0001
1000
0001
,
1001
0000
0010
1000
,
0001
0000
0010
0001
,
1000
0000
0100
0100
,
0000
0010
0100
0100
,
0000
1000
0001
1000
,
0001
0000
0100
0000
,
1001
0000
0010
0000
,
1000
0001
0100
0010
,
2002
0000
0000
0000
,
0000
0000
0000
0000
,
0000
0000
0000
0000
,
3003
0000
0000
0000
;

//--------------- dance-single - 8Chasey ----------------
#NOTES:
     dance-single:
     8Chasey:
     Medium:
     6:
     0,0,0,0,0:
0000
0000
0000
0000
,
0000
0000
0000
0000
,
0000
0000
0000
0000
,
0000
0000
0000
0000
,
0000
0000
0000
0000
,
0000
0000
0000
0000
,
0000
0000
0000
0000
,
0000
0000
0000
0000
,
0000
0000
0000
0000
,
0000
0000
0000
0000
,
0001
1000
1001
0010
,
1000
0000
0001
1000
0002
0000
0003
0000
,
0100
0001
1001
1000
,
0010
1000
0001
0000
0020
0000
0000
0130
,
0010
0000
0100
0000
0010
0001
0010
0000
,
0100
1000
0100
0000
1000
0000
0001
0000
,
1001
0000
1000
1000
,
0001
0000
0001
0000
1000
0001
0100
0000
,
0002
0003
0010
0001
,
2000
3000
0010
0100
,
2002
0000
3003
0000
0001
1000
0001
0000
,
2002
3003
1000
0001
,
2000
0000
3010
1000
0010
0000
1000
0000
,
0002
0000
0013
0001
0010
0000
0001
0000
,
0200
0301
1000
0100
,
0010
0000
0001
1000
0100
0000
0100
0000
,
2020
0000
3030
0000
1000
0100
0010
0000
,
0022
0033
0200
0310
,
1000
0000
0010
1000
0100
0000
1000
0000
,
0001
0000
0010
0001
0100
0000
0010
0000
,
0200
0000
0301
1000
0100
0000
1000
0000
,
0020
0000
1030
0001
1000
0000
0100
0000
,
0102
0000
0013
0000
0001
1000
1000
0000
,
2100
0000
3010
0000
1000
0001
0010
0000
,
0001
0100
0001
0000
0010
0000
0001
0000
,
1000
0100
1000
0000
0020
0000
1030
0000
,
1001
0000
0200
0000
0301
1000
0100
0010
,
0220
0000
0330
0010
0001
1000
0010
0000
,
2002
0000
3003
1000
0000
1001
0000
0001
,
0200
0000
0300
0001
1000
1000
0002
0000
,
2003
0000
3001
0000
0100
0100
0010
0000
,
1100
0000
0010
0001
0100
0000
0101
0000
,
2001
3100
1000
0010
,
1002
0103
0001
0020
,
0130
1000
0100
0000
1000
0000
0001
0000
,
0010
0001
0100
0000
0001
0000
1000
0000
,
0010
1010
0011
1001
,
0100
0001
1000
0000
0200
0000
0310
0000
,
0100
0000
1000
0000
0001
1000
0001
1000
,
0000
0001
1000
0000
0200
0000
1300
0000
,
0010
0000
0100
0010
0000
1000
0001
0000
,
1000
0100
1002
0013
,
0001
0001
1000
0000
1000
0010
1000
0000
,
0001
0000
1000
0000
0002
0010
0013
0000
,
0100
0000
0001
1000
0100
0000
0010
0000
,
0100
0010
0100
0000
1000
0000
0001
0000
,
1100
0101
1010
0011
,
0110
0000
1001
0000
1000
0001
0100
0000
,
0002
0000
0013
0000
0001
1000
0001
0000
,
2000
3100
1000
0010
,
0100
0001
1000
0000
0001
0000
0010
0000
,
0100
0000
0100
0000
1000
0010
1000
0000
,
0002
0000
1003
0000
0100
0000
1000
0001
,
2000
3100
0010
0110
,
0010
0000
0001
0010
0001
0000
1000
0010
,
0000
1010
0000
1000
0001
0000
0100
0000
,
0001
1000
0001
0000
2000
0000
3100
0000
,
0010
0000
0100
0010
0002
0000
1003
0000
,
0010
0000
0100
0000
0100
0001
1000
1000
,
0100
0000
1000
0001
0010
0000
1001
0000
,
0200
0000
0301
0000
0001
1000
0001
0000
,
1000
0010
1000
1001
,
0110
0000
1001
0000
0120
0000
0130
0100
,
0001
0000
1000
0000
0200
0000
0020
0330
,
0110
0000
0001
0010
0001
0000
1000
0000
,
0110
0000
1000
0010
1000
0000
0001
0000
,
1001
0000
0100
0001
0010
0000
0100
0000
,
1001
0000
0100
1000
0010
0000
0100
0000
,
0102
0000
1000
0000
0013
0100
0010
0100
,
2100
0000
0001
0000
3010
0100
0010
0100
,
0002
0000
1003
0000
0100
1000
0020
0030
,
2000
0000
3001
0000
0100
0001
0020
0030
,
1001
0000
0001
0001
0010
0000
0001
0000
,
1001
0000
1000
1000
0010
0000
1000
0000
,
1100
0010
0001
0100
,
0101
0010
1000
0100
,
1000
0010
1000
0000
0001
0100
0010
0000
,
1000
0000
0100
1000
0001
0000
0100
0000
,
0001
0010
0001
0000
1000
0100
0010
0000
,
1000
0000
0001
0000
0100
0000
0000
0000
0020
0000
0000
0200
0000
0000
0000
0000
,
0000
0000
0000
0330
,
0000
0001
1000
0000
0200
0000
1300
0001
,
0100
0000
0002
0000
1003
0000
0100
1000
,
0010
0000
0100
0001
0020
0030
0001
1000
,
0200
0300
1000
0000
0001
0000
2002
0000
,
3003
0000
0100
0000
0001
0000
2002
3003
,
0000
0000
1000
0000
0010
0000
1000
0200
,
0000
0300
1000
0001
1000
0001
0100
0000
,
0001
0011
1010
1001
,
2000
0000
3200
0000
1300
0000
0001
1000
,
0001
0000
0200
0000
0301
0000
1000
0001
,
1000
0020
1030
0001
,
0010
0000
0200
0000
1300
0001
0100
0000
,
1001
0000
2000
0000
3010
0010
1000
0000
,
0001
0100
0002
0000
0013
0010
0001
0000
,
1000
0000
0200
0000
0310
0000
0001
0100
,
0001
0000
1000
0100
1000
0000
0010
0000
,
1001
0000
0002
0000
2003
0000
3100
0100
,
0000
0010
0010
0000
0100
0000
1100
0000
,
0101
0000
1000
0001
1000
0000
0001
0000
,
0100
0001
0010
0000
0001
0000
2000
0000
,
3002
0000
0103
0000
0010
0000
1000
0100
,
1000
0000
0100
0000
0010
0000
0001
0100
,
0001
0000
1000
0010
1000
0000
0001
0010
,
0011
0000
1100
0000
0001
1000
0110
0000
,
1001
0001
0100
0001
,
1000
0001
1000
0000
0100
0000
2000
0000
,
3002
0103
0010
1000
,
0100
0000
1000
0001
0100
0000
0020
0000
,
0230
0000
0301
0001
1000
0000
0001
0000
,
1000
0100
1000
0010
,
0110
0100
0001
1000
,
0100
0000
1001
0000
1000
0001
1000
0000
,
0001
0000
0000
0100
0001
0000
1000
0000
,
0100
0000
0010
0000
0100
0000
0010
0001
,
1000
0010
0000
0100
0010
0000
0100
0000
,
0001
1000
0000
0001
0000
1000
1000
0000
,
1001
0000
0100
0001
0010
0000
0001
0000
,
1000
0000
0100
1000
0010
0000
0220
0000
,
0330
0000
0200
0000
0301
0000
1000
0001
,
0010
0200
1300
0001
,
1000
0000
2002
0000
3003
0000
0001
0010
,
0001
0000
2002
0000
3003
0000
1000
0100
,
1000
0000
1001
0000
0010
0000
0100
0010
,
0100
1001
0100
0020
,
0030
0000
1000
0100
1000
0000
0001
0100
,
0001
0000
1000
0000
0100
0000
0020
0100
,
0100
0130
1000
0001
,
0100
0000
0001
0010
0001
0000
1000
0100
,
1000
0000
0020
0030
0110
0000
0000
0000
,
0001
1000
0001
1000
0020
0000
0030
0000
,
1000
0100
1000
0000
0002
0000
0013
0000
,
0001
1000
0100
0000
2000
0000
3010
0000
,
0100
0000
0001
0000
1000
0001
0000
0010
,
0100
0000
1000
0001
1000
0000
0000
0000
,
1001
0000
0001
0000
1000
0002
0000
1003
,
0100
1000
0010
0000
0200
0000
0301
0000
,
1000
0000
0100
0000
1000
0001
0000
0000
,
0010
0001
0100
0000
0001
0000
1000
0000
,
1001
0000
0001
0000
0010
0001
0010
0000
,
0001
0100
1000
0000
0100
0000
0010
0000
,
0220
0000
0030
0000
0301
1000
0100
0000
,
0020
0000
0230
0000
1300
0001
0010
0000
,
2002
3003
1000
0001
,
0010
0000
0100
0000
0010
0100
0000
1000
,
0001
0000
1000
0200
,
0010
0310
0001
0010
,
0002
1003
0001
0020
,
0100
0130
1000
0010
,
2000
3001
1002
1003
,
0200
0000
0301
0000
1000
0000
0100
0010
,
0200
0300
1000
0001
,
1000
0010
0100
0000
0001
0000
1000
0001
,
0020
0030
0001
1000
,
0001
1000
0000
0100
1000
0000
0010
0000
,
0220
0330
0100
0001
,
1000
0000
0100
0010
0100
0010
0100
0000
,
0020
0000
0130
0000
1000
0001
1000
0000
,
0001
0100
0001
0010
,
2100
3001
0010
0001
,
0102
0000
1003
0000
0200
0000
0300
1000
,
0001
1000
0101
0001
,
0010
0001
1000
0000
0100
0000
1000
0000
,
0001
0000
0010
0000
0100
0000
1000
0010
,
1000
1001
0010
0100
,
1000
0100
1100
0010
,
0001
0000
1000
0001
1000
0000
0001
0010
,
0001
0100
0001
1000
,
0100
0000
0010
0100
0010
0000
0001
1000
,
0010
0101
0001
1000
,
0001
1000
0100
0000
1000
0000
0001
0000
,
0010
0001
1000
0000
0010
0000
0100
0001
,
1000
0000
0100
1000
0001
0000
0100
0000
,
0001
0001
1000
0100
,
2000
0000
0010
3010
,
0002
0100
1000
1003
,
1001
0000
1000
0100
,
1001
0000
0001
0100
,
0020
0030
1000
1000
,
0001
0100
0002
2003
,
3100
0010
0100
1000
,
0001
0100
0010
1001
,
0110
0000
0000
0001
1000
0000
0000
0100
,
0000
1000
0001
0000
0100
0000
0010
0000
,
1001
0000
1000
0000
,
0000
0001
1000
0000
0001
0010
0001
0000
,
0100
0000
0000
0001
0100
0000
0001
0000
,
1000
0000
0001
0000
1000
0010
0100
0000
,
0020
0000
1030
0000
0001
0010
0001
0000
,
0010
0000
0100
0000
0001
0100
1000
0000
,
0001
0000
0010
0000
0001
1000
0010
0000
,
1010
0000
0000
0000
0011
0000
0000
0000
2000
0000
0000
0002
0000
0000
0000
0000
,
0000
3003
1000
0001
,
0010
0000
0101
0000
1100
0000
0000
1000
,
0010
1000
0002
0003
,
0010
0001
0100
0000
0020
0000
0030
0000
,
1000
0001
1000
0100
2000
0000
3000
0000
,
0020
0030
1000
0100
,
1000
0000
0001
0000
0010
0001
0100
0000
,
0110
0000
0100
0000
0010
1000
0010
0000
,
0100
0000
0001
0000
0010
0001
0010
0000
,
1002
0000
2003
3100
,
2001
0000
3002
0103
,
0000
0001
0200
0000
0301
0000
0101
0000
,
0000
1000
0200
0000
1300
0000
1100
0000
,
0020
0031
1000
0100
,
1000
0001
0100
0000
0220
0000
0330
0000
,
0200
0000
0300
0000
0001
1000
0010
0000
,
0200
0000
0310
0000
1000
0001
0010
0000
,
1002
0000
0100
0000
1003
0100
1000
0010
,
2000
0000
0100
0000
3001
0100
0001
0010
,
0200
0000
0300
0000
1000
0000
0010
0100
,
0001
1000
0000
1000
0100
0010
0100
0000
,
1001
0100
0200
0301
,
1000
1000
0100
0000
0010
0000
0001
0000
,
0100
0000
0001
0000
1000
0001
1000
0000
,
0200
2300
3002
0023
,
0130
1000
0101
0001
,
1000
0010
1000
0000
1100
0000
1001
0000
,
0000
0010
0100
0000
0001
0000
1000
0100
,
1000
0010
0200
0310
,
0002
0000
1003
0010
1000
0000
0100
0000
,
0020
0130
1000
0001
,
2000
0000
3100
0000
0010
0001
1000
0000
,
0200
0300
1000
1001
,
0000
0001
0100
0000
0001
0000
0001
0000
,
0000
1000
0100
0000
1000
0000
1000
0000
,
0000
0010
1000
1001
,
0000
0100
0001
0200
,
0300
0010
0010
0100
,
0001
0000
1000
0000
0100
0010
0001
0000
,
2002
3003
1000
0100
,
1000
0010
1000
0000
0001
0000
0100
0000
,
0002
0013
0001
1000
,
0100
0000
0010
0000
1000
0010
0002
0000
,
2003
3100
1000
0001
,
0100
0000
0001
1000
0100
0000
0020
0000
,
0130
1000
0001
0100
,
0010
0010
0200
0300
,
0001
0100
0001
0000
1000
0000
0010
0000
,
1000
0100
1000
0000
0001
0000
0010
0000
,
1001
0001
0001
1000
,
0100
1000
0020
0030
,
1001
1000
1000
0001
,
0100
0000
0001
1000
0200
0000
0300
0000
,
1000
0000
0010
0000
1000
0000
0001
1000
,
0001
0000
0010
0000
0001
0000
1000
0001
,
1000
0100
0010
0100
,
0010
0000
0010
0000
0001
1000
0001
0000
,
2000
0000
3100
1010
,
0002
0000
0103
0011
,
0200
0000
0310
1100
,
0200
0000
0310
0101
,
0020
0000
1030
0100
,
0020
0000
0031
0100
,
0001
1000
2002
3003
,
0100
0000
0001
0000
1000
0000
0010
0100
,
0020
0130
0220
0330
,
1000
0000
0100
0000
0001
0100
0010
0000
,
0011
1000
1010
0100
,
0000
0001
1000
0000
0200
0000
0310
0000
,
0001
0000
0020
0000
0031
1000
0100
0000
,
1000
0000
0020
0000
1030
0001
0100
0000
,
2002
3003
0001
0002
,
1003
0000
2000
0000
3010
0100
0010
0000
,
0200
0000
0302
0000
0013
0001
1000
0000
,
0200
0000
2300
0000
3010
1000
0001
0000
,
0100
0000
0001
0000
1100
0000
1000
0100
,
1000
0001
0000
0010
0001
0100
0001
0000
,
2002
0000
3003
0000
1000
0010
2000
0000
,
3020
0000
0130
0000
0001
0010
0002
0000
,
0023
0000
0130
0000
1000
0010
1000
0100
,
0000
0000
1000
0000
0001
0010
0001
0100
,
0000
0000
0001
0000
1000
0100
1000
0000
,
0010
0000
1001
0000
1000
0001
0100
0000
,
0010
0000
0010
0000
1000
0100
0010
0001
,
0010
0000
0010
0000
0100
1000
0001
0100
,
0000
0020
0000
0000
0000
0000
0200
0000
0000
0000
0000
0000
0000
0000
0000
0000
,
0000
0000
0000
0000
,
0000
0000
0000
0000
,
0330
0000
0000
0000
;

//--------------- dance-single - 8Chasey ----------------
#NOTES:
     dance-single:
     8Chasey:
     Hard:
     8:
     0,0,0,0,0:
0000
0000
0000
0000
,
0000
0000
0000
0000
,
0000
0000
0000
0000
,
0000
0000
0000
0000
,
0000
0000
0000
0000
,
0000
0000
0000
0000
,
0000
0000
0000
0000
,
0000
0000
0000
0000
,
0000
0000
0000
0000
,
0000
0000
0000
0000
,
0001
0000
1000
0000
0010
0000
0000
0000
1001
0000
0000
1000
0000
0000
0001
0000
,
2000
0000
3001
0010
0001
2000
0000
3010
,
1000
0000
0000
0100
0000
0000
1000
0000
0001
0000
0010
0000
0001
0000
0100
0000
,
0010
1000
0100
0010
0001
0200
0000
0310
,
2000
0000
3001
0010
0001
1000
0010
0100
,
0001
0100
1000
0100
0010
1000
0001
0000
,
0021
0000
0000
0000
0130
0000
1000
0000
0001
0000
0000
0001
0000
0000
1000
0000
,
0010
0000
1000
0010
0000
0000
1000
0000
0001
0000
0000
0100
0000
0000
1001
0000
,
2000
0000
0000
0000
3100
0000
1000
0000
0001
0000
0000
0010
0000
0000
0010
0000
,
0001
1000
0100
1000
0010
0000
1000
0000
,
1002
0000
0103
0010
1000
0100
1000
0010
,
1000
1000
0001
0010
0002
0000
0103
0000
,
1020
0100
0130
0001
1000
0100
1000
0000
,
0201
0010
0310
1000
0001
0010
0001
0000
,
2001
0000
0001
0000
3001
0000
0100
0000
0001
0000
0000
0010
0000
0000
0001
0000
,
1002
0000
1000
0000
1003
0000
0100
0000
1000
0000
0000
0010
0000
0000
0100
0000
,
0001
0001
0020
0000
0031
1000
0100
0000
,
1000
0000
0000
0010
0000
0000
1000
0000
0001
0000
0100
0000
1000
0000
0100
0000
,
0020
0000
1030
0100
2000
0100
3001
0010
,
0001
0000
0100
0000
0001
1000
0001
0000
0200
0000
0000
0000
0310
0000
0000
0000
,
0102
0000
0000
0000
1003
0000
0100
0000
1000
0000
1000
0010
0000
0000
0000
0000
,
2100
0000
0000
0000
3001
0000
0100
0000
0001
0000
0001
0010
0000
0000
0000
0000
,
0021
0000
0000
0000
0130
0000
1000
0000
0010
0000
1000
0001
0000
0000
0000
0000
,
1020
0000
0000
0000
0130
0000
0001
0000
0010
0000
0001
1000
0000
0000
0000
0000
,
1100
0000
1010
0020
0130
0001
0010
0001
,
0100
0000
0000
0001
0100
0000
0001
0000
2000
0000
0000
3010
0000
0000
1000
0010
,
1000
0000
0000
0000
1002
0000
0000
0000
0013
0000
0010
0000
0001
0100
0001
0000
,
1000
0000
0000
0010
0000
0000
0000
0000
0000
0000
0000
0000
1000
0000
0000
0000
0001
0000
0000
0000
0010
0000
0000
0000
0001
0000
0000
0000
0100
0000
0000
0000
0010
0000
0000
0000
2000
0000
0000
0000
0000
0000
0000
0000
0000
3001
0000
0000
,
0100
0000
0000
0000
0001
0000
0100
0000
0000
0000
1010
0000
0000
0000
1000
0001
,
1000
0000
0000
0001
0000
0000
0000
0000
0000
0000
0000
0000
0000
0000
0000
0000
0000
0000
0010
0000
0000
0000
0000
0000
0001
0000
0000
0000
0010
0000
0000
0000
0100
0000
0000
0000
1000
0000
0000
0000
0000
0000
0010
0000
0000
0000
0000
0000
,
0110
0000
0100
0001
0100
0010
1000
0001
,
2000
0000
0000
0000
0000
0000
3001
0000
0000
0010
0000
0000
0001
0000
0010
0000
0100
0000
1000
0000
0000
0010
0000
0000
,
0200
0000
0301
0010
0001
0001
1001
0000
,
1000
0001
0010
0001
0100
0001
0002
0000
,
0013
0001
1000
0100
2000
0000
3002
0000
,
0103
0000
0001
0000
0001
0000
1000
0000
0010
1000
0010
0000
1000
0000
0000
0000
,
0100
0000
0100
0000
1000
0000
0001
0000
0100
0001
0000
0100
0000
0000
0001
0000
,
0010
0000
0000
0001
0100
0000
0001
0000
1000
0000
0100
0000
1000
0000
0020
0000
,
1030
0000
0000
0000
0100
0000
0000
0000
1000
0001
1000
0000
0001
0000
0001
0000
,
0020
0001
0031
1000
0200
0000
1300
0000
,
1000
0000
0010
0000
1000
0000
0001
0000
0000
0010
0001
0010
0001
0000
0000
0000
,
0100
0000
0001
0000
1000
0000
0010
2000
0000
0000
0001
0000
3001
0000
0000
0000
,
0101
0000
0001
0000
1000
0001
1000
0000
0001
1000
0001
0000
1000
0000
0001
0000
,
1000
0020
0000
1030
0001
0100
0001
0001
,
0020
0000
0130
1000
0010
1000
0100
1000
,
0001
0000
0010
0000
0001
0000
1000
0000
0200
0000
0000
0000
0300
1000
0010
1000
,
0000
0001
0010
0001
0000
1000
0100
1000
0000
0001
0100
0001
0000
1000
0001
1000
,
0000
0010
0100
0010
0000
0000
0100
0000
0001
0000
0010
0000
0100
0000
1000
0000
,
0020
0000
1030
0000
0001
0100
0001
0010
,
0001
0000
1001
0000
1000
0001
0001
0000
,
1000
0000
0100
0000
0010
0000
0010
0000
0002
0000
0000
0100
0000
0000
1003
0000
,
0100
0000
0010
0000
0001
0000
0001
0000
2000
0000
0000
0100
3000
0000
1000
0000
,
0010
0000
1000
0010
0100
0100
0001
0100
,
0002
0000
0013
0001
1000
0100
2000
0000
,
3010
0000
0110
0000
0100
0001
0010
0001
,
0000
0000
1100
0000
0000
0000
0100
1000
0100
0000
1000
0000
0010
0000
1000
0000
,
0001
0000
0001
0000
0200
0000
0000
0302
0000
0000
1003
0000
0100
0000
0010
0000
,
0100
0000
1000
0100
0000
1000
0100
0000
0010
0000
0001
0000
0100
0000
0010
0000
,
2000
0000
0001
0000
3001
0000
0010
0000
0001
0000
0000
0100
0000
0000
0001
0000
,
0102
0000
0000
0003
0100
0001
0100
0000
0001
0000
1000
0000
0010
0000
1000
0000
,
0200
1000
1300
0010
1000
0001
0010
0100
,
0020
0000
0001
0000
0031
0000
1000
0000
0010
0000
0100
0000
0010
0000
1000
0010
,
0000
0000
0001
0010
0000
0000
0100
0020
0000
0000
0130
0000
0010
0000
0010
0000
,
1001
0000
1000
0000
0100
0000
0001
0000
0100
0000
0010
0100
0010
0000
0001
0000
,
0102
0000
0010
0000
0013
0000
0001
0000
2000
0000
0000
0010
0000
0000
3100
0000
,
2100
0000
0010
0000
3010
0000
1000
0000
0002
0000
0000
0010
0000
0000
0103
0000
,
0120
0000
1000
0000
1030
0000
0100
0000
2000
0000
0000
0001
0000
0000
3010
0000
,
0210
0001
0301
0010
0002
1000
1000
0103
,
0110
0000
0000
0000
0000
0000
1000
0000
0000
0000
0000
0000
0100
0000
0000
0000
1000
0000
0000
0000
0100
0000
0000
0000
0010
0000
0000
0000
0000
0000
0000
0000
0000
0001
0000
0000
0000
0000
0000
0000
0000
0000
0100
0000
0000
0000
0000
0000
,
0010
0000
0000
0000
0000
0000
0010
0000
0000
0000
0000
0000
0100
0000
0000
0000
0001
0000
0000
0000
0100
0000
0000
0000
0010
0000
0000
0000
0000
0000
0000
0000
0000
1000
0000
0000
0000
0000
0000
0000
0000
0000
0100
0000
0000
0000
0000
0000
,
2000
0000
0010
0000
0010
0000
0001
0000
3002
0000
0000
0203
0000
0000
0300
0000
,
0002
0000
0010
0000
0010
0000
1000
0000
2003
0000
0000
3200
0000
0000
0300
0000
,
1010
0000
1000
0000
0001
0000
0010
0000
0011
0000
0000
2002
0000
0000
3003
0000
,
0011
0000
0001
0000
1000
0000
0010
0000
1010
0000
0000
2002
0000
0000
3003
0000
,
1100
0000
1000
0000
0010
0000
0100
0000
0101
0000
0000
0220
0000
0000
0330
0000
,
0101
0000
0001
0000
0010
0000
0100
0000
1100
0000
0000
0220
0000
0000
0330
0000
,
1000
0000
0100
0000
1000
0000
0001
0000
0010
0000
0000
0022
0000
0000
0033
0000
,
0001
0000
0100
0000
0001
0000
1000
0000
0010
0000
0000
2020
0000
0000
3030
0000
,
1000
0100
1000
0001
0100
0010
0100
0001
,
0010
0000
0000
0000
0000
0000
0001
0000
0000
0000
0000
0000
1000
0000
0000
0000
0001
0000
0000
0000
1000
0000
0000
0000
0200
0000
0000
0000
0000
0000
0000
0000
0000
0020
0000
0000
0000
0000
0000
0000
0000
0000
0000
0000
0000
0000
0000
0000
,
0000
0000
0000
0330
,
0000
0100
1001
0000
1000
0000
0010
1000
,
0001
0000
0010
0000
0200
0000
0000
0000
0310
0000
0000
0000
0001
0000
0000
1000
,
0000
0001
1000
0100
0020
0000
0031
0010
,
0200
0000
1300
0001
0001
0010
0100
2000
,
0002
0000
3000
0000
1003
0000
0000
0100
0000
0000
1000
0000
0010
0000
0020
0000
,
0000
0000
1030
0000
0001
0000
0000
0010
0000
0000
0001
0000
0100
0000
0200
0000
,
0000
0300
0001
0000
1000
0000
0100
0010
,
0010
0000
0100
0000
2000
0000
0000
3010
1000
0000
1000
0000
0002
0000
0000
0000
,
0013
0000
0100
1000
0001
0001
0100
0010
,
2000
0000
3100
1000
0100
1000
0010
0100
,
0002
0000
0000
0000
0013
0000
0000
0000
1001
0000
0000
0000
1000
0000
0000
0001
,
0100
0000
0200
0000
0010
0000
0301
0000
0010
0000
0100
0000
1000
0010
1000
0000
,
0200
0300
1002
1000
0103
0010
1000
0100
,
0020
0000
2030
0100
3100
1000
0001
0100
,
0020
0000
0000
0000
0130
0000
0001
0000
0010
0000
0000
0000
0100
0000
0000
1000
,
0000
0000
0001
0000
1000
0000
0010
0000
1000
0000
0000
0000
0020
0000
0000
0100
,
0030
0000
0010
0000
1200
0000
0000
0300
1000
0000
0100
0000
1000
0000
0001
0000
,
0000
0000
0100
0000
0001
0000
0000
0010
0000
0000
0001
0000
2000
0000
0000
0000
,
3020
0000
0130
0001
0001
0000
1000
0100
,
1000
1000
0010
0100
0002
0000
0023
0000
,
0030
0000
0000
0000
1001
0000
0000
0000
1000
0000
0100
0000
1000
0000
0000
0010
,
0000
0000
0000
0000
0110
0000
0000
0000
0001
0000
0100
0000
0001
0000
0000
0010
,
0000
0000
0000
0000
0001
0000
0100
0000
0010
0000
1000
0000
0100
0000
0000
0220
,
0000
0330
0000
0000
0100
0000
0100
0000
1000
0000
0001
0000
0200
0000
0000
0020
,
0000
0000
0330
0000
0100
0000
0001
0000
1000
0000
0100
0000
1000
0000
0000
0010
,
0000
0000
1000
0000
0100
0000
1000
0000
0001
0000
0010
0000
0002
0000
0000
0200
,
0000
0000
0303
0000
0001
0000
0001
0000
0010
0000
0001
0000
1000
0000
0000
0010
,
0000
0000
1000
0000
0010
0000
0010
0000
1000
0000
0001
0000
2000
0000
0000
0200
,
0000
3300
1001
0000
0001
0001
0010
0001
,
0100
0010
0000
1000
0010
1000
0100
1000
,
0001
0000
0110
0000
2000
0000
3100
1000
,
0001
0010
0020
0000
0031
0100
0002
1000
,
1003
0000
0200
0000
1300
0010
2000
0001
,
3002
0000
0103
0001
0010
0010
0002
1000
,
2003
0000
0100
0000
3100
0000
1000
0000
0010
0000
1000
0000
0001
0000
0000
0100
,
0000
0000
0100
0000
0001
0000
0020
0000
0000
0000
0031
0000
1000
0000
0000
0001
,
1000
0001
0102
0000
1003
0100
1000
0010
,
0010
0000
2100
0000
3001
0100
0020
0000
,
0230
0000
0301
0010
0001
0000
1000
0100
,
0010
0100
1000
0000
0001
0100
0010
1000
,
0100
0000
1000
0000
2002
0000
0000
0000
3003
0000
1000
0000
0001
0000
0000
0010
,
0000
0000
0001
0000
2002
0000
0000
0000
3003
0000
0001
1000
0001
0000
0100
0000
,
0200
0000
0310
0000
1001
0000
0000
0000
1000
0000
0100
1000
0000
0000
0001
0000
,
0100
0000
0001
0000
0020
0000
0000
0000
0130
0000
0010
0000
0010
0000
0100
0010
,
0100
1000
0020
0130
0001
0001
0010
0001
,
1000
0000
0100
0000
1000
0000
0000
0010
0000
0000
1000
0000
0002
0000
0100
0000
,
0100
0103
0010
1000
0001
0000
0100
0001
,
0100
0100
0010
1000
0100
0000
1000
0001
,
0100
0100
0002
0003
2200
0000
3300
1000
,
0010
1000
0001
0001
2000
0000
3100
1000
,
0010
0010
0100
0001
0020
0000
0130
0000
,
1000
0100
1000
0000
0001
0000
1000
0000
0200
0000
0010
0000
0310
0000
0100
0000
,
0010
0000
0001
0100
0001
1000
0200
0000
,
1300
0010
1000
0001
0020
0000
0130
0010
,
2001
0000
3001
0001
1000
0002
0000
0013
,
0100
1000
0001
0100
0020
0000
0130
0000
,
0101
0001
1000
0100
1000
0000
0000
0000
,
1100
1000
0001
0100
0001
0000
0010
0001
,
2000
0000
3010
0100
0002
0000
0013
0100
,
1000
0001
0000
1000
0001
0000
1000
0000
0100
0000
1000
0001
0010
0000
0001
0000
,
1020
0000
0130
0001
0010
0010
0001
1000
,
0200
0000
1300
0010
1000
0001
0100
0001
,
0020
0000
0130
1000
0010
1000
0002
0010
,
0013
0000
0001
0000
2000
0000
0100
0000
3100
0000
0010
0000
0000
0100
1000
0000
,
0020
0000
1030
0001
0010
0001
1000
0100
,
0020
0001
0031
0100
0001
1000
0100
1000
,
0020
1000
1030
0100
1000
0001
0010
0001
,
0200
0010
0310
1000
0100
1000
0001
0010
,
1001
0000
0100
0001
1000
0100
0020
0000
,
0130
0000
0000
1000
0000
0000
0001
0000
0100
0000
0001
0000
1000
0001
1000
0000
,
0002
0000
1003
0000
0100
1000
0100
0000
1000
0000
0010
0000
1000
0000
0010
0000
,
0200
0001
0301
0010
0001
0000
1000
0100
,
1000
0000
0020
0000
0130
0001
1000
0100
,
1000
0010
0000
0010
1000
0001
0010
0000
,
2002
0000
3003
0001
0001
0100
0001
1000
,
0100
1000
0010
0010
0010
0010
0100
0010
,
0210
0000
0310
0100
0001
1000
0100
0010
,
0200
0000
1300
0001
0100
0010
1000
0000
,
0200
0000
1300
0000
1001
0000
0001
0010
,
0200
0000
0000
0000
0310
0000
0001
0000
1001
0000
0000
1001
0000
0000
1000
0000
,
0100
1000
0001
0010
0110
0000
1001
0000
,
0001
0100
0001
1000
0100
0100
1000
0000
,
0010
0000
1000
0001
0010
0100
0010
0100
,
1000
0010
0100
0000
1001
0000
0010
0010
,
0100
1001
1000
0001
,
0100
0001
0010
0001
1000
0100
0000
0110
,
0000
0001
0100
0010
1000
0100
1000
0000
,
0001
0000
0100
0001
0010
0000
0001
0000
,
1010
0101
1000
0001
,
1000
0100
0001
0000
0100
0010
0100
0000
,
0010
0001
1000
0000
0010
0100
0001
1000
,
0000
1001
0100
0001
1001
0000
1000
0000
,
0200
0000
1300
0000
0010
0100
0001
1000
,
0200
0000
0310
0000
0010
0001
1000
0000
,
0020
0000
0130
0000
0001
1000
0002
0000
,
2003
0000
3010
0000
1000
0100
0001
0000
,
0200
0000
0310
0000
0001
1000
0100
0000
,
0020
0000
0031
0000
1000
0001
1000
1000
,
0002
0000
0000
0100
0003
0000
0100
0000
0010
0000
1000
0000
0001
0000
0100
0000
,
0120
0000
1030
0100
0001
0100
0002
0000
,
0103
1000
0010
0000
0100
0010
0100
0000
,
1001
0000
0000
0000
0001
0000
1000
0002
0000
0000
0000
0000
1003
0000
0100
0000
,
1000
0010
0000
1000
0020
0000
1030
0000
0100
0000
1000
0001
0000
0000
0010
0000
,
0011
0001
1000
0010
1010
0000
0000
0000
,
0000
0000
1000
0001
1000
0000
0001
0000
0200
0000
0000
0000
0301
0000
1000
0000
,
0200
0300
0100
0010
0100
1000
0100
1000
,
0001
0000
0100
0000
0100
0000
0001
0000
0010
0001
0000
1000
0000
0010
0000
0100
,
0020
0000
1030
0100
1000
0001
0100
0010
,
0000
0010
0100
0001
1001
0000
1000
0000
,
0100
0000
1000
0000
0010
0000
0000
1000
0001
0000
0100
0000
0001
0000
0000
0000
,
0010
0000
0000
0000
0001
0000
0000
0000
0010
0000
0000
0000
0100
0000
0000
0000
1000
0000
0000
0000
0100
0000
0000
0000
0020
0000
0000
0000
0000
0000
0000
0000
0000
0200
0000
0000
0000
0000
0000
0000
0000
0000
0000
0000
0000
0000
0000
0000
,
0000
0330
0100
0000
1000
0000
0001
0000
0100
0000
0010
0000
0000
0000
0000
0000
,
0101
1100
2002
3003
,
1000
0001
0010
0100
0020
0000
0130
0000
,
1000
0010
0100
0001
2000
0000
3100
0000
,
1000
0010
0100
0100
0002
0000
0103
0000
,
2001
0000
0000
0000
3010
0000
0000
1000
0000
0000
0100
0000
0010
0000
0100
0000
,
0010
0001
0100
0010
1001
0000
0110
0000
,
0001
0000
0100
0000
0001
0000
0010
0000
0010
0000
0000
0001
0000
0000
1000
0000
,
1100
0000
1000
0000
0010
0000
1000
0000
0001
1000
0001
0000
2000
0000
0000
0000
,
3010
1000
0001
0010
0002
0000
0103
0001
,
0010
0001
1000
0010
2000
0000
3100
1000
,
0010
0010
1000
0100
0020
0000
0130
1000
,
0100
0100
0010
0001
0100
0010
0110
0000
,
0200
0000
0301
0000
1001
0000
1000
0100
,
1000
0010
0000
1000
0000
0000
0100
0000
0020
0000
0001
0000
0031
0000
0100
0000
,
0010
0000
1000
0000
0010
0000
0000
1000
0000
0000
0100
0000
1000
0000
0001
0000
,
0010
0010
0001
0001
1000
1000
0100
0000
,
1002
0000
0000
0000
0003
1000
0100
0000
1000
0000
0100
0000
0010
0000
0001
0000
,
0010
0001
0100
0010
1000
0100
0010
0001
,
0200
0000
0000
0000
0310
0000
0100
0000
0000
0001
0100
0000
0001
0000
1000
0100
,
0000
0000
1100
0000
0010
0000
0010
0000
0001
0000
0000
1000
0000
0000
0001
0000
,
1002
0000
0103
0001
0010
0001
2000
0000
,
3100
1000
0010
1000
0002
0000
0013
0000
,
0210
0000
0000
0000
1300
0000
0010
0000
1000
0000
0001
0000
0001
0000
0000
0100
,
0000
0010
0100
0001
1000
0100
0010
0100
,
0120
0000
0000
0000
0130
0000
1000
0000
0001
0000
0000
1000
0000
0000
0001
0000
,
1000
1000
0100
1000
0010
0100
0002
0000
,
0013
0000
0001
0000
1000
0000
0100
0000
1000
0000
0010
1000
0000
0001
0000
0010
,
0000
0100
0000
0010
0000
0100
0000
0100
0010
0000
0100
0000
0020
0000
0000
0000
,
0032
0000
0103
0001
1000
1000
0010
1000
,
0100
1000
0010
0100
0001
0010
0011
0000
,
2000
0000
3100
1000
0001
0001
0100
0001
,
0010
0100
0010
0001
1000
0010
0100
0000
,
1002
0000
0103
1000
0100
0001
1000
0000
,
2001
0000
3100
0001
0100
1000
0001
0000
,
0011
0000
0001
0000
0100
0000
0010
0000
1000
0000
0000
0010
0000
0000
1000
0000
,
0000
0000
0100
0000
1000
0000
0001
0000
1000
0010
0000
0200
0000
0000
0300
0000
,
0101
0001
0001
1000
0100
1000
0010
0100
,
0020
0000
0000
0130
0000
0000
0100
0000
0010
0000
1000
0000
0001
0000
2000
0002
,
0000
0000
3003
0000
1000
0000
0000
0000
0100
0000
1000
0001
0000
0000
1000
0000
,
0001
0010
0001
0100
0020
0000
0130
0000
,
1020
0000
1030
0100
0001
0100
0010
0000
,
0021
0000
0130
1000
0001
0100
0010
0000
,
2100
0000
0000
0000
3001
0000
0100
0000
0010
0000
0000
1000
0000
0000
0001
0000
,
0102
0000
0000
0000
0013
0000
0100
0000
1000
0000
0000
0001
0000
0000
1000
0000
,
0001
0010
0001
0001
2000
0000
3100
0000
,
1000
0010
1000
1000
0002
0000
0103
0000
,
0001
0010
0100
1000
0010
0010
0000
0100
,
0001
1000
0100
0000
0020
0000
0130
0000
,
1001
0000
0000
0000
1000
0000
1000
0000
0010
0000
0000
0010
1000
0000
0010
0000
,
1000
0001
0010
0100
0020
0000
0031
0100
,
0001
0000
1000
0000
0100
0000
1000
0001
0000
1000
0000
0000
0100
0000
0000
1000
,
0100
1000
0001
0010
0200
0000
1300
0010
,
0110
0010
0100
0001
0010
0001
1000
0100
,
0000
1000
0010
0010
1000
0100
1000
0001
,
0020
0000
0000
0000
0130
0000
1000
0000
0100
0000
0000
1000
0000
0000
0001
0000
,
0100
0000
0001
0000
1000
0000
0010
0000
1000
0000
0001
1000
0000
0000
0001
0000
,
2000
0000
0000
0000
3010
0000
1000
0000
0001
0000
1000
0001
0000
0000
0010
0000
,
0002
0000
0000
0000
0013
0000
0001
0000
1000
0000
0001
1000
0000
0000
0010
0000
,
2000
0000
0000
0000
3100
0000
1000
0000
0010
0000
1000
0001
0000
0000
0100
0000
,
0002
0000
0000
0000
0103
0000
0001
0000
0010
0000
0001
1000
0000
0000
0100
0000
,
2000
0000
0000
0000
3001
0000
0010
0000
0001
0000
0100
0010
0000
0000
0100
0000
,
0002
0000
0000
0000
1003
0000
0010
0000
1000
0000
0100
0010
0000
0000
0100
0000
,
2000
0000
3002
0100
0203
0000
0310
0000
,
0100
0000
0001
0000
1000
0000
0001
0000
0010
0000
0100
0010
0000
0000
0100
0000
,
2000
0000
3001
0100
2002
0000
3003
1000
,
0001
0000
0020
0000
0000
0000
0031
0000
1000
0010
0000
1000
0000
0000
0010
0000
,
0100
0010
0100
0001
1000
0100
0010
0100
,
0000
0000
1000
0000
0100
1000
0001
0000
0100
0000
0001
0100
0001
0000
1000
0000
,
2001
0000
3010
1000
0100
1000
0001
0001
,
0010
0000
0000
0000
0001
0000
0100
0000
0001
1000
0001
0000
1000
0000
0010
1000
,
0020
0000
0000
0000
1030
0000
0100
0000
1000
0000
0001
1000
0000
0001
1000
0000
,
0200
1000
2300
0001
3002
0100
0103
0010
,
0200
0000
0310
1000
0100
1000
0001
0100
,
0001
0010
0100
0010
0110
0000
0010
0001
,
2000
0000
3010
1000
0002
0000
0103
0001
,
1000
0000
1000
0000
0010
0000
0010
0000
0100
0000
0001
0010
0001
0000
0100
0000
,
0020
0000
1030
0100
1000
0001
1000
0010
,
0200
0000
0301
0100
0001
1000
0001
0100
,
0020
0000
0000
0000
1030
0000
0100
0000
1000
0001
0000
1000
0001
0000
0010
0000
,
0020
0000
0000
0000
0031
0000
0100
0000
0001
1000
0000
0001
1000
0000
0010
0000
,
0020
0000
1030
0100
1000
0010
0010
1000
,
2000
0000
3100
0000
0100
1000
0010
0100
,
0002
0000
0013
0010
0100
1000
0001
0100
,
0101
0000
1010
0000
1000
0001
0010
0100
,
0000
2000
0000
0000
0000
0000
0002
0000
0000
0000
0000
0000
0000
0000
0000
0000
,
0000
0000
0000
0000
,
0000
0000
0000
0000
,
3003
0000
0000
0000
;
