#TITLE:Tonight;
#SUBTITLE:(Remix 3 from Rhythm Heaven Fever);
#ARTIST:Tsunku;
#TITLETRANSLIT:;
#SUBTITLETRANSLIT:;
#ARTISTTRANSLIT:;
#GENRE:;
#CREDIT:;
#MUSIC:Tonight.ogg;
#BANNER:;
#BACKGROUND:;
#CDTITLE:;
#SAMPLESTART:41;
#SAMPLELENGTH:12;
#SELECTABLE:YES;
#OFFSET:-1.699;
#BPMS:0.000=145.000;
#STOPS:183.000=0.414
,238.500=0.414
,321.500=0.828
;
#BGCHANGES:;
#FGCHANGES:;

//--------------- dance-single - ----------------
#NOTES:
     dance-single:
     :
     Beginner:
     2:
     0,0,0,0,0:
0000
0000
0000
0000
,
0000
0000
0000
0000
,
0001
0000
1000
0000
,
0001
0001
0001
0000
,
1000
0000
0001
0000
,
1000
1000
1000
0000
,
0010
0000
0100
0000
,
0100
0100
0100
0100
,
0100
0000
0000
0000
,
0001
0000
0001
0000
,
0100
0000
0000
0000
,
1000
0000
1000
0000
,
0010
0000
0000
0000
,
1000
0000
0001
0000
,
0100
0000
0000
0000
,
0001
0000
1000
0000
,
0010
0010
0010
0000
,
1000
0000
1000
0000
,
0100
0000
0010
0000
,
0001
0000
0001
0000
,
1001
0000
1000
0000
,
0100
0000
0100
0000
,
1001
0000
0001
0001
,
0000
0010
0000
0000
,
0110
0000
0100
0000
,
0001
0001
0001
0000
,
1000
0000
0010
0000
,
1000
0000
1000
0000
,
1001
0000
0100
0000
,
1000
1000
1000
0000
,
0001
0000
0010
0000
,
0001
0000
0001
0000
,
1001
0000
0001
0000
,
0100
0100
0100
0000
,
0010
0000
1000
0000
,
0010
0000
0010
0000
,
0110
0000
1000
0000
,
0010
0010
0010
0000
,
0100
0000
0001
0000
,
0001
0000
0100
0000
,
0001
0001
0001
0000
,
1000
1000
1000
0000
,
0001
0000
1000
0000
,
1001
0000
0000
0000
,
0001
0001
0001
0000
,
0010
0010
0010
0000
,
1000
1000
0000
0100
,
0100
0100
0000
0000
,
0100
0000
0001
0000
,
0010
0000
1000
0000
,
0001
0000
1000
0000
,
0010
0000
1001
1001
,
0000
0001
0000
0010
,
0000
1000
0000
0100
,
0000
0100
0100
0100
,
0000
0010
0000
1001
,
0000
1000
0000
1001
,
0000
0001
0000
0010
,
0010
0010
0000
0010
,
0000
0000
0110
0000
,
0000
0001
0000
1000
,
0000
0001
0001
0000
,
0000
1000
0000
0001
,
0000
1000
1000
0000
,
1000
0000
0001
0000
,
0001
0000
0100
0000
,
0000
0000
0010
0010
,
0010
0000
1001
0000
,
0001
0000
0010
0010
,
0010
0000
0001
0000
,
1000
0000
0100
0000
,
0100
0000
0110
0000
,
1000
0000
0010
0010
,
0010
0000
1000
0000
,
0001
0000
0100
0000
,
0010
0000
0100
0100
,
0100
0000
0010
0010
,
0010
0000
1000
0000
,
1000
1000
0000
0000
,
0000
0000
0001
0000
,
0001
0001
0000
0000
,
1001
0000
0001
0000
,
0001
0001
0001
0000
,
0100
0000
1000
0000
,
1000
1000
1000
0000
,
0010
0000
0010
0000
,
0100
0000
0100
0000
,
0010
0000
0100
0000
,
1001
0000
1001
1001
;

//--------------- dance-single - ----------------
#NOTES:
     dance-single:
     :
     Easy:
     5:
     0,0,0,0,0:
0000
0000
0000
0000
,
0000
0000
0000
0000
,
0001
0001
0010
0001
,
1000
0100
1000
0200
0000
0000
0300
0000
,
1000
1000
0010
1000
,
0001
0100
0001
0200
0000
0000
0300
0000
,
0001
0010
0001
0000
1000
0000
0100
0000
,
0010
0100
0010
0100
,
1000
0001
2000
0000
,
3001
0000
1000
0002
0000
0000
0003
0000
,
0100
0000
0001
0000
0020
0000
0030
0100
,
0000
0000
1000
0200
0000
0000
0300
0000
,
1000
0010
2000
3000
,
0001
0000
0100
0020
0000
0000
0030
0000
,
1000
0000
0100
0000
0001
0000
0100
0001
,
0000
0000
0010
0000
0001
1000
0001
0000
,
0100
0001
1000
0100
,
1000
1000
0020
0030
,
0100
0001
1000
0100
,
0020
0000
0001
1030
,
0110
0000
0010
0000
0001
0000
0000
1000
,
0000
1000
0000
0001
0000
0001
0000
0000
,
2000
0000
3001
0000
0010
0100
0010
0100
,
0000
0000
2002
0000
0000
3003
0001
0000
,
1001
1000
0020
0000
,
0130
0001
1000
0100
,
0200
0000
0300
1000
1000
0000
0000
0001
,
0001
0000
1000
0000
0001
1000
0001
0000
,
0110
0100
0001
1000
,
0010
0010
1000
0001
,
0200
0000
0300
0000
0001
1000
0000
0010
,
0000
0020
0000
0200
0000
0330
0100
0000
,
1001
0001
0020
0000
,
0130
1000
0001
0100
,
0200
0000
0300
0001
0001
0000
0000
1000
,
1000
0000
0001
0000
1000
0001
1000
0000
,
0110
0100
1000
0001
,
0010
0010
0001
1000
,
0200
0000
0300
0000
1000
0001
0000
0010
,
0000
0020
0000
0200
0000
0330
0100
0000
,
1000
0100
0000
2000
0000
0000
3000
0000
,
0001
0100
0000
0002
0000
0000
0003
0000
,
0010
0000
0000
0100
0000
0100
0000
2002
,
0000
0000
3003
0000
,
1000
0000
0000
0010
0000
0000
1000
0000
0010
0000
0000
0000
0000
0000
0000
0000
,
0100
0000
0000
0100
0000
0000
0002
0000
0000
0000
0000
0000
0003
0000
0000
0010
,
0000
0000
0001
0000
0010
0000
0000
0000
0000
0000
0000
0000
0100
0000
0000
0100
,
0000
2000
0000
0000
3000
0000
0000
0000
,
0010
0000
0010
1000
,
0001
0100
0100
0000
,
0001
0000
0000
0000
1000
0000
0010
1000
,
0010
0000
0100
0001
0100
0000
0002
0000
,
0000
0013
0001
2000
,
0000
3100
1000
0020
,
0000
0130
0010
2002
,
0000
0000
3003
0000
0001
1000
0002
0000
,
0023
0032
1003
2000
,
3020
0000
2030
0000
3001
0000
0100
0001
,
0000
1000
0000
0010
0000
0220
0000
0000
,
0000
0000
0330
0000
0000
1001
0000
0000
,
0000
0000
0000
2000
0000
0000
0000
3002
,
0000
0000
0000
0013
0000
0000
0000
0000
,
0001
0000
1000
1000
,
1000
0001
1001
1000
,
0200
0000
1300
0001
,
0010
0000
0010
0000
0100
0000
0000
1000
,
0001
0000
0000
0200
0000
0020
0000
0000
,
0330
1000
1001
0001
,
0020
0000
0030
0000
0001
0100
0001
0000
,
1000
1000
0200
0000
,
1300
0001
0010
0000
,
0001
1000
0100
0000
,
1000
1000
0000
0000
0010
0000
1000
0000
,
0001
0001
0000
0000
0100
0000
0010
0000
,
0010
0000
0000
2000
0000
0002
0000
0000
,
3003
0000
1001
0000
0001
0010
0000
0200
,
0000
0000
0300
0000
1000
0010
0000
0200
,
0000
0000
0300
0000
0001
0000
0000
0010
,
0000
0001
0000
0011
0000
0000
0000
0000
,
0000
0000
0000
0000
1000
0000
0000
0010
,
0000
1000
0000
1010
0000
0000
0000
0000
,
1000
0001
0000
0001
,
0020
0000
0031
0000
,
0001
1000
0000
1000
,
0020
0000
1030
0000
,
0100
0000
1000
0000
,
0001
1000
0010
0000
,
1000
0000
1000
0000
0001
0010
0001
0000
,
0100
1000
0001
1001
;

//--------------- dance-single - ----------------
#NOTES:
     dance-single:
     :
     Medium:
     7:
     0,0,0,0,0:
0000
0000
0000
0000
,
0000
0000
0000
0000
,
0001
0100
1000
0100
,
0010
1000
0010
2000
0000
0000
3100
0000
,
1000
0100
0001
0100
,
0010
0001
0010
0002
0000
0000
0103
0000
,
0010
0000
1000
0000
0100
0010
0100
0000
,
1100
0101
1100
0101
,
0100
0100
0002
0000
,
1003
0000
0001
2000
0000
0000
0010
3000
,
0010
0000
1000
0000
0100
1000
0000
0100
,
0000
0100
0010
0000
0001
0000
1000
0000
,
1001
0001
0002
0000
,
1003
0000
0100
2000
0000
0000
3010
0000
,
1000
0000
1000
0000
0001
0000
0001
0010
,
0000
0010
0100
0000
0010
0000
0110
0000
,
0001
0010
0100
0001
0000
0100
1000
0100
,
0000
2000
0010
0000
0100
0000
3010
0000
,
1000
0010
0100
1000
0000
0100
0001
0100
,
0000
0002
0010
0010
0000
0100
0103
0000
,
0101
0000
0001
2000
0000
3010
0000
1010
,
0000
0011
0000
1010
0000
0011
0000
0010
,
0200
0000
1300
1000
0001
1000
0001
0100
,
0000
0002
2000
0000
0000
3003
0001
2001
,
0000
3100
1000
0010
0000
0010
1000
0001
,
0000
0001
1000
0100
0000
0100
0100
0010
,
0100
1000
0001
1001
,
0010
0001
1000
0000
0100
0000
0010
0200
,
0000
0000
1300
0001
0000
1000
0001
0100
,
0000
0001
0010
0001
0000
0010
0100
2000
,
0100
0000
3100
0000
1000
0001
0100
0002
,
0000
0100
0000
2003
0000
0000
3001
1002
,
0000
0103
0001
0010
0000
0010
0001
1000
,
0000
1000
0001
0100
0000
0100
0100
0010
,
0100
0001
1000
1001
,
0010
1000
0001
0000
0100
0000
0010
0200
,
0000
0000
0301
1000
0000
0001
1000
0100
,
0000
1000
0010
1000
0000
0010
0100
0002
,
0100
0000
0103
0000
0001
1000
0100
2000
,
0000
0100
0000
3002
0000
0100
0103
0000
,
0010
1000
0010
2000
0000
0000
3100
0000
,
0010
0001
0010
0002
0000
0000
0103
0000
,
0001
1000
0000
0010
0000
0110
0000
2002
,
0000
0000
3003
0000
0001
0001
1000
0000
,
0100
0000
0000
1000
0000
0000
0100
0000
0020
0000
0000
0000
0000
0000
0030
0000
,
0001
0000
0000
0100
0000
0000
0200
0000
0000
0000
0000
0000
0300
0000
0000
0001
,
0000
0000
0100
0000
0020
0000
0000
0000
0000
0000
0030
0000
1000
0000
0000
0100
,
0000
0220
0000
0000
0330
0000
0001
0000
,
0011
1000
1100
1000
,
0001
1001
1001
1000
,
1010
0000
0001
0000
0101
0000
1000
0001
,
1000
0000
1001
1001
1001
0000
0020
0000
,
0230
0320
0032
2003
,
3002
0203
0000
0302
,
1000
0000
1003
0000
0001
2000
0000
0001
,
0000
3001
0010
0000
0100
0000
0020
0000
,
0032
2003
3020
0130
,
0002
2000
0000
0000
3003
0000
1001
0000
,
1000
0010
0000
0001
0100
0020
0000
0000
,
0100
0000
0130
0000
0002
2000
3003
0000
,
0200
0000
0000
0310
0000
0110
0000
0001
,
0000
1001
0000
2000
0002
0000
3003
0000
,
0010
0001
1000
1000
,
0010
0010
1000
2002
0000
3003
0001
1000
,
0000
0100
1000
0010
0000
1000
0001
0001
,
0000
0010
0001
0100
0001
0000
0011
0000
,
1000
0010
1000
0200
0000
0320
0000
0200
,
0000
0330
0010
2001
0000
0000
3100
1000
,
0000
0010
1000
0100
0000
1000
1000
0001
,
0010
0001
1001
1010
,
1000
0001
0000
0011
0000
0010
0001
0100
,
0010
0000
0100
0001
1000
0000
0100
0100
,
0000
1000
0010
1000
0000
0001
0100
0001
,
0000
0101
0000
1000
0010
0000
1010
0000
,
0100
0100
0001
2000
0000
3002
0000
2000
,
0000
3003
0100
0000
1000
0010
1000
0020
,
0000
0000
0130
0000
0001
0010
0001
0020
,
0000
0000
0130
0000
1000
0000
0000
0002
,
0000
0103
0000
2002
0000
0000
0000
0000
,
3003
0000
0001
0000
2010
0000
0000
3001
,
0000
0011
0000
0220
0330
0000
1001
0000
,
1000
0000
0010
0000
1000
0100
1000
0000
,
0001
1000
0001
2000
0000
0000
3100
0000
,
0010
0001
0010
0000
0100
1000
0001
0000
,
0100
0001
0010
0002
0000
0000
1003
0000
,
0001
0000
0010
0000
0001
0100
0001
0000
,
1000
0001
1000
0002
0000
0000
0103
0000
,
0010
0000
1000
0000
0001
0100
0001
0000
,
0011
1100
0110
1001
;

//--------------- dance-single - ----------------
#NOTES:
     dance-single:
     :
     Hard:
     8:
     0,0,0,0,0:
0000
0000
0000
0000
,
0000
0000
0000
0000
,
1001
0000
0002
0000
1003
0100
2000
0000
,
3010
1000
0001
0200
0010
0000
0310
0000
,
2010
0000
3100
0000
1000
0002
0100
0000
,
0013
0001
1000
0200
0010
0010
0310
0000
,
0012
0000
0103
0000
0001
2000
0100
0000
,
3010
1010
0011
1001
,
1000
1000
0020
0000
1030
0001
0100
0000
,
0010
1000
0001
0200
0000
0301
0010
0000
,
0001
0010
0012
0000
1003
0010
1000
1200
,
0000
0000
1300
0000
0001
0000
0100
0001
0000
0000
0100
0000
0010
0000
0000
0000
,
0110
1000
0020
0000
1030
0001
0000
0001
,
0100
0010
1000
0200
0000
0010
0310
0100
,
1000
0001
0200
0000
0301
0010
0100
0210
,
0000
0000
0310
0000
0001
0000
1000
0001
0000
0000
1000
0000
0100
0000
1000
0010
,
1000
0100
0010
0012
0000
0103
0010
2010
,
0000
0100
3100
1000
0001
0010
0100
1000
,
0010
0010
0100
0002
0000
0013
0001
0021
,
0000
0100
0130
1000
0010
1000
1001
0000
,
0110
0010
0100
0020
0000
0031
0010
0011
,
0000
0000
0101
0000
0000
0000
1010
0000
0000
0000
1100
0000
1000
0001
1000
0000
,
0020
0000
0000
0000
0130
0010
0100
0000
0001
0000
0100
0000
0001
1000
0001
0000
,
0000
0000
1000
0100
0020
0000
0000
0000
0100
0000
0130
0000
0110
0000
2001
0000
,
0000
0000
3100
0000
1000
0000
0000
0010
1000
0000
0001
0000
0101
0000
0000
0000
,
0010
0000
0001
0000
0010
0000
0000
0100
1000
0000
0100
0000
1100
0000
0000
0000
,
0010
0100
0001
1000
0100
1000
0001
0010
,
0100
0100
1000
0001
0100
0010
0100
0002
,
1000
0000
0000
0000
1003
0000
0000
0100
1000
0000
0010
0000
0100
0000
0000
0000
,
0101
0000
0010
0000
0100
0000
0000
0010
1000
0000
0100
0000
1000
0000
0000
0000
,
2100
0000
0000
0000
3001
0000
0000
0010
0001
0000
0100
0000
0010
0000
0020
0000
,
0000
1000
0130
0001
0010
0001
1000
1002
,
0000
0000
0103
0000
0001
0000
0000
0010
0100
0000
0010
0000
0110
0000
0000
0000
,
1000
0000
0010
0000
0100
0000
0000
0010
1000
0000
0001
0000
1001
0000
0000
0000
,
0100
0001
0100
0100
0010
1000
0100
1000
,
0010
1000
0100
1000
0001
0010
0010
0200
,
0000
0000
0310
0000
0001
0000
0000
1000
0100
0000
1000
0000
1010
0000
0000
0000
,
0100
0000
0001
0000
1000
0000
0000
0001
0100
0000
0001
0000
0101
0000
0000
0000
,
0010
0001
1000
0010
0100
0100
0001
0020
,
0000
0100
0001
0031
0010
0001
1001
0000
,
1000
0100
1000
1020
0000
0000
0130
0000
,
0001
0100
0001
0021
0000
0000
0130
0000
,
2000
0000
3010
1000
0001
0010
0000
1001
,
0000
0100
0001
0100
1000
0100
0010
0010
,
1100
0000
0000
1000
0000
0000
0010
0000
2020
0000
0000
0000
3030
0000
0000
0000
,
0011
0000
0000
0101
0000
0000
2002
0000
0000
0000
0000
0000
3003
0000
0000
0010
,
0000
0000
0001
0000
1002
0000
0000
0000
0103
0000
0000
0000
2010
0000
0000
0010
,
0000
0000
3100
0000
0010
0000
0100
0010
0001
0000
0100
0000
0001
0000
0010
0000
,
0011
0000
0000
0000
1100
0000
0000
0000
1002
0000
0000
0000
1003
0000
0010
1000
,
0000
0010
2000
0000
0001
0000
0000
0000
3001
0000
0000
0000
1000
0000
0010
0000
,
1010
0000
0000
0000
0101
0000
0000
0000
0210
0000
0000
0000
0301
0000
0010
0001
,
0000
0010
0002
0000
1000
0000
0000
0000
0103
0000
0010
0000
2000
0000
0000
0000
,
3020
0230
0302
0023
,
0130
0020
0000
0230
1000
0000
2300
0000
,
3002
0000
0103
0001
0010
0200
1000
0000
,
0001
0000
1300
0001
0100
0010
2010
0000
,
3002
0023
0230
2300
,
3001
0002
0100
0000
0103
0100
0001
0010
,
0001
2000
0000
3100
1000
0020
0000
0100
,
0100
0130
0001
1000
1001
0110
0000
0000
,
0100
0001
1000
2001
0000
3100
0000
1002
,
0000
0013
0000
0200
0000
0000
0010
0000
,
0010
0000
0010
0000
0310
0000
0100
0000
0000
0000
1001
0000
0000
0110
0000
0000
,
0100
0000
0001
0000
1000
0001
2000
0000
0000
0000
0100
0000
3100
0000
0000
1000
,
0010
0000
1000
0000
1010
0000
0000
0000
0100
0000
0001
0000
1000
0000
0000
0001
,
0010
0000
0001
0000
0011
0000
0000
0000
0110
0000
0100
0000
1000
0000
0000
1000
,
0001
0100
0100
0002
0000
0013
0001
2000
,
0000
0000
3010
0000
1000
0000
0001
1000
0002
0000
0000
0000
0013
0000
0001
0000
,
0001
0000
1000
0000
1001
0000
0000
0000
1000
0000
0100
0000
1000
0000
0000
0010
,
1000
0010
0110
0000
0100
0001
0010
0010
,
0001
1000
0100
1000
0010
1000
0001
0000
,
0100
0000
0001
0000
1000
0000
0200
0000
0000
0000
0300
0000
0110
0000
0000
0010
,
0001
0000
0010
0000
0100
0000
1000
0000
0001
0000
0000
0000
1001
0000
0000
1000
,
0100
1000
0020
0000
0130
0100
0001
0000
,
1000
0100
1000
0002
0000
2003
0010
3020
,
0000
0130
0110
0000
0110
0001
0010
0200
,
0000
0000
0310
0000
0110
1000
0010
0200
,
0000
0000
0310
0000
0101
0000
0001
2000
,
0000
3010
1000
0200
0000
1300
0001
0010
,
0001
1000
0001
0000
0100
0000
0001
0000
0101
0000
0000
0000
0000
0000
2010
0000
,
0000
0000
3002
0000
0000
0000
0103
0000
0001
0010
0100
0000
0010
0000
0000
0000
,
1200
0000
1300
1000
0010
1000
0001
0000
,
0010
0001
0100
0020
1000
0000
1030
0000
,
0201
0000
0301
0001
0010
0001
1000
0000
,
0010
1000
0100
0020
0001
0000
0031
0000
,
2010
0000
3001
0000
0100
0001
0010
0000
,
0001
0001
1000
0200
1000
0000
0310
0000
,
0012
0000
1003
0000
0100
1000
0010
0000
,
1010
0101
0110
1001
;
