#TITLE:ときめきのストーリー;
#SUBTITLE:(Lush Remix);
#ARTIST:トキメキスト;
#TITLETRANSLIT:Tokimeki no Story;
#SUBTITLETRANSLIT:;
#ARTISTTRANSLIT:TOKIMEKIST;
#GENRE:;
#CREDIT:8Chasey 2026;
#MUSIC:Tokimeki no Story (Lush Remix).ogg;
#BANNER:;
#BACKGROUND:;
#CDTITLE:;
#SAMPLESTART:77.700;
#SAMPLELENGTH:12.000;
#SELECTABLE:YES;
#OFFSET:-7.995;
#BPMS:0.000=136.000;
#STOPS:156.000=0.441
,223.000=0.441
;
#BGCHANGES:;
#FGCHANGES:;

//--------------- dance-single - 8Chasey ----------------
#NOTES:
     dance-single:
     8Chasey:
     Beginner:
     1:
     0,0,0,0,0:
0000
0000
0000
0000
,
0000
0000
0000
0000
,
0000
0000
0000
0000
,
0000
0000
0000
0000
,
0000
0000
0000
0000
,
0000
0000
0000
0000
,
0000
0000
0000
0000
,
0000
0000
0000
0000
,
1001
0000
0000
0000
,
0000
0000
0000
0001
,
0000
0000
0001
0001
,
0000
0000
0000
1000
,
0000
0000
1000
1000
,
0000
0000
0000
0100
,
0000
0000
0000
0010
,
0000
0100
0000
0010
,
0000
0110
0000
0100
,
0000
0000
0000
0000
,
0000
0000
0000
0001
,
0000
0000
0001
0001
,
0000
0000
0000
1000
,
0000
0000
1000
1000
,
0000
0000
0000
0010
,
0000
0000
0000
0100
,
0000
0010
0000
0100
,
0000
0110
0000
0010
,
0000
0000
0000
0000
,
1001
0000
0000
0000
,
0000
0000
0100
0000
,
0000
0000
0100
0000
,
0000
0001
0000
0000
,
0000
0001
0000
0000
,
0000
0000
0100
0000
,
0000
0000
0100
0000
,
0000
1000
0000
0000
,
0000
1000
0000
0000
,
0000
0001
0001
0001
,
0000
1000
1000
1000
,
0000
0000
0000
0000
,
1001
0000
0000
0010
,
0000
0010
0000
0100
,
0000
0100
0000
0010
,
0000
0100
0000
0110
,
0000
0000
0000
0000
,
0001
0000
0001
0000
,
0001
0001
0000
0000
,
1000
0000
1000
0000
,
1000
1000
0000
0001
,
0000
0001
0000
1000
,
0000
1000
0000
0001
,
0000
1000
0000
1001
,
0000
0000
0000
0000
,
0000
0001
0000
0000
,
0000
1000
0000
0000
,
0000
0001
0000
0000
,
0000
1000
0000
0110
,
0000
0000
0000
0000
,
0000
0000
1001
0000
;

//--------------- dance-single - 8Chasey ----------------
#NOTES:
     dance-single:
     8Chasey:
     Easy:
     2:
     0,0,0,0,0:
0000
0000
0000
0000
,
0000
0000
0000
0000
,
0000
0000
0000
0000
,
2000
0000
0000
3000
,
0002
0000
0000
0003
,
1001
0000
0000
0001
,
0000
0000
0000
1000
,
0000
0000
0110
0000
,
1001
0000
0000
0000
,
1000
0000
0001
0000
,
0100
0010
0100
0000
,
0001
0000
1000
0000
,
0010
0100
0010
0000
,
0200
0000
0300
0000
,
0020
0000
0030
0000
,
1000
0001
1000
0001
,
0000
2002
0000
3003
,
0000
0010
0100
0000
,
0001
0000
1000
0000
,
0010
0100
0010
0000
,
1000
0000
0001
0000
,
0100
0010
0100
0000
,
0020
0000
0030
0000
,
0200
0000
0300
0000
,
0001
0000
1000
0000
,
0001
0000
1000
0000
,
0020
0000
0000
0030
,
2002
0000
0000
3003
,
2000
0000
0000
3000
,
0001
0000
0100
0000
,
0001
0002
0000
0003
,
1000
2000
0000
3000
,
0002
0000
0000
0003
,
1000
0000
0010
0000
,
1000
2000
0000
3000
,
0001
0002
0000
0003
,
2000
0000
3000
0000
,
0002
0000
0003
0000
,
2000
3000
0002
0003
,
1001
0000
0000
0001
,
1000
0001
0000
1000
,
0001
1000
0000
0001
,
0000
1000
0000
0020
,
0000
0030
0000
1000
,
1000
1000
0000
0001
,
0001
0001
0000
0200
,
0300
0020
0030
0220
,
0000
0330
0000
1000
,
0001
1000
0000
0001
,
1000
0001
0000
1000
,
0000
0001
0000
0200
,
0000
0300
0000
0001
,
0001
0001
0000
1000
,
1000
1000
0000
0020
,
0000
0030
0000
0200
,
0000
0300
0000
2002
,
0000
3003
0000
0000
,
0110
0000
1001
0000
;

//--------------- dance-single - 8Chasey ----------------
#NOTES:
     dance-single:
     8Chasey:
     Medium:
     5:
     0,0,0,0,0:
0000
0000
0000
0000
,
0000
0000
0000
0000
,
0000
0000
0000
0000
,
1000
0000
0000
2000
0000
0000
3000
0000
,
0001
0000
0000
0002
0000
0000
0003
0000
,
1001
0000
0000
0000
0000
0001
0000
0001
,
0000
0000
0001
0000
0000
1000
0000
1000
,
0000
0000
0000
0000
1000
0000
0000
0000
0100
0000
0000
0100
0000
0000
0100
0000
,
0200
0000
0300
0000
,
0010
0000
0010
0000
0100
0010
0000
0100
,
0000
0000
1000
0000
0001
1000
0001
0000
,
0100
0000
0100
0000
0010
0100
0000
0010
,
0000
0000
1000
0000
0001
0000
1000
0001
,
0000
0000
0001
0100
0000
0000
0100
0010
,
0000
0000
0010
1000
0000
0000
0001
0000
,
1001
0000
1000
0000
0010
0100
0010
0000
,
0100
0000
0110
0000
0000
0010
0000
1000
,
0000
0001
0001
0000
1000
1000
0000
0001
,
0000
0010
0001
0000
1000
0001
0000
1000
,
0000
0000
0010
0000
0100
0010
0100
0000
,
0010
0000
1000
0000
0001
1000
0000
0001
,
0000
0000
0100
0000
0010
0000
0100
0010
,
0000
0000
1000
0100
0000
0000
0010
0001
,
0000
0000
0010
0100
0000
0000
0010
0000
,
0110
0000
0100
0000
1000
0010
0000
1000
,
0002
0103
2000
3100
,
0220
0000
0330
0000
0010
0001
1000
0000
,
2002
0000
3003
0000
0001
0100
0010
0000
,
2000
0000
0001
0000
3001
0000
0000
0100
,
0000
0100
0000
0010
0000
0100
1000
0000
,
0001
2002
0000
3003
,
1000
2002
0000
3003
,
0002
0000
1000
0000
1003
0000
0000
0001
,
0000
0001
0000
1000
0000
1000
0100
0000
,
0010
0220
0000
0330
,
0100
0220
0000
0330
,
0001
0000
0001
0100
0000
0000
0010
1000
,
0000
0000
1000
0100
0000
0010
0001
0000
,
0001
1000
0000
0001
0010
0000
0100
0000
,
0010
0000
0001
1000
0000
1001
0000
0000
,
0001
0100
0000
0010
0000
0010
0000
1000
,
0000
0100
1000
0100
1000
0100
0000
0000
,
0010
0100
0000
0010
0000
0001
0000
1000
,
0000
0001
1000
0001
1000
0001
0000
0000
,
0100
0001
0000
1000
0000
0100
0000
0010
,
0000
0000
0000
0100
0010
0200
0000
0000
,
0310
0000
0000
0010
0100
0020
0000
0000
,
0130
0000
1000
0001
0000
1001
0000
0000
,
1000
0010
0000
0100
0000
0100
0000
0001
,
0000
0010
0001
0010
0001
0010
0000
0000
,
0100
0010
0000
0100
0000
1000
0000
0001
,
0000
1000
0001
1000
0001
1000
0000
0000
,
0010
1000
0000
0001
0000
0010
0000
0100
,
0000
0000
0000
1000
0001
2000
0000
0000
,
3001
0000
0000
0001
1000
0002
0000
0000
,
1003
0010
0100
0220
,
0000
0000
0330
0000
0000
1000
0001
0000
,
0010
0000
0000
0010
0000
0000
0010
0000
0020
0000
0000
0000
0030
0000
0000
0000
;

//--------------- dance-single - 8Chasey ----------------
#NOTES:
     dance-single:
     8Chasey:
     Hard:
     7:
     0,0,0,0,0:
0000
0000
0000
0000
,
0000
0000
0000
0000
,
0000
0000
0000
0000
,
2000
0000
0000
0200
0000
0000
3300
0000
,
0002
0000
0000
0020
0000
0000
0033
0000
,
0110
0000
0100
0000
0000
1000
0100
1000
,
0000
0000
0001
0000
0000
0001
0100
0001
,
0000
0000
0000
0000
0010
0000
0000
0000
0100
0000
0000
0010
0000
0000
0100
0000
,
0020
0000
0000
0130
,
1100
0000
1000
0001
1000
0010
0000
0010
,
0100
0000
0001
0010
0001
0000
0001
1000
,
0000
1000
0001
0000
0100
0001
0010
0100
,
0000
0100
1000
0000
0001
0100
0001
0100
,
0000
0010
1000
0010
0000
1000
0100
1000
,
0000
0100
0010
0100
0000
0100
0010
0000
,
0002
0000
0100
0000
1003
0100
1000
0000
,
0001
0000
2002
0000
3003
1000
0000
0001
,
0000
0000
0010
0010
0100
0100
1000
0001
,
0000
1000
0001
0000
1000
0100
0010
0100
,
0000
0100
0020
0000
0031
0001
1000
0100
,
0000
1000
0010
0000
0010
0100
0000
0100
,
0001
0000
1000
0100
0010
0001
0100
0010
,
0000
0010
1000
0100
0000
0010
0001
0100
,
0000
0010
0100
0010
0000
0100
0100
0001
,
2000
0100
0010
3001
,
0100
0001
0100
0000
0010
1000
0010
0000
,
0120
0000
1000
0000
1030
0001
1000
0000
,
0002
0010
0000
0013
0001
0000
1001
0000
,
2000
0000
0100
0000
3100
0010
0000
0001
,
0000
0101
0000
1100
0000
1000
0001
0100
,
0010
0000
2020
0000
0000
0000
3030
1000
,
0100
0202
0000
0303
,
0002
0000
0010
0000
0013
0100
0000
1000
,
0000
1010
0000
0011
0000
0001
0010
0100
,
1000
0000
2200
0000
0000
0000
3300
0100
,
0010
0022
0000
0033
,
0001
0100
0001
0010
0000
0100
1000
0100
,
0000
0100
1000
0010
0000
0100
0010
0100
,
0002
1000
0000
1003
0001
0100
0010
0000
,
0110
0000
0100
0010
0000
2002
0000
3003
,
1000
0100
0000
1000
0001
0100
0000
0110
,
0000
0010
1000
0100
0010
0002
0000
1000
,
1003
0010
0000
0001
0010
1000
0000
1001
,
0000
0001
0100
0010
1000
0200
0000
0000
,
1300
0001
0000
0101
0000
1000
0010
0010
,
0100
0010
0000
0100
0100
0002
0000
0000
,
1003
0010
1000
0100
0100
2000
0000
0000
,
3001
0000
1000
0001
0000
0220
0000
0330
,
0010
1000
0000
0100
1000
0001
0000
1001
,
0000
1000
0001
0010
0100
2000
0000
0001
,
3001
0100
0000
1000
0100
0001
0000
1001
,
0000
1000
0100
0010
0001
0020
0000
0000
,
0031
1000
0000
1010
0000
0101
0000
0001
,
1000
0000
0100
1000
0010
2000
0000
0000
,
3001
0001
0100
0001
0010
0002
0000
0003
,
1001
0000
0000
0000
1000
0000
0001
0000
1000
0000
0100
0010
0200
0000
0000
0000
,
0310
0001
1000
0010
0000
1000
0001
0000
,
0010
0000
0000
0100
0000
0000
0010
0000
0220
0000
0000
0000
0330
0000
0000
0000
;

//--------------- dance-double - 8Chasey ----------------
#NOTES:
     dance-double:
     8Chasey:
     Easy:
     2:
     0,0,0,0,0:
00000000
00000000
00000000
00000000
,
00000000
00000000
00000000
00000000
,
00000000
00000000
00000000
00000000
,
00002000
00000000
00000000
00003000
,
00020000
00000000
00000000
00030000
,
00011000
00000000
00000000
00001000
,
00000000
00000000
00000000
00010000
,
00000000
00000000
00000110
00000000
,
00001001
00000000
00000000
00000000
,
00000001
00000000
00001000
00000000
,
00000010
00000100
00000010
00000000
,
00000100
00000000
00001000
00000000
,
00010000
00001000
00010000
00000000
,
02000000
00000000
03000000
00000000
,
00200000
00000000
00300000
00000000
,
00010000
10000000
00010000
10000000
,
00000000
20020000
00000000
30030000
,
00000000
01000000
00100000
01000000
,
10000000
00000000
00010000
00000000
,
00100000
01000000
00100000
00000000
,
01000000
00000000
00010000
00000000
,
00001000
00010000
00001000
00000000
,
00000020
00000000
00000030
00000000
,
00000200
00000000
00000300
00000000
,
00001000
00000000
00000001
00000000
,
00001000
00000000
00000001
00000000
,
00000020
00000000
00000000
00000030
,
00002002
00000000
00000000
00003003
,
00002000
00000000
00000000
00003000
,
00010000
00000000
01000000
00000000
,
00010000
00020000
00000000
00030000
,
10000000
20000000
00000000
30000000
,
00020000
00000000
00000000
00030000
,
00001000
00000000
00000010
00000000
,
00001000
00002000
00000000
00003000
,
00000001
00000002
00000000
00000003
,
00000200
00000300
00000020
00000030
,
00020000
00030000
00002000
00003000
,
00010000
00001000
00010000
00000000
,
00011000
00000000
00000000
01000000
,
00100000
01000000
00000000
00100000
,
01000000
00100000
00000000
10000000
,
00000000
00010000
00000000
00200000
,
00000000
00300000
00000000
00001000
,
00001000
00001000
00000000
00010000
,
00010000
00010000
00000000
00000200
,
00000300
00000020
00000030
00000220
,
00000000
00000330
00000000
00000100
,
00000010
00000100
00000000
00000010
,
00000100
00000010
00000000
00000001
,
00000000
00001000
00000000
00000200
,
00000000
00000300
00000000
00010000
,
00010000
00010000
00000000
00001000
,
00001000
00001000
00000000
00200000
,
00000000
00300000
00000000
02000000
,
00000000
03000000
00000000
20020000
,
00000000
30030000
00000000
00000000
,
01100000
00000000
10010000
00000000
;
