#TITLE:Together Forever;
#SUBTITLE:;
#ARTIST:Cydney D;
#TITLETRANSLIT:;
#SUBTITLETRANSLIT:;
#ARTISTTRANSLIT:;
#GENRE:;
#CREDIT:;
#MUSIC:Together Forever.mp3;
#BANNER:;
#BACKGROUND:Together Forever-bg.png;
#CDTITLE:;
#SAMPLESTART:42.885;
#SAMPLELENGTH:12.000;
#SELECTABLE:YES;
#OFFSET:-0.465;
#BPMS:0.000=135.078;
#STOPS:;
#BGCHANGES:;
#FGCHANGES:;

//--------------- dance-single - ----------------
#NOTES:
     dance-single:
     :
     Beginner:
     1:
     0,0,0,0,0:
0000
0000
0000
0000
,
0000
0000
0000
0000
,
0000
0000
0000
0000
,
0000
0000
0000
0000
,
0001
0000
0000
0000
,
1000
0000
0000
0000
,
0010
0000
0000
0000
,
0000
0000
0000
0000
,
1000
0000
0000
0000
,
1000
0000
0000
0000
,
1000
0000
1000
0000
,
1001
0000
0000
0000
,
0001
0000
0000
0000
,
0001
0000
0000
0000
,
0001
0000
0001
0000
,
1001
0000
0000
0000
,
0010
0000
0000
0000
,
0100
0000
0000
0000
,
0010
0000
0010
0000
,
0010
0000
0000
0000
,
0100
0000
0000
0000
,
0010
0000
0000
0000
,
0100
0000
0100
0000
,
0100
0000
0000
0000
,
1001
0000
0000
0000
,
0001
0000
0000
0000
,
0010
0000
0000
0000
,
0001
0001
0000
0000
,
1001
0000
0000
0000
,
1000
0000
0000
0000
,
0010
0000
0000
0000
,
1000
1000
0000
0000
,
0100
0000
0000
0000
,
0010
0000
0000
0000
,
0100
0000
0100
0000
,
0100
0000
0000
0000
,
0010
0000
0000
0000
,
0100
0000
0000
0000
,
0010
0000
0010
0000
,
0010
0000
0000
0000
,
0110
0000
0000
0000
,
0001
0000
0001
0000
,
0110
0000
0000
0000
,
1000
0000
1000
0000
,
0110
0000
0000
0000
,
1001
0000
0000
0000
,
0110
0000
1001
0000
,
0110
0000
0000
0000
,
1001
0000
0000
0000
;

//--------------- dance-single - ----------------
#NOTES:
     dance-single:
     :
     Easy:
     2:
     0,0,0,0,0:
0000
0000
0000
0000
,
0000
0000
0000
0000
,
0000
0000
0000
0000
,
0000
0000
0000
0000
,
0001
0000
0001
0000
,
1000
0000
1000
0000
,
0001
0000
1000
0000
,
0100
0200
0000
0300
,
0010
0000
0010
0000
,
0100
0000
0100
0000
,
1000
0100
0001
0010
,
1001
0000
1000
0001
,
0000
0100
0100
0000
,
0001
1000
0010
0000
,
1000
1000
0001
0001
,
1000
0001
1000
0001
,
0011
0000
0001
0000
,
1010
0000
1000
0000
,
0100
0000
0100
0000
,
0010
0100
0010
0100
,
1100
0000
1000
0000
,
0101
0000
0001
0000
,
1000
0001
1000
0001
,
0010
0020
0000
0030
,
0001
0000
0001
0000
,
1000
0000
1000
0000
,
0001
1000
0001
0000
,
1000
2000
0000
3000
,
0010
1000
0010
0000
,
0100
0001
0100
0000
,
0001
0000
1000
0000
,
2002
0000
0000
3003
,
1000
1000
0010
0000
,
0001
0001
0100
0000
,
1000
0100
0001
0000
,
1001
0000
0010
0000
,
0001
0001
0010
0000
,
1000
1000
0100
0000
,
0001
0010
1000
0010
,
0100
0200
0000
0300
,
1000
0000
1000
0000
,
0001
0000
0001
0000
,
1000
0001
1000
0000
,
0001
0002
0000
0003
,
0010
0001
0010
0000
,
0100
1000
0100
0000
,
1000
0000
0001
0000
,
2002
0000
0000
0000
,
3003
0000
0000
0000
;

//--------------- dance-single - ----------------
#NOTES:
     dance-single:
     :
     Medium:
     4:
     0,0,0,0,0:
0000
0000
0000
0000
,
0000
0000
0000
0000
,
0000
0000
0000
0000
,
0000
0000
0000
0000
,
0001
1000
0002
0000
0103
0000
0010
0000
,
1000
0001
2000
0000
3100
0000
0010
0000
,
1100
0000
0000
0101
0000
0000
0010
0010
,
0100
0020
0000
0030
,
1000
0001
0200
0300
,
0001
0010
1000
0020
0000
0000
0130
0000
,
0001
0000
1000
0000
1000
0010
0100
0000
,
0001
1000
0100
0100
,
0001
0000
1000
0001
2000
0000
3010
0000
,
0100
0000
0001
1000
0002
0000
1003
0000
,
0010
1010
0001
0101
,
1000
0001
0100
0100
,
0001
0000
0001
2000
0000
0000
3100
0000
,
1000
0000
1000
0002
0000
0000
0103
0000
,
0010
0010
1000
0001
,
1000
0110
0001
0100
,
0010
0000
0010
2000
0000
0000
3001
0000
,
0010
0000
0010
0002
0000
0000
1003
0000
,
0100
1000
0100
0001
,
1001
2002
0000
3003
,
1000
0000
1000
0010
0000
0100
0001
0000
,
0001
0000
0001
0010
0000
0100
1000
0000
,
0010
1000
0001
0100
,
0110
0220
0000
0330
,
1000
0000
1000
0001
0000
0010
0001
0000
,
0100
0000
0001
1000
0000
0010
1000
0000
,
0001
0000
0100
0000
1000
0000
0010
0100
,
0020
0000
0000
0000
0030
0000
1000
0001
,
0010
0001
0002
0103
,
0010
1000
2000
3100
,
1000
0001
1000
0000
0001
1000
0001
0000
,
0110
1001
0100
0100
,
0001
0000
0001
0020
0000
0000
0130
0000
,
1000
0000
1000
0200
0000
0000
0310
0000
,
1000
0010
0001
0100
,
0110
0220
0000
0330
,
1000
0000
0001
0010
0000
0100
0010
0000
,
0001
0000
1000
0010
0000
0100
0010
0000
,
1000
1100
0001
0011
,
0110
0220
0000
0330
,
1000
0000
0100
0000
1000
0001
1000
0000
,
0001
0000
0100
0000
0001
1000
0001
0000
,
0010
0100
0010
0100
,
1100
1100
0101
0101
,
2002
0000
0000
3003
;

//--------------- dance-single - ----------------
#NOTES:
     dance-single:
     :
     Hard:
     6:
     0,0,0,0,0:
0000
0000
0000
0000
,
0000
0000
0000
0000
,
0000
0000
0000
0000
,
0000
0000
0000
0000
,
0001
0010
0001
1000
0000
0100
1000
0010
,
0000
0100
0001
1000
0000
1000
0001
0000
,
0010
0000
0010
0001
0000
1000
0010
0100
,
0010
0220
0000
0330
,
1000
0001
0010
0001
,
1000
0010
0100
0001
0000
1000
0001
0000
,
0010
1000
0010
0000
0100
0001
1000
0000
,
0001
0000
1000
0010
0100
0000
0010
0000
,
1000
0000
0001
0010
0001
0000
1000
0000
,
0100
0010
0001
1000
0000
0010
0100
0000
,
0100
0001
1000
0000
0001
0010
0100
0000
,
1000
0010
0110
0100
,
0001
0000
0000
0010
0000
0000
0002
0000
0000
0100
0000
0000
0103
0000
0001
0000
,
1000
0000
0000
0010
0000
0000
2000
0000
0000
0100
0000
0000
3100
0000
1000
0000
,
0010
1000
0010
0000
0100
0001
0100
0000
,
0001
1001
1000
0100
,
0010
0000
0000
0001
0000
0000
0200
0000
0000
0001
0000
0000
0301
0000
1000
0000
,
0100
0000
0000
1000
0000
0000
0020
0000
0000
1000
0000
0000
1030
0000
0001
0000
,
0010
0001
0100
0000
0010
1000
0100
0000
,
1100
0000
0202
0000
0000
0000
0303
0001
,
1000
0010
1000
0100
0000
0100
0010
0001
,
0000
1000
0001
0200
0000
0000
0310
0000
,
1000
0010
0100
0010
0000
1000
0001
0010
,
0100
0000
2002
0000
0000
0000
3003
1000
,
0001
0010
0001
0100
0000
0010
0100
0001
,
0000
1000
0100
0001
0000
0100
1000
0000
,
0010
1000
0010
0100
0001
0100
0010
0000
,
1000
0001
1000
0001
,
1000
0000
0000
0100
0000
0000
2000
0000
0000
0010
0000
0000
3010
0000
0100
0000
,
0001
0000
0000
0100
0000
0000
0002
0000
0000
0010
0000
0000
0013
0000
0100
0000
,
0010
0001
1000
0000
0100
1000
0001
0000
,
1000
1000
0010
0000
0100
0000
0001
0000
,
0010
0000
0000
0002
0000
0000
1000
0000
0000
1003
0000
0000
0100
0000
1000
0000
,
0010
0000
0000
2000
0000
0000
0001
0000
0000
3001
0000
0000
0100
0000
0001
0000
,
0010
0001
0010
0000
0100
1000
0100
0000
,
0101
0000
2200
0000
0000
0000
3300
1000
,
0010
0100
0001
0010
0000
0001
1000
0100
,
0000
1000
0010
0100
0000
0100
0001
0000
,
1000
0001
0010
0001
0000
0100
0010
1000
,
0100
0000
0220
0000
0000
0000
0330
0010
,
0100
1000
0010
0100
0000
0001
0001
0010
,
0000
0001
1000
0010
0000
0100
0001
0000
,
1000
0010
0100
1000
0000
0100
0001
0000
,
1000
0000
0110
0000
0001
1000
0100
0000
,
0020
0000
0000
0030
;

//--------------- dance-solo - ----------------
#NOTES:
     dance-solo:
     :
     Easy:
     2:
     0,0,0,0,0:
000000
000000
000000
000000
,
000000
000000
000000
000000
,
000000
000000
000000
000000
,
000000
000000
000000
000000
,
000001
000000
000000
000010
000000
000000
000000
000000
,
100000
000000
000000
010000
000000
000000
000000
000000
,
000100
000000
000000
001000
000000
000000
000000
000000
,
100001
200002
000000
300003
,
200000
000000
000000
000000
,
300100
000000
010000
000000
,
000002
000000
000000
000000
,
000103
000000
000010
000000
,
100000
001000
200000
000000
,
300001
000100
000002
000000
,
010003
000000
000010
000000
,
020020
000000
030030
000000
,
002000
000000
000000
000002
000000
000000
003003
000000
,
000200
000000
000000
200000
000000
000000
300300
000000
,
000010
000000
010000
000000
,
020020
000000
030030
000000
,
000200
000000
000000
200000
000000
000000
300300
000000
,
002000
000000
000000
000002
000000
000000
003003
000000
,
010000
000000
000010
000000
,
010010
200002
000000
300003
,
001000
000000
000000
000100
000000
000000
000100
000000
,
001000
000000
000000
000100
000000
000000
000100
000000
,
010000
000000
000000
000010
000000
000000
010000
000000
,
000010
000200
000000
000300
,
000001
000000
000000
001000
000000
000000
000001
000000
,
100000
000000
000000
000100
000000
000000
100000
000000
,
000100
010000
000010
000100
,
002000
000000
000000
003000
,
000002
000000
000000
002000
000000
000000
003003
000000
,
200000
000000
000000
000200
000000
000000
300300
000000
,
001000
000000
000010
010000
,
000200
000000
000000
000300
,
002000
000000
000000
000020
000000
000000
003030
000000
,
000200
000000
000000
020000
000000
000000
030300
000000
,
000001
100000
000001
100000
,
000100
002200
000000
003300
,
000001
000000
000000
100000
000000
000000
100000
000000
,
000010
000000
000000
010000
000000
000000
010000
000000
,
001000
000000
000000
000100
000000
000000
001000
000000
,
000100
002000
000000
003000
,
100000
000000
000000
001000
000000
000000
000100
000000
,
000001
000000
000000
001000
000000
000000
000100
000000
,
010000
000010
100000
000001
,
002000
000000
000000
003000
,
200002
000000
000000
300003
;
