#TITLE:Together Forever (The Cyber Pet Song);
#SUBTITLE:;
#ARTIST:Daze;
#TITLETRANSLIT:;
#SUBTITLETRANSLIT:;
#ARTISTTRANSLIT:;
#GENRE:;
#CREDIT:8Chasey 2026;
#MUSIC:Together Forever (The Cyber Pet Song).ogg;
#BANNER:Together Forever (The Cyber Pet Song)-bn.png;
#BACKGROUND:Together Forever (The Cyber Pet Song)-bg.png;
#CDTITLE:;
#SAMPLESTART:48.229;
#SAMPLELENGTH:12.000;
#SELECTABLE:YES;
#OFFSET:-5.767;
#BPMS:0.000=130.000;
#STOPS:;
#BGCHANGES:;
#FGCHANGES:;

//--------------- dance-single - BEGINNER ----------------
#NOTES:
     dance-single:
     BEGINNER:
     Beginner:
     1:
     0,0,0,0,0:
0000
0000
0000
0000
,
0000
0000
0000
0000
,
0001
0000
0000
0000
,
1000
0000
0000
0000
,
0010
0000
0000
0000
,
0100
0000
0000
0000
,
0001
0000
0001
0000
,
1000
0000
1000
0000
,
0001
0000
1000
0000
,
0001
0001
0001
0000
,
1000
0000
1000
0000
,
0001
0000
0001
0000
,
1000
0000
0001
0000
,
1000
1000
1000
0000
,
0000
0000
0000
0000
,
0010
0000
0000
0000
,
0100
0000
0000
0000
,
0010
0000
0100
0000
,
0010
0000
0000
0000
,
0100
0000
0000
0000
,
0010
0000
0000
0000
,
0100
0000
0010
0000
,
0100
0000
0000
0000
,
0110
0000
0001
0000
,
1000
0000
0001
0000
,
1000
0000
1000
0000
,
0001
0000
0001
0000
,
1001
0000
1000
0000
,
0001
0000
1000
0000
,
0001
0000
0001
0000
,
1000
0000
1000
0000
,
0001
0000
0001
0001
,
0000
0001
0001
0000
,
1000
0000
1000
1000
,
0000
1000
1000
0000
,
0010
0000
0010
0010
,
0000
0010
0010
0000
,
0100
0000
0100
0100
,
0000
0100
0100
0000
,
0010
0000
0000
0000
,
0010
0000
0000
0000
,
0100
0000
0000
0000
,
0100
0000
0000
0000
,
1000
0000
0000
0000
,
0001
0000
0000
0000
,
1000
0000
0000
0000
,
0001
0000
0000
0000
;

//--------------- dance-single - BASIC ----------------
#NOTES:
     dance-single:
     BASIC:
     Easy:
     3:
     0,0,0,0,0:
0000
0000
0000
0000
,
0000
0000
0000
0000
,
0001
0000
0001
0000
,
1000
0000
1000
0000
,
0010
0100
0010
0000
,
0100
0010
0100
0000
,
0010
0000
0100
0000
,
0001
1000
0001
0000
,
0010
0000
0100
0000
,
1000
0001
1000
0000
,
0001
0000
1000
0000
,
0100
0010
0100
0000
,
1000
0000
0001
0000
,
0100
0010
0100
0000
,
1001
0000
0000
0000
,
0001
0000
0100
0000
,
0001
1000
0001
0000
,
1000
0000
0010
0000
,
0100
0000
0001
0000
,
1000
0000
0001
0000
,
1000
0010
1000
0000
,
0001
0000
0100
0000
,
0010
0000
1000
0000
,
1001
0000
0001
0000
,
0100
0010
0100
0000
,
0010
0000
1000
0000
,
0010
0100
0010
0000
,
0110
0000
1000
0000
,
0001
1000
0001
0000
,
0010
0000
0001
0000
,
1000
0001
1000
0000
,
0010
0100
0010
0100
,
0000
0001
0001
0001
,
0100
0010
0100
0010
,
0000
1000
1000
1001
,
0001
1000
0001
1000
,
0000
0010
0010
0010
,
1000
0001
1000
0001
,
0000
0100
0100
0000
,
0001
0000
0100
0100
,
1000
0000
0010
0000
,
1000
0000
0100
0100
,
0001
0000
0010
0000
,
0100
0000
0001
0000
,
0100
0000
1000
0000
,
0001
1000
0001
0000
,
1000
0000
0001
0000
;

//--------------- dance-single - TRICK ----------------
#NOTES:
     dance-single:
     TRICK:
     Medium:
     5:
     0,0,0,0,0:
0000
0000
0000
0000
,
0000
0000
0000
0000
,
0001
0000
0000
0000
1000
0000
0000
0000
0001
0000
0000
0001
0000
0000
0000
0000
,
1000
0000
0000
0000
0001
0000
0000
0000
1000
0000
0000
1000
0000
0000
0000
0000
,
0010
0000
0100
0010
0000
0000
0100
0000
,
0010
0100
0000
0110
0000
0000
0000
0000
,
0010
1000
0100
1000
,
0001
0100
0001
0000
1000
0000
0001
0000
,
0010
0001
0100
0001
,
1000
0001
1000
0000
0001
0000
1000
0000
,
0100
1000
0010
0000
0100
0000
0110
0000
,
0100
0001
0010
0000
0100
0000
0110
0000
,
0010
0000
0001
1000
0000
0001
1000
0000
,
0100
1000
0000
0010
0000
0100
0001
0000
,
1001
0000
0000
0000
0000
0000
0000
0000
0100
0000
0000
0100
0000
0000
0000
0000
,
1001
0010
0100
0001
,
1000
0100
1000
0000
0001
0000
0000
0000
,
0001
1000
0010
0100
,
0001
0100
0001
0000
1000
0000
0000
0000
,
1100
1000
0010
0100
,
0001
1000
0001
0000
0010
0000
0000
0000
,
0001
0000
0100
0010
0100
0000
0001
0000
,
1000
0000
0000
0000
0100
0000
0010
0000
0100
0000
0000
0100
0000
0000
0000
0000
,
0110
0010
0001
0001
,
0100
0010
1000
1000
,
0001
0100
0001
0000
1000
0000
0001
0000
,
1000
0100
1000
0000
0001
0000
1000
0000
,
0010
0100
0010
0000
1000
0000
1000
0000
,
0100
0010
0100
0000
0001
0000
0001
0000
,
1000
1001
0001
0010
,
0001
1001
1000
0100
,
0010
0100
0010
0000
0001
0000
0100
0000
,
0001
1000
0010
1000
,
0100
0010
0100
0000
1000
0000
0010
0000
,
0100
0000
0001
0100
0001
0000
0100
0000
,
0010
0000
1000
0100
1000
0000
0010
0000
,
0100
0001
1000
0100
,
0010
0000
0001
0100
0001
0000
0010
0000
,
0001
1100
0101
1000
,
0001
0000
0000
0000
1000
0000
0000
0000
0100
0000
0000
0100
0000
0000
0000
0000
,
1000
0010
0100
0001
,
1000
0000
0000
0000
0001
0000
0000
0000
0100
0000
0000
0100
0000
0000
0000
0000
,
0010
0000
0100
0000
0010
0000
0000
1000
,
1000
0000
0000
0000
0000
0000
0000
0000
0001
0000
0000
0001
0000
0000
0000
0000
,
0010
0001
0100
0000
,
0001
0000
0000
0000
0000
0000
0000
0000
1000
0000
0000
1000
0000
0000
0000
0000
,
0010
0100
0010
0000
;

//--------------- dance-single - MANIAC ----------------
#NOTES:
     dance-single:
     MANIAC:
     Hard:
     8:
     0,0,0,0,0:
0000
0000
0000
0000
,
0000
0000
0000
0000
,
0001
0000
0100
0000
0001
0000
0100
0000
0010
0000
0000
0010
0000
0000
0010
0000
,
1000
0000
0100
0000
1000
0000
0100
0000
0010
0000
0000
0100
0000
0000
0010
0000
,
0001
0000
1000
0000
0001
0000
1000
0000
0010
0000
0000
0010
0000
0000
0010
0000
,
1000
0000
0001
0000
0100
0000
0010
0000
0100
0000
0000
0010
0000
0000
0100
0000
,
0001
0000
0010
0000
0001
0000
1000
0000
0100
0000
0000
0100
0000
0000
1000
0000
,
0010
0000
0100
0000
0001
0000
0100
0000
0010
0000
0000
1000
0000
0000
0010
0000
,
1000
0000
0010
0000
1000
0000
0001
0000
0100
0000
0000
0100
0000
0000
0001
0000
,
1000
0000
0100
0000
0001
0000
0100
0000
1000
0000
0000
0010
0000
0000
1000
0000
,
0001
0000
0010
0000
0001
0000
1000
0000
0100
0000
0000
0100
0000
0000
1000
0000
,
0010
0000
0100
0000
0001
0000
0100
0000
0010
0000
0000
0100
0000
0000
0010
0000
,
1000
0000
0010
0000
1000
0000
0001
0000
0100
0000
0000
0100
0000
0000
0001
0000
,
0010
0000
0100
0000
1000
0000
0100
0000
0010
0000
0000
0100
0000
0000
0010
0000
,
0110
0000
0000
0000
0000
0000
0000
0000
0010
0100
0010
0100
0000
0000
0000
0000
,
1001
0000
0000
0000
1000
0000
0000
0100
0000
0000
1000
0000
0001
0000
0000
0000
,
0100
0000
0001
0000
0010
0000
0000
0010
0000
0000
0110
0000
0000
0000
0100
0000
,
1000
0000
0000
0000
0001
0000
0000
0100
0000
0000
0001
0000
1000
0000
0000
0000
,
0100
0000
1000
0000
0010
0000
0000
0010
0000
0000
0110
0000
0000
0000
0100
0000
,
0101
0000
0000
0000
0001
0000
0000
0010
0000
0000
0001
0000
1000
0000
0000
0000
,
0100
0000
0010
0000
0001
0000
0000
0001
0000
0000
1001
0000
0000
0000
0000
0000
,
1000
0100
0010
0001
0000
0001
1000
0001
,
0010
0000
0000
0000
0100
0000
1000
0000
0001
1000
0000
0001
1000
0000
0001
0000
,
1001
0000
1000
0000
0010
0000
1000
0000
0100
0000
0000
0100
0000
0000
1000
0000
,
0010
0000
0100
0000
0001
0000
0100
0000
0010
0000
0000
1000
0000
0000
0100
0000
,
1000
0000
0001
0000
0010
0000
0001
0000
0100
0000
0000
0100
0000
0000
0001
0000
,
0010
0000
0100
0000
1000
0000
0100
0000
0010
0000
0000
0001
0000
0000
0100
0000
,
0110
0000
0010
0000
1000
0000
0100
0000
1000
0000
0000
1000
0000
0000
0001
0000
,
0100
0000
0001
0000
0010
0000
0100
0000
1000
0000
0000
0001
0000
0000
1000
0000
,
0100
1000
0010
0100
0000
0100
0001
0010
,
0100
0000
1000
0000
0000
0000
0001
0000
0100
0010
0000
0100
0010
0000
1000
0000
,
1001
0001
0010
0001
0100
0000
0110
0000
,
0010
0000
0000
0000
1000
0000
0000
0100
1000
0000
0001
0000
0100
0000
0000
0000
,
0001
1000
0010
1000
0100
0000
0110
0000
,
0010
0000
0001
0000
0100
0000
0000
0100
0001
0000
0010
0000
0100
0000
0000
0000
,
0110
0100
1000
0010
0100
0000
0101
0000
,
0001
0000
0000
0000
1000
0000
0000
0100
1000
0000
0010
0000
0100
0000
0000
0000
,
0110
0100
0001
0010
0100
0000
1100
0000
,
1000
0000
0000
0000
0001
0000
0000
0100
0001
0000
1000
0000
0100
0000
0000
0000
,
0110
0000
0000
0000
0010
0000
0001
0000
0100
0000
0000
0100
0000
0000
0100
0000
,
0001
0000
1000
0000
0100
0000
1000
0000
0010
0000
0000
1000
0000
0000
0010
0000
,
0100
0000
0100
0000
0010
0000
1000
0000
0100
0000
0000
0100
0000
0000
0100
0000
,
0010
0000
0100
0000
1000
0000
0100
0000
0010
0000
0000
0001
0000
0000
1000
0001
,
1000
0000
0010
0000
1000
0000
0100
0000
0010
0000
0000
0010
0000
0000
0010
0000
,
0001
0000
0100
0000
0001
0000
1000
0000
0100
0000
0000
1000
0000
0000
1000
0000
,
0001
0000
0010
0000
0001
0000
0100
0000
0010
0000
0000
0010
0000
0000
0010
0000
,
1000
0000
0001
0000
1000
0000
0001
0000
0010
0000
0000
0100
0000
0000
0000
0000
;

//--------------- dance-double - D-BASIC ----------------
#NOTES:
     dance-double:
     D-BASIC:
     Easy:
     3:
     0,0,0,0,0:
00000000
00000000
00000000
00000000
,
00000000
00000000
00000000
00000000
,
00001000
00000000
00100000
00000000
,
00001000
00000000
00010000
00000000
,
00000010
00000000
00010000
00000000
,
00001000
00000000
00011000
00000000
,
00100000
01000000
00100000
00000000
,
00010000
10000000
00010000
00000000
,
01000000
00000000
00001000
00000000
,
00010000
00000100
00010000
00000000
,
00000100
00000010
00000100
00000000
,
00001000
00000001
00001000
00000000
,
00000100
00000000
00010000
00000000
,
00001000
00100000
00001000
00000000
,
00011000
00000000
00000000
00000000
,
00010000
00000000
01000000
00000000
,
10000000
01000000
10000000
00000000
,
00010000
00000000
00100000
00000000
,
00001000
00000000
00010000
00000000
,
00001000
00000000
00000100
00000000
,
00000001
00000100
00000001
00000000
,
00001000
00000000
00000010
00000000
,
00010000
00000000
00001000
00000000
,
00011000
00000000
00001000
00000000
,
00100000
00100000
01000000
00000000
,
10000000
00000000
00100000
00000000
,
01000000
01000000
00001000
00000000
,
00011000
00000000
00010000
00000000
,
00000100
00000100
00000010
00000000
,
00000001
00000000
00000100
00000000
,
00000010
00000010
00010000
00000000
,
00001000
00010000
00001000
00010000
,
00000000
00000010
00000010
00000010
,
00010000
00001000
00010000
00001000
,
00000000
00010000
00010000
00011000
,
00010000
00001000
00010000
00001000
,
00000000
01000000
01000000
01000000
,
00001000
00010000
00001000
00010000
,
00000000
00001000
00001000
00000000
,
00100000
00000000
00001000
00001000
,
00010000
00000000
00010000
00000000
,
00000010
00000000
00010000
00010000
,
00001000
00000000
00001000
00000000
,
00100000
00000000
00010000
00010000
,
10000000
00000000
01000000
00000000
,
00010000
00000000
00001000
00010000
,
00001000
00000000
00010000
00000000
;
