#TITLE:TIMBER;
#SUBTITLE:;
#ARTIST:PITBULL AND KE$HA;
#TITLETRANSLIT:;
#SUBTITLETRANSLIT:;
#ARTISTTRANSLIT:;
#GENRE:;
#CREDIT:DDR Funny Mix 2;
#MUSIC:Timber.ogg;
#BANNER:;
#BACKGROUND:;
#CDTITLE:;
#SAMPLESTART:0.000;
#SAMPLELENGTH:0.000;
#SELECTABLE:YES;
#OFFSET:-1.640;
#BPMS:0.000=130.000;
#STOPS:;
#BGCHANGES:;
#FGCHANGES:;

//--------------- dance-single - ----------------
#NOTES:
     dance-single:
     :
     Beginner:
     2:
     0,0,0,0,0:
0000
0000
0000
0000
,
0000
0000
0000
0000
,
0000
0000
0000
0000
,
0000
0000
0000
0000
,
0100
0000
0000
0000
,
0001
0001
0000
0000
,
0010
0000
0000
0000
,
0100
0000
0000
0000
,
0010
0000
0000
0000
,
1000
1000
0000
0000
,
0001
0000
1000
0000
,
0001
0000
1000
0000
,
0100
0000
0000
0000
,
0100
0000
0100
0000
,
0010
0000
0000
0000
,
0010
0000
0010
0000
,
0001
0000
0000
0000
,
0001
0000
1000
0000
,
1000
0000
0000
0000
,
1000
0000
0001
0000
,
1001
0000
0000
0000
,
0001
0000
0000
0000
,
1001
0000
0000
0000
,
1000
0000
0000
0110
,
0000
0001
0000
0110
,
0000
1000
0000
0110
,
0000
0100
0000
0100
,
0000
0010
0000
0110
,
0000
0000
0001
0001
,
0000
0000
0100
0100
,
0000
0000
1000
1000
,
0000
0000
0100
0100
,
0000
0000
1000
1000
,
0000
0000
0100
0100
,
0000
0000
0001
0001
,
0000
0000
0100
0100
,
0100
0000
0000
0000
,
0001
0000
1000
0000
,
0010
0000
0000
0000
,
1000
0000
0001
0000
,
0010
0000
0000
0000
,
0100
0000
0100
0000
,
0010
0000
0000
0000
,
1001
0000
0000
0000
,
0100
0100
0100
0000
,
0001
0000
0000
0000
,
0100
0100
0100
0000
,
1000
0000
0000
0000
,
0010
0000
0001
0000
,
0010
0000
1000
0000
,
1001
0000
0000
0000
,
0000
0000
0000
0000
,
0001
0001
0001
0000
,
1000
0000
0001
0000
,
1000
1000
1000
0000
,
0001
0000
1000
0000
,
0010
0010
0010
0000
,
0100
0000
0010
0000
,
0100
0100
0100
0000
,
0010
0000
0000
0000
,
0100
0000
0000
0000
;

//--------------- dance-single - ----------------
#NOTES:
     dance-single:
     :
     Easy:
     3:
     0,0,0,0,0:
0000
0000
0000
0000
,
0000
0000
0000
0000
,
0000
0000
0000
0000
,
0000
0000
0000
0000
,
0001
0000
0001
0010
,
0001
1000
0100
0000
,
1000
0000
1000
0010
,
1000
0001
0010
0100
,
0001
0000
0100
0000
,
1000
0000
0010
0000
,
1000
0001
0001
1000
,
0100
0010
0001
1000
,
2000
0000
3000
0000
,
0100
1000
0001
0000
,
0002
0000
0003
0000
,
1000
0000
0001
0000
,
0200
0000
0300
0000
,
0010
0000
1000
0001
,
0020
0000
0030
0000
,
2002
0000
3003
0000
,
0001
0000
0001
0100
,
1000
0000
1000
0100
,
0001
0000
0010
0000
,
0001
1000
0100
1001
,
1000
0000
2000
3100
,
0001
0000
0002
0103
,
0010
0000
1000
0000
,
0001
0100
0010
1001
,
1000
0100
0010
0010
,
0001
0100
0010
0010
,
1000
0000
0001
0000
,
1000
0001
1000
0001
,
0010
0001
1000
0000
,
0010
1000
0001
0000
,
0100
0000
0001
0000
,
1000
0000
0100
0100
,
0200
0000
0300
0000
,
1000
0001
2000
0000
,
3020
0000
0030
0000
,
0001
1000
0002
0000
,
0023
0000
0030
0000
,
0001
1000
0001
0000
,
0200
0000
0300
0000
,
0220
0000
0330
0000
,
0100
0100
0100
0000
,
0001
1000
0100
0000
,
0010
0000
0001
0000
,
1000
0000
0010
0000
,
0010
0010
0010
0000
,
1000
0001
1000
0001
,
2000
0000
3002
0000
,
0023
0000
0000
0030
,
1001
0000
0001
0000
,
1000
0100
1000
0000
,
0010
0000
0001
0100
,
0001
0000
0010
0000
,
0001
0100
0100
0000
,
1000
0010
0010
0000
,
1000
0001
0110
0000
,
0100
0100
0001
0000
,
0200
0000
0300
0000
;

//--------------- dance-single - ----------------
#NOTES:
     dance-single:
     :
     Medium:
     5:
     0,0,0,0,0:
0000
0000
0000
0000
,
0000
0000
0000
0000
,
0000
0000
0000
0000
,
0000
0000
0000
0000
,
0001
0000
1000
0000
0001
1000
0100
0000
,
0010
1000
0010
0000
0100
0000
0001
0000
,
1000
0000
0100
0000
0100
0010
0001
1000
,
0002
0000
0100
0000
0003
0001
1000
0001
,
1000
0000
0100
0000
1000
0010
1000
0000
,
0100
0010
0001
0000
0010
0000
0001
0000
,
1000
0010
0100
0001
,
2000
0100
3010
0100
,
0101
0001
1000
0010
,
0000
1000
0100
0010
0200
0000
1300
0000
,
0110
0001
0110
1000
,
0001
0010
0100
1000
0200
0000
0310
0000
,
0001
1000
0001
0000
0100
0010
1000
0000
,
0100
1000
0001
0000
0200
0000
0300
0000
,
0001
0011
1000
1010
,
0100
0000
0001
0000
1000
0100
0100
0000
,
1000
0010
0100
0000
0100
0000
0001
0000
,
0001
0010
0100
0000
0100
0000
1000
0000
,
0010
1010
0100
0101
,
0001
0010
0001
1000
0100
0000
1001
0000
,
1000
0100
0010
0011
,
0001
0100
0010
1010
,
1000
0100
0001
0100
,
0001
1000
0100
1000
0001
0000
0110
0000
,
0001
0000
0001
0000
1000
0100
0010
0000
,
0100
1000
0001
0000
0100
0001
1000
0000
,
0010
1000
0001
0100
,
0001
1001
1000
0100
,
1000
0000
1000
0000
0001
0100
0010
0000
,
0010
1000
0001
0000
0010
0001
1000
0000
,
0100
1000
0001
0010
,
0010
0110
1000
0001
,
0200
0000
0301
0010
,
0001
1000
0100
0000
0100
0000
1000
0000
,
0020
0000
1030
0001
,
1000
0010
1000
0001
0010
0000
0100
0000
,
0020
0000
0130
1000
,
0001
0100
0001
0000
0001
0000
1000
0000
,
0020
0000
1030
0100
,
1000
0001
0010
0000
0100
0010
0001
0000
,
0200
0010
0310
1000
,
1001
0000
0001
0000
0010
0001
1000
0000
,
0200
1000
1300
0010
,
0200
0000
0001
0000
0301
1000
0100
0000
,
0020
0001
0031
1000
,
0001
0000
0101
0000
1000
0001
1000
0000
,
0020
1000
1030
0100
,
2002
0000
3003
0000
,
0001
0001
1001
0000
,
0001
0000
1000
0000
0100
0010
0100
0000
,
1000
1000
1001
0010
,
0001
0100
0010
0000
0001
1000
0100
0000
,
1000
0010
0011
0000
,
0001
0100
0010
0000
1010
0000
0000
0000
,
1000
0000
0100
0000
0010
0001
0010
0000
,
0001
1000
0100
0000
1000
0000
0001
0000
,
0200
0000
0300
0000
;

//--------------- dance-single - ----------------
#NOTES:
     dance-single:
     :
     Hard:
     8:
     0,0,0,0,0:
0000
0000
0000
0000
,
0000
0000
0000
0000
,
0000
0000
0000
0000
,
0000
0000
0000
0000
,
1001
0000
0001
1000
0100
0000
1000
0010
,
0100
0001
0010
0001
1000
0100
0010
0000
,
1100
0000
1000
0010
0100
0001
1000
0000
,
0101
0000
0001
1000
0000
0100
1000
0001
,
0010
0000
0100
1000
0010
0000
0001
1000
,
0001
0010
0100
0010
0001
0000
1010
0000
,
0011
0000
0100
0001
1000
0000
0010
0010
,
1000
0001
0000
0100
0001
1000
0100
2000
,
0000
0000
0000
0000
3010
0000
1000
0000
0100
0000
0000
0100
1000
0000
0001
0000
,
0000
1000
0100
1000
0002
0000
0013
0001
,
0000
0000
0001
0000
1000
0000
0100
0000
0010
0000
0001
0000
1000
0100
1000
0000
,
0001
0100
0001
0000
0010
0000
0001
0000
1000
0000
0000
0000
0100
0000
1000
0000
,
2100
0000
0000
0000
3010
0000
0100
0000
0001
0000
0000
0001
1000
0000
0001
0000
,
1000
0100
0010
0100
2000
0000
3001
0000
,
0001
0000
0010
0000
0001
0000
1000
0000
0100
0000
0001
0000
0100
0010
0100
0000
,
1000
0001
1000
0000
0001
0000
0001
0000
0020
0000
0000
0000
0130
0000
0000
0000
,
1000
0000
0010
0000
1001
0000
0000
0000
0001
1000
0001
0000
0200
0000
0000
0000
,
0301
0000
0010
0000
0110
0000
0000
0000
0100
0010
0100
0000
2000
0000
0000
0000
,
3010
0000
1000
0000
0010
0000
0000
0000
0100
0000
0001
0100
0001
0000
1000
0000
,
0100
0000
0010
0000
0001
0000
1000
0100
0000
0000
0000
0000
2002
0000
3003
0000
,
1000
0010
1000
0000
0001
0000
0100
0000
0001
0000
0000
0000
0022
0000
0033
0000
,
0001
0010
0100
0000
0010
0000
0001
0000
1000
0000
0000
0000
2200
0000
3300
0000
,
0010
1000
0010
0000
0100
0000
0001
0000
0010
0000
0001
0000
1000
0000
0100
1000
,
0000
0001
0100
0000
0001
0000
0010
0100
0000
0000
0000
0000
0220
0000
0330
0000
,
0100
1000
0020
0000
0130
0001
2000
0000
,
3001
0000
0010
0001
0010
0000
0100
0000
1000
0000
0010
1000
0010
0000
0000
0000
,
0100
0001
0101
0000
1000
0010
1010
0000
,
1000
0000
1000
0001
0010
0000
0001
0000
0100
0000
0010
0000
1000
0000
0000
0000
,
0100
0010
0200
0000
0310
0100
0020
0000
,
0031
0000
0010
0001
0010
0000
0100
0000
1000
0000
0010
1000
0010
0000
0000
0000
,
1000
0100
0001
0000
1000
0010
0001
0000
,
0010
0000
0001
1000
0001
0000
0100
0000
0020
0000
0000
0000
1000
0000
0000
0000
,
0230
0000
0301
0010
0001
1000
0100
0010
,
0001
0000
2000
0000
0010
0000
0000
0000
3001
0000
0100
0001
1000
0000
0001
0000
,
0020
0000
0031
1000
0100
1000
0010
0000
,
0101
0000
0010
1000
1100
0000
1000
0001
,
0002
0000
1003
0000
0100
1000
0010
1000
,
0001
0000
0200
0000
0010
0000
0000
0000
0310
0000
1000
0010
1000
0000
0001
0100
,
0001
0000
0000
0001
1000
0000
0100
0000
1000
0000
0010
0000
0100
0000
0001
0000
,
0010
0010
0001
0001
1000
1000
0010
1000
,
0200
0000
0310
0001
0200
0000
0301
1000
,
0010
2000
0100
0000
3001
0010
0001
1000
,
0002
0000
0103
0001
1000
0100
0010
0001
,
2000
0000
0000
0000
3100
0000
0000
0000
1000
0010
1000
0000
0001
0000
0100
0000
,
0002
0000
1003
0100
2000
0010
3010
1000
,
0001
0020
0001
0000
0130
0010
0100
1000
,
1100
0000
0101
0000
0010
0001
1000
0010
,
0200
0000
0000
0300
,
0011
0000
1001
1000
0200
0000
1300
0010
,
0100
0001
0010
0100
2000
0000
3001
0010
,
0002
0000
0103
0010
1010
0000
0110
0000
,
0100
0001
1000
0001
0020
0000
0031
0000
,
1000
0010
1000
0000
0001
0000
0100
0000
0010
0000
0010
0000
1000
0000
0001
0000
,
0100
0002
1000
0000
2003
0010
0000
3100
,
0010
0000
0001
0010
0001
0000
1000
0000
0100
1000
0100
0000
1000
0000
0010
0000
,
0100
0001
0010
0100
1000
0010
0101
0000
,
2020
0000
3030
0000
;

//--------------- dance-single - ----------------
#NOTES:
     dance-single:
     :
     Challenge:
     9:
     0,0,0,0,0:
0000
0000
0000
0000
,
0000
0000
0000
0000
,
0000
0000
0000
0000
,
0000
0000
0000
0000
,
1001
0000
0000
0001
0010
0000
0001
0000
1000
0000
0100
0000
0100
1000
0010
0000
,
0100
0000
0001
0000
1000
0000
0000
0000
0010
0000
1000
0010
0100
0000
0001
1000
,
0001
0000
0010
0000
0001
0000
1000
0000
0000
0000
0100
1000
0001
0000
0010
0000
,
0110
0010
0001
1000
0100
1100
0010
0011
,
0010
0000
0000
0001
0010
0000
0001
0000
1000
0010
1000
0000
0010
1000
0010
0000
,
0100
0000
0001
0000
1001
0000
0000
0000
0100
1000
0010
0000
1000
0000
0001
0000
,
0100
0001
0000
0000
0011
0000
0001
1000
0000
0000
0100
1000
0001
0000
0100
0000
,
0010
0000
1000
0000
0010
0000
0001
0000
0010
0000
1000
0000
0100
0010
0000
0000
,
0011
0000
0000
0001
0010
0000
0001
0010
0100
0000
0010
0000
0100
1000
0001
0000
,
1000
0000
0010
0000
0100
0001
0100
0000
0001
0000
0000
0000
1000
0010
0100
0000
,
0110
0000
0100
0000
0001
0010
0001
0000
1000
0100
1000
0000
0100
0010
0001
0000
,
1000
0000
0010
0100
0001
0000
1000
0000
0100
0000
0000
0000
0010
0000
0001
0000
,
1010
0000
0000
0010
1000
0000
0100
1000
0001
0000
0010
0000
0001
0000
0100
0000
,
0010
0100
0001
0000
1000
0100
0010
0000
0100
0000
1000
0000
1001
0000
0001
0000
,
0010
0000
0001
0100
0010
0000
1000
0100
0010
0000
0100
1000
0010
0000
0100
0001
,
0010
0000
0001
0000
1000
0100
0010
0000
0011
0000
0010
0000
1100
0000
0000
1000
,
0010
0100
0001
0010
0000
0010
0001
1000
0100
1000
0000
0000
1100
0000
0010
0000
,
0100
0010
0001
1000
0000
1000
0001
0100
0010
1000
0000
0000
0101
0000
0010
0000
,
0010
0100
0001
0000
0011
0000
0010
0001
1000
0100
1000
0000
1010
0000
0000
1000
,
0001
0010
0001
1000
0100
0000
0010
0001
0000
1000
0010
0000
0110
0000
0110
0000
,
0100
0000
0001
0010
0000
0001
0100
0000
0001
0010
0000
0000
0011
0000
0011
0000
,
0100
0000
1000
0010
0000
1000
0100
0000
1000
0010
0000
0000
1010
0000
1010
0000
,
1000
0001
0010
0000
0001
0000
0100
0001
1000
0100
0010
0000
0100
1000
0001
1000
,
0000
0000
0100
1000
0001
0010
0100
0010
0001
0000
1000
0000
1001
0000
1001
0000
,
0010
0000
1000
0000
1100
0000
1000
0001
0100
0000
0001
0000
0101
0000
0000
0000
,
0010
0000
1000
0010
1000
0000
0001
0000
0100
0000
0001
0100
0001
0000
0000
0000
,
0011
0000
0001
1000
0100
0000
1000
0000
1010
0000
0100
0010
1000
0000
0010
0000
,
0100
0001
0010
0001
1000
0000
0100
0000
1010
0000
0100
0000
0011
0000
0000
0000
,
1000
0000
0100
0000
1100
0000
1000
0001
0100
0000
0001
0000
0101
0000
0000
0000
,
0010
0000
1000
0001
0010
0000
0100
0000
1000
0000
0001
0100
0001
0000
0010
0000
,
0011
0000
0010
0000
0110
0000
0100
0000
1100
0000
1000
0001
1000
0000
0100
0000
,
1000
0000
0010
1000
0001
0000
0100
0001
0010
0000
0100
0000
1100
0000
0010
0000
,
0101
0000
0000
0000
0100
0000
0000
0001
1000
0000
0100
0000
1000
0010
1000
0000
,
0001
0100
0001
0000
1000
0000
0000
0000
0001
0010
0100
0000
0010
0000
0100
1000
,
0001
0000
0000
1000
0001
0000
0010
0000
0001
0100
0010
0000
1000
0000
0100
0000
,
0110
0000
0000
0000
0011
0000
0010
0000
0110
0000
0010
0001
0010
0000
0100
0000
,
1000
0001
0000
0000
1000
0000
0010
1000
0001
0000
0100
0000
0001
1000
0100
0000
,
0010
0000
0011
0000
0010
0000
0000
0001
1000
0001
0100
0000
0010
1000
0100
0000
,
1000
0010
0000
0000
0110
0000
0100
0001
0010
0000
0001
0000
1000
0100
1000
0000
,
0001
0000
0000
0000
0000
0000
0000
0000
0000
0000
0000
0000
0010
0000
0000
0000
0000
0000
0000
0000
0000
0000
0000
0000
0000
0000
0000
0000
0000
0000
0000
0000
0000
0000
0000
0000
0001
0000
0000
0000
0000
0000
0000
0000
0000
0000
0000
0000
1000
0000
0000
0000
0000
0000
0000
0000
0000
0000
0000
0000
0000
0000
0000
0000
0000
0000
0000
0000
0000
0000
0000
0000
0100
0000
0000
0000
0000
0000
0000
0000
0000
0000
0000
0000
1000
0000
0000
0000
0000
0000
0000
0000
0000
0000
0000
0000
0010
0000
0000
0000
0000
0000
0000
0000
0000
0000
0000
0000
0100
0000
0000
0000
0000
0000
0000
0000
0000
0000
0000
0000
0001
0000
0000
0000
0000
0000
0000
0000
0000
0000
0000
0000
1000
0000
0000
0000
0000
0000
0000
0000
0000
0000
0000
0000
0100
0000
0000
0000
0000
0000
0000
0000
0000
0000
0000
0000
0000
0000
0000
0000
0000
0000
0000
0000
0000
0000
0000
0010
0010
0000
0000
0000
0000
0000
0000
0000
0000
0000
0000
0000
0000
0000
0000
0000
0000
0000
0000
0000
0000
0000
0000
0000
,
0011
0000
0000
0000
1100
0000
0010
0000
1100
0000
1000
0001
0010
0000
0001
0000
,
0100
0010
1000
0100
0010
0000
0000
0000
0010
0000
0001
1000
0001
0000
0100
0000
,
0110
0000
0000
0010
1000
0000
0001
1000
0100
0000
0010
0001
1000
0000
0100
0000
,
1000
0010
0100
0001
1000
0000
0001
0000
0011
0000
0010
0000
0001
1000
0100
0000
,
1000
0000
0000
0000
0010
1000
0001
0100
0001
0000
1000
0000
0100
0000
0010
0000
,
1010
0000
0110
0000
0100
0000
0000
0000
0001
0010
0000
0000
0001
1000
0100
0000
,
1000
0010
0100
0000
0001
0010
0100
0000
1000
0010
0100
0000
0001
0010
0100
0000
,
1000
0001
1000
0001
0010
0000
0100
0000
1000
0010
0100
0001
0010
0001
1000
0000
,
1100
0000
0000
0010
0010
0000
0001
1000
0001
0000
0100
0001
1000
0100
0010
0000
,
0001
0000
1000
0100
0010
0000
1000
0010
0001
0000
0100
0000
0101
0000
0001
0000
,
1000
0010
1000
0000
0100
0000
0010
0001
0010
0000
0100
1000
0100
0000
1000
0001
,
0100
0000
0001
1000
0100
0010
0001
0000
0011
0000
1000
0000
1010
0000
0100
0000
,
0001
0010
0001
1000
0001
0000
0100
0000
0010
0000
1000
0100
0010
0000
0100
0000
,
1000
0000
0101
0000
1001
0000
0010
0000
1001
0000
0000
0000
1000
0010
0100
0000
,
0001
1000
0010
0100
0001
0010
0001
0100
0010
1000
0100
0010
0100
1000
0001
0100
,
0010
0000
1000
0000
0100
1000
0001
0010
0100
0000
0010
0001
1000
0100
0100
0000
,
0110
0000
0000
0000
;

//--------------- dance-solo - ----------------
#NOTES:
     dance-solo:
     :
     Easy:
     3:
     0,0,0,0,0:
000000
000000
000000
000000
,
000000
000000
000000
000000
,
000010
000000
000000
000001
000000
000000
000000
000000
,
010000
000000
000000
100000
000000
000000
001000
000000
,
001000
000000
100000
000001
,
000100
000000
000000
000010
,
010000
000000
000000
000000
,
001000
000000
000100
000100
,
000010
000000
000000
000100
,
010000
000000
000000
000001
,
100000
000000
000000
000000
,
001000
000000
000000
000000
,
100000
000000
000100
000000
,
010000
000000
010000
000000
,
000001
000000
000100
000000
,
000010
000000
000010
000000
,
001000
000000
000001
000000
,
001000
000000
100000
000000
,
001100
000000
000000
000000
,
010000
000010
010000
000010
,
100000
000000
000000
000000
,
000010
010000
000010
010000
,
000001
000000
000000
000000
,
000100
000000
000000
100001
,
000001
000000
000000
010010
,
100000
000000
000000
010010
,
000010
000000
010000
000000
,
000010
000000
010000
100001
,
100000
000000
000010
010000
,
000001
000000
001000
001000
,
001000
000000
000001
100000
,
000001
000000
001000
001000
,
000001
000000
010000
000010
,
100000
000000
001000
001000
,
001000
000000
100000
000001
,
100000
000000
001000
001000
,
001000
000000
000000
010000
,
000010
000000
000000
000100
,
000100
000000
000000
000010
,
010000
000000
000000
000001
,
001000
000000
000000
100000
,
001000
000000
000000
010000
,
000100
000000
000000
000010
,
000100
000000
000000
000000
,
010010
000000
000001
000000
,
010010
000000
100000
000000
,
000001
000100
000010
000000
,
100000
000100
001000
000000
,
001000
001000
100000
100000
,
000001
000001
001000
001000
,
010010
000000
000000
000000
,
100001
000000
000000
000000
,
001000
100000
000100
100000
,
001000
100000
000100
000000
,
001000
000001
000100
000001
,
001000
000001
001000
000000
,
000100
010000
000010
000000
,
000100
000010
010000
000000
,
000100
100000
000001
001000
,
000100
000000
010010
000000
,
001000
000000
000000
000000
;
