#TITLE:Tiger Tribute;
#SUBTITLE:;
#ARTIST:The Latin Froz;
#TITLETRANSLIT:;
#SUBTITLETRANSLIT:;
#ARTISTTRANSLIT:;
#GENRE:;
#CREDIT:;
#MUSIC:Tiger Tribute.ogg;
#BANNER:Tiger Tribute-bn.png;
#BACKGROUND:;
#CDTITLE:cdtitle.png;
#SAMPLESTART:8.840;
#SAMPLELENGTH:12.000;
#SELECTABLE:YES;
#OFFSET:0.000;
#BPMS:0.000=105.000
,191.000=115.000
,191.500=105.000
,207.000=115.000
,207.500=105.000
;
#STOPS:;
#DISPLAYBPM:105.000;
#BGCHANGES:;
#FGCHANGES:;

//--------------- dance-single - 8Chasey ----------------
#NOTES:
     dance-single:
     8Chasey:
     Beginner:
     1:
     0,0,0,0,0:
0000
0000
0000
0000
,
0000
0000
0000
0000
,
0000
0000
0000
0000
,
0000
0000
0000
0000
,
0001
0000
0001
0000
,
1000
0000
0000
0000
,
1000
0000
1000
0000
,
0001
0000
0000
0000
,
0100
0000
0100
0000
,
0010
0000
0010
0000
,
0001
0001
0001
0000
,
1000
1000
1000
0000
,
0100
0000
0100
0000
,
0001
0000
1000
0000
,
0000
0001
0000
0001
,
0000
1000
0000
1000
,
0000
0010
0010
0010
,
0000
0010
0010
0010
,
0000
0100
0100
0100
,
0000
0100
0100
0100
,
0000
1001
0000
0000
,
0001
0000
1000
0000
,
0000
0010
0000
0000
,
1000
0000
0001
0000
,
0100
0100
0000
0100
,
0000
0100
0100
0000
,
0010
0010
0000
0010
,
0000
0010
0010
0000
,
0001
0001
0000
0000
,
1000
0000
0001
0000
,
1000
1000
0000
0000
,
0001
0000
1000
0000
,
0000
0001
0000
0001
,
0000
0010
0000
0010
,
0000
0100
0000
0100
,
0000
1000
0000
1000
,
1000
1000
0000
0000
,
0010
0010
0000
0001
,
0001
0001
0000
0000
,
0100
0100
0000
0000
,
0010
0000
1000
0000
,
0010
0000
0000
0000
,
0100
0000
0001
0000
,
0100
0000
0000
0000
,
0001
0001
0000
0000
,
1000
1000
0000
0000
,
0001
0000
0100
0000
,
0001
0000
0100
0000
,
1000
1000
0000
0000
,
0001
0001
0000
0000
,
1000
0000
0010
0000
,
1000
0000
0010
0000
,
0100
0000
0000
0000
;

//--------------- dance-single - 8Chasey ----------------
#NOTES:
     dance-single:
     8Chasey:
     Easy:
     4:
     0,0,0,0,0:
0000
0000
0000
0000
,
0000
0000
0000
0000
,
0000
0000
0000
0000
,
0000
0000
0000
0000
,
0001
1000
0001
0001
,
1000
0010
1000
0100
,
1000
0001
1000
1000
,
0001
0010
0001
0100
,
0000
1001
1000
0010
,
0200
0000
0310
0010
,
0001
0010
0001
0000
,
1000
0100
1000
0000
,
0020
0000
0030
0000
,
0100
0001
1000
1001
,
0000
0000
1000
0000
0000
0000
0001
1000
,
0000
0000
0001
0000
0000
0000
1000
0001
,
0000
0100
0100
0001
,
0000
0010
0010
1000
,
0000
0100
1000
0010
,
0000
0100
0001
0010
,
0000
0110
0010
0010
,
0000
0001
1000
0001
,
0000
0100
0100
0010
,
0000
1000
0001
1000
,
0002
0100
0000
0013
,
2000
0100
0000
3010
,
0200
0001
0000
0310
,
0020
1000
0000
0130
,
0001
0101
0000
0001
,
1000
0010
0000
0010
,
1000
1100
0000
1000
,
0001
0010
0000
0010
,
0001
0010
0001
0000
,
0010
0010
0001
0000
,
1000
0010
1000
0000
,
0010
0010
1000
0000
,
0200
1000
0000
1300
,
0010
1000
0001
0000
,
0200
0001
0000
0301
,
0010
0001
1000
0000
,
0200
0000
0000
0000
,
0300
0000
0000
0000
,
0020
0000
0000
0000
,
0030
0100
0110
0010
,
0001
0001
0100
0000
,
0001
0001
0010
0000
,
0001
1000
0000
1000
,
0000
0010
0000
0010
,
1000
1000
0100
0000
,
1000
1000
0010
0000
,
1000
0001
0000
0001
,
0000
0010
0000
0010
,
0200
0000
0000
0000
,
0300
0000
0000
0000
;

//--------------- dance-single - 8Chasey ----------------
#NOTES:
     dance-single:
     8Chasey:
     Medium:
     5:
     0,0,0,0,0:
0000
0000
0000
0000
,
0000
0000
0000
0000
,
0010
0010
0000
2000
0000
0000
3001
0000
,
0010
0001
1000
0010
0100
0100
0010
0000
,
1000
0001
2000
0000
3001
0100
0001
0000
,
0010
0001
0100
0000
0010
0010
1000
0000
,
0100
1000
0100
0001
0200
0000
0310
0000
,
0001
1000
0020
0000
0130
0000
1001
0000
,
2000
0000
3002
0000
0103
0001
1000
0010
,
0100
0000
0110
0000
0001
1000
0100
0100
,
2000
0000
0010
0000
0001
0000
3001
1000
,
0002
0000
0010
0000
1000
0000
1003
0001
,
0100
0100
0000
0200
0000
0000
0300
0001
,
1000
0001
0000
1000
0001
1000
0000
0000
,
1010
0000
1000
0000
0001
1000
0001
0000
,
0011
0000
0001
0000
1000
0001
1000
0000
,
0020
0000
0130
0000
0100
0001
1000
0000
,
0100
0000
1001
0000
1000
0001
0010
0000
,
0001
0001
0010
0000
0001
1000
0100
0000
,
1000
1000
0010
0000
0100
0000
0110
0000
,
0001
0010
0002
0000
1003
0100
0010
0000
,
0100
0100
2000
0000
3010
0000
1001
0000
,
0100
0001
0010
0001
0000
1000
1100
0000
,
0100
1000
0010
1000
0000
0001
0101
0000
,
1000
1000
0010
1000
0000
0100
1000
0000
,
0001
0001
0010
0001
0000
0100
0001
0100
,
0010
0010
1000
0100
0000
1000
0001
0000
,
0010
0010
0001
0100
0000
0001
1000
0010
,
0010
0010
0200
0000
0301
1000
0001
0000
,
0010
0001
1000
0000
0100
0000
1000
0100
,
0010
0010
0200
0000
1300
0001
1000
0000
,
0010
1000
0010
0000
0000
0100
0001
0100
,
0010
0000
1010
0000
1000
0001
0100
0000
,
0001
0000
0101
0000
1000
0001
1001
0000
,
0010
0100
0110
0000
0100
1000
0010
0000
,
1000
0001
0100
1001
,
0001
0001
0002
1000
0000
0000
1003
0000
,
0010
1000
0001
0000
1000
0000
0100
0000
,
1000
1000
2000
0001
0000
0000
3001
0000
,
0010
0001
1000
0000
0001
0000
0100
0100
,
0020
0000
0000
0000
,
0030
0000
1000
0001
,
2002
0000
0000
3003
,
1000
0000
1001
0000
0001
0100
0001
0100
,
0010
0000
1000
0000
1000
0010
1000
0100
,
0010
0000
0001
0000
0001
0010
0001
0100
,
0001
1100
1000
0101
,
2000
0000
3010
1000
0002
0000
0103
0000
,
0010
0000
0001
0000
0001
0010
0001
0100
,
0010
0000
1000
0000
1000
0010
1000
0100
,
1000
0101
0001
1100
,
0002
0000
0013
0001
2000
0000
3100
0000
,
0020
0000
0000
0000
,
0030
0000
0000
0000
;

//--------------- dance-single - 8Chasey ----------------
#NOTES:
     dance-single:
     8Chasey:
     Hard:
     8:
     0,0,0,0,0:
0000
0000
0000
0000
,
0000
0000
0000
0000
,
0001
1000
0000
0101
0000
0100
0010
0000
,
0100
0010
0100
0010
0100
0000
0001
0000
1000
0001
1000
0000
0100
0000
0000
0000
,
0010
0000
0001
0000
0100
0000
0000
0000
0100
0001
0000
0001
1000
0000
0010
0000
,
1000
0100
1000
0000
0010
0000
0100
0000
0001
0000
0100
0000
0101
0000
0000
0000
,
0010
0001
0010
0000
0001
1000
0001
0000
1000
0000
0100
0000
1000
0000
0010
0000
,
0100
0000
0100
0000
0001
0000
0000
1000
0100
0000
1000
0000
1001
0000
0000
0000
,
1000
0000
0100
0000
0100
0000
1000
0000
0001
0010
0000
0001
0010
0000
0001
0000
,
0100
0000
0010
0100
0010
0000
1000
0000
0001
1000
0000
0001
1000
0000
0100
0000
,
2000
0000
0010
0000
0000
0000
0001
0000
0000
0001
0000
0000
3001
0000
1000
0000
,
0002
0000
0010
0000
0000
0000
1000
0000
0000
1000
0000
0000
1003
0000
0100
0000
,
0020
0000
0100
0000
0000
0000
0200
0000
0000
0000
0000
0000
0330
0000
0100
1000
,
0001
0200
0000
0010
0010
0320
0000
0130
,
0001
0000
0100
0000
0101
0000
1000
0000
0010
0000
1000
0000
0100
1000
0100
0000
,
1000
0000
0010
0000
1010
0000
1000
0001
0000
1000
0001
0000
0100
0000
0001
0000
,
0020
0000
0001
0000
0031
0000
0100
0001
0000
0100
0001
0000
1000
0000
0100
0000
,
1000
0000
0010
0000
0210
0000
0000
0001
0000
0301
0000
0100
0001
0000
0010
0000
,
0001
0000
1000
0000
0001
0000
1000
0100
0000
1000
0000
0010
1000
0000
0100
0000
,
1000
0000
0001
0000
0010
0000
0001
0000
0100
0000
0100
0002
0000
0000
0013
0000
,
0100
0000
1000
0000
1100
0000
0000
0000
1000
0000
1000
0010
0000
0000
1000
0000
,
0001
0000
0100
0001
0000
0000
0001
0000
1000
0000
0100
1000
0000
0000
1000
0000
,
0001
0000
0010
0000
0100
0000
0020
0000
0000
0130
1000
0000
0010
0000
0100
0000
,
0001
0000
1000
0000
1001
0000
0010
0001
0000
1000
0010
0000
0200
0000
0000
0000
,
0001
0000
0001
0000
0010
0000
0000
0001
0000
0000
0010
0000
0301
0000
1000
0000
,
0200
0000
1000
0000
1000
0000
0000
0010
0000
0000
1000
0000
1300
0000
0010
0000
,
2000
0000
0100
0000
0100
0000
0000
0001
0000
0000
0010
0000
3010
0000
1000
0000
,
0002
0000
0100
0000
0100
0000
0000
1000
0000
0000
0010
0000
0013
0000
0001
1000
,
0001
1000
2100
0000
0010
3010
1000
0010
,
0100
0000
0001
0000
0010
0000
0000
0001
0000
0000
0100
0000
0001
0000
1000
0001
,
1000
0001
0102
0000
0010
0013
0001
0010
,
0100
0000
1000
0000
0010
0000
0000
1000
0000
0000
0100
0000
1000
0000
0001
0010
,
0001
0010
0012
0000
1003
0010
1010
0000
,
1000
0000
0100
1000
0000
0100
1000
0000
0001
0000
0100
0001
0000
0100
0001
0000
,
0010
0001
1001
1000
0100
1000
1001
0000
,
0100
0000
0001
0100
0000
0001
0100
0000
0010
0000
1000
0010
0000
1000
0010
0000
,
0200
0000
0001
0000
0301
0000
0100
0000
0000
0001
1000
0000
0001
0000
1000
0000
,
0010
1000
0010
1000
0000
0000
0100
0000
0000
0000
1000
0000
0001
0000
0010
0000
,
0200
0000
1000
0000
1300
0000
0100
0000
0000
1000
0001
0000
1000
0000
0001
0000
,
0010
0001
0010
0001
0000
0000
0100
0000
0000
0000
0001
0000
1000
0000
0010
0000
,
0100
0100
0000
0200
0000
0000
0000
0000
,
0010
0000
0000
0000
0000
0000
0310
0000
0000
0100
0000
0000
0001
0000
1000
0000
,
0010
0010
0000
0020
0000
0000
0000
0000
,
0130
0000
0001
0000
1000
0000
0100
0000
1000
0001
1000
0000
0010
0000
0010
0000
,
0100
0000
0001
0000
0010
0001
0010
0000
0001
0000
1000
0100
0000
0000
1100
0000
,
1000
0000
0010
0000
1000
0001
1000
0000
0001
0000
0000
2002
0000
0000
3003
0000
,
0020
0001
0032
0000
2003
0010
3010
0100
,
0001
0100
0001
0000
1000
0000
0100
0000
1000
0000
0010
0000
1010
0000
0000
0000
,
0100
0000
1000
0000
0010
1000
0010
0000
1000
0000
0001
0100
0000
0000
0101
0000
,
0001
0000
0010
0000
0001
1000
0001
0000
1000
0000
0000
2002
0000
0000
3003
0000
,
0020
1000
2030
0000
3002
0010
0013
0100
,
1000
0100
1000
0000
0001
0000
0100
0000
0001
0000
0010
0000
0011
0000
0001
0000
,
0200
0000
0000
0000
,
0300
0000
0000
0000
;
