#VERSION:0.83;
#TITLE:Thrilling! Is this love?;
#SUBTITLE:(Sequel Mix);
#ARTIST:Tsunku;
#TITLETRANSLIT:;
#SUBTITLETRANSLIT:;
#ARTISTTRANSLIT:;
#GENRE:;
#ORIGIN:;
#CREDIT:;
#BANNER:;
#BACKGROUND:;
#PREVIEWVID:;
#JACKET:;
#CDIMAGE:;
#DISCIMAGE:;
#LYRICSPATH:;
#CDTITLE:;
#MUSIC:Thrilling! Is This Love (Sequel Mix).ogg;
#OFFSET:-0.025000;
#SAMPLESTART:77.750000;
#SAMPLELENGTH:15.000000;
#SELECTABLE:YES;
#BPMS:0.000=142.000;
#STOPS:;
#DELAYS:;
#WARPS:;
#TIMESIGNATURES:0.000=4=4;
#TICKCOUNTS:0.000=4;
#COMBOS:0.000=1;
#SPEEDS:0.000=1.000=0.000=0;
#SCROLLS:0.000=1.000;
#FAKES:;
#LABELS:0.000=Song Start;
#BGCHANGES:;
#KEYSOUNDS:;
#ATTACKS:
;

//---------------dance-single - ----------------
#NOTEDATA:;
#CHARTNAME:;
#STEPSTYPE:dance-single;
#DESCRIPTION:;
#CHARTSTYLE:;
#DIFFICULTY:Challenge;
#METER:9;
#RADARVALUES:0.622138,0.689411,0.429469,0.715782,0.146924,578.000000,521.000000,57.000000,95.000000,0.000000,0.000000,0.000000,0.000000,0.000000,0.622138,0.689411,0.429469,0.715782,0.146924,578.000000,521.000000,57.000000,95.000000,0.000000,0.000000,0.000000,0.000000,0.000000;
#CREDIT:;
#NOTES:
// measure 0
0000
0000
0000
0000
,  // measure 1
0000
0000
0000
0000
,  // measure 2
0000
0000
0000
0000
,  // measure 3
1100
0101
0110
1001
,  // measure 4
0001
0010
0010
0100
0010
0100
1000
1000
,  // measure 5
0010
0100
0010
2000
0001
0001
3001
0000
,  // measure 6
0100
0010
0100
0001
0100
0001
0001
0010
,  // measure 7
0100
1000
0100
0110
0000
0001
1001
0100
,  // measure 8
0010
0010
1000
0010
0100
0001
1000
1000
,  // measure 9
0010
0010
0100
0000
0010
1000
0100
0100
,  // measure 10
1000
0001
1000
0001
0010
0010
0001
0000
,  // measure 11
1000
0000
0001
0100
0010
0000
2000
0000
3001
0000
0000
0000
0110
0000
0000
0000
,  // measure 12
0210
0001
0010
1000
,  // measure 13
0320
0000
1030
0001
0100
1001
1001
0000
,  // measure 14
0001
0100
0010
0010
0100
1000
0100
0000
,  // measure 15
0110
0000
0000
0000
1001
0000
0000
0000
0010
0000
0001
1000
0100
0000
0010
0000
,  // measure 16
0120
0001
0100
1000
,  // measure 17
0032
0000
1003
0100
1000
0010
0110
0000
,  // measure 18
0001
0100
0010
0010
1000
0100
0010
0100
,  // measure 19
0010
0000
0001
1000
0010
0000
0100
0000
0001
0000
1000
0000
1001
0000
0000
0000
,  // measure 20
0010
0000
0100
0000
0102
0000
0000
0000
0023
0000
0000
0030
0200
0000
0302
0000
,  // measure 21
0203
2300
3020
0230
,  // measure 22
0301
0000
1000
0000
1001
0000
0000
0000
0110
0000
0010
0000
1000
0000
0001
0100
,  // measure 23
0010
0000
1000
0100
1000
0001
0010
0000
0200
0000
0300
0001
1000
0000
0100
0010
,  // measure 24
0100
0010
0102
0000
2003
3200
2300
3020
,  // measure 25
0130
0000
0001
0000
0010
0001
0010
0000
0100
0000
0010
0000
1100
0000
0000
0000
,  // measure 26
0001
0002
0010
0023
0100
0230
1000
2300
,  // measure 27
0002
3000
0010
0000
0100
0000
1003
0000
,  // measure 28
0210
0000
0001
0000
1300
0001
0010
0002
,  // measure 29
0103
0000
0010
0000
1000
0000
0010
0000
0100
0000
0001
0010
0100
0000
0010
0000
,  // measure 30
2000
0000
0100
0000
3100
0000
0010
0000
1020
0000
0030
0000
0100
0001
0010
0000
,  // measure 31
2200
0000
0000
0000
3300
0000
0001
0010
0002
0000
0000
0000
0003
0000
0100
0010
,  // measure 32
2000
0000
0000
0000
3100
0000
0010
0001
2000
0000
3100
0000
0020
0000
0130
0000
,  // measure 33
0001
0100
0010
1000
1100
0000
0101
0000
,  // measure 34
0010
1000
1010
0100
0010
0010
1001
0000
,  // measure 35
0202
0000
0000
0000
0303
0000
0010
0001
0200
0000
0000
0000
0300
0000
0010
1000
,  // measure 36
0002
0000
0000
0000
0013
0000
0100
1000
0020
0000
0130
0000
0002
0000
0103
0000
,  // measure 37
2000
3010
2000
3001
2000
3200
0310
0110
,  // measure 38
0001
0000
0001
0000
1000
0000
0100
0010
0100
1000
0001
0000
1001
0000
0000
0000
,  // measure 39
0022
0000
0000
0000
0033
0000
0100
0010
2000
0000
0000
0000
3000
0000
0100
0001
,  // measure 40
0020
0000
0130
1000
2100
0001
3001
0020
,  // measure 41
0200
0030
1300
0001
0010
0010
2001
0010
,  // measure 42
0100
0000
0000
0000
0010
0000
0000
0000
3100
0000
0000
0001
0100
0000
0010
0000
,  // measure 43
2100
0000
3020
0000
0130
0001
0101
0010
,  // measure 44
1000
0000
0100
0000
0020
0000
0100
0000
0100
0000
0000
1000
0000
0000
0130
0000
,  // measure 45
0001
0100
1000
0100
0001
0100
1000
0100
,  // measure 46
0010
0000
0000
0000
0110
0000
0000
0000
1100
0000
0000
0000
0011
0000
1000
0100
,  // measure 47
0010
0100
1000
2000
0001
0000
3010
0200
,  // measure 48
0320
2030
3200
2300
3010
0100
0101
0000
,  // measure 49
0010
0000
0100
0001
0010
0000
0100
0000
1000
0000
0001
0000
1001
0000
0010
0000
,  // measure 50
0200
0302
2003
3020
0100
0000
0130
0000
,  // measure 51
1000
0200
0010
0000
1300
0001
0100
0010
,  // measure 52
0010
1000
1010
0000
0001
0100
0101
0000
,  // measure 53
1000
1000
0001
0100
0010
0010
1010
0100
,  // measure 54
0001
0000
0001
0000
0010
0000
0001
1000
0100
0000
0100
0000
0110
0000
0000
0000
,  // measure 55
2000
3010
2000
3001
2000
3100
0020
0130
,  // measure 56
0002
0000
1000
1000
1003
0010
0110
1000
,  // measure 57
0002
0000
0013
0001
0100
0001
1000
0001
,  // measure 58
0100
0010
0110
1000
0100
0010
0011
0000
,  // measure 59
0002
0013
0002
1003
0002
0103
0020
0130
,  // measure 60
0001
0001
1000
0020
0100
0000
1030
0001
,  // measure 61
0020
0000
2030
0000
3001
0100
0110
0000
,  // measure 62
0001
0000
0010
0001
1000
0000
0010
1000
0001
0000
0010
0000
0110
0000
0000
0000
,  // measure 63
0001
0010
0002
0000
2003
0000
3100
0010
,  // measure 64
0100
0100
2001
0000
3020
0000
0230
0000
,  // measure 65
0301
0000
0010
0000
0001
0000
0100
0000
0100
0000
0010
0000
0110
0000
1000
0100
,  // measure 66
0010
0000
0100
0010
0001
0000
1000
0000
0100
1000
0001
0000
0010
0100
0010
0100
,  // measure 67
0001
0010
0010
0001
1000
1000
1001
0000
,  // measure 68
0010
0000
0100
0001
0010
0000
1000
0000
0100
0000
0010
0000
1100
0000
0000
0000
,  // measure 69
1000
2000
0001
3002
0010
0023
0100
0230
,  // measure 70
0001
0000
0320
0000
1030
0001
0100
0010
,  // measure 71
0020
0000
2030
0000
3001
0100
0010
0010
,  // measure 72
0110
0000
0000
0000
1000
0000
0001
0000
0010
0000
0010
0100
1000
0000
0001
0000
,  // measure 73
0100
0000
0010
1000
0002
0000
0100
0000
0103
0000
0010
0000
0110
0000
0000
0000
,  // measure 74
0001
0000
0010
0000
0010
0000
0100
1000
0100
0000
0001
0000
0101
0000
1000
0000
,  // measure 75
1020
0000
0000
0000
0130
0000
0001
0000
0010
0000
0010
0000
1000
0001
1000
0001
,  // measure 76
0020
0030
0000
0000
;
