#TITLE:They're Taking The Hobbits To Isengard;
#SUBTITLE:;
#ARTIST:Erwin Beekveld;
#TITLETRANSLIT:;
#SUBTITLETRANSLIT:;
#ARTISTTRANSLIT:;
#GENRE:;
#CREDIT:8Chasey 2025;
#MUSIC:They're Taking The Hobbits To Isengard.ogg;
#BANNER:;
#BACKGROUND:;
#CDTITLE:;
#SAMPLESTART:15.660;
#SAMPLELENGTH:12.000;
#SELECTABLE:YES;
#OFFSET:-0.161;
#BPMS:0.000=138.000;
#STOPS:;
#BGCHANGES:;
#FGCHANGES:;

//--------------- dance-single - 8Chasey ----------------
#NOTES:
     dance-single:
     8Chasey:
     Beginner:
     1:
     0,0,0,0,0:
0000
0000
0000
0000
,
0000
0000
0000
0000
,
0000
0000
0000
0000
,
0000
0000
0000
0000
,
0000
0000
0000
0000
,
0001
0000
0001
0000
,
0001
0000
0000
0000
,
1000
0000
1000
0000
,
1000
0000
0000
0000
,
0001
0000
1000
0000
,
0001
0000
0000
0000
,
1000
0000
0001
0000
,
1000
0000
0000
0000
,
0010
0000
0000
0000
,
0100
0000
0000
0000
,
0010
0000
0000
0000
,
0100
0000
0000
0000
,
0001
0000
1000
0000
,
0001
0001
0001
0000
,
1000
0000
0001
0000
,
1000
1000
1000
0000
,
0010
0000
0100
0000
,
0010
0000
0100
0000
,
0001
0000
1000
0000
,
1001
0000
0000
0000
,
1000
1000
1000
1000
,
1000
0000
1000
0000
,
0001
0001
0001
0001
,
0001
0000
0001
0000
,
0100
0100
0100
0100
,
0100
0000
0100
0000
,
0010
0000
0010
0000
,
0100
0000
0110
0000
,
0010
0000
0010
0000
,
0010
0000
0000
0000
,
1000
0000
1000
0000
,
1000
0000
0000
0000
,
0001
0000
0001
0000
,
0001
0000
0000
0000
,
0100
0000
0100
0000
,
0100
0000
0000
0000
,
0001
0000
0000
0000
,
1000
0000
0001
0000
,
1000
0000
0000
0000
,
0001
0000
1000
0000
,
0010
0000
0000
0000
,
0100
0000
0000
0000
,
0010
0000
0000
0000
,
0100
0000
0000
0000
,
0001
0000
1000
0000
,
0001
0000
0001
0000
,
1000
0000
0001
0000
,
1000
0000
1000
0000
,
0010
0000
0010
0000
,
0100
0000
0100
0000
,
1000
0000
0001
0000
,
1000
0000
0001
0000
;

//--------------- dance-single - 8Chasey ----------------
#NOTES:
     dance-single:
     8Chasey:
     Easy:
     3:
     0,0,0,0,0:
0000
0000
0000
0000
,
0000
0000
0000
0000
,
0000
0000
0000
0000
,
0000
0000
0000
0000
,
0000
0000
0000
0000
,
0001
0000
1000
0000
,
0002
0000
0003
0000
,
1000
0000
0001
0000
,
1000
0100
1000
0000
,
0010
0000
0100
0010
,
0200
0000
0300
0000
,
0010
0000
0100
0000
,
0020
0000
0130
0000
,
0001
0001
1000
0000
,
0001
1000
0001
0000
,
1000
1000
0001
0000
,
1000
0001
1000
0000
,
0001
0000
0200
0010
,
0010
0010
0010
0310
,
1000
0000
0020
0100
,
0100
0100
0100
0130
,
0001
0000
1000
0001
,
1000
0000
0001
1000
,
0010
0000
0100
0000
,
0020
0000
0030
0000
,
1000
0001
1000
0001
,
2000
3000
2000
3000
,
0001
1000
0001
1000
,
0002
0003
0002
0003
,
0100
0010
0100
0010
,
0200
0300
0020
0030
,
0100
0001
0100
0000
,
0001
1000
0001
1001
,
2000
3000
0020
0030
,
0200
0000
0300
0000
,
0002
0003
0200
0300
,
0020
0000
0130
0100
,
0002
0003
2000
3000
,
0020
0000
0030
0000
,
0200
0300
0020
0030
,
2002
0000
3003
0000
,
0010
0000
1000
0000
,
0010
1000
0010
0000
,
0100
0000
0001
0000
,
0100
0001
0100
0000
,
0002
1000
1003
0000
,
0020
0000
0030
0000
,
2000
0001
3001
0000
,
0200
0000
0300
0000
,
0001
0100
0001
0000
,
2000
0000
3010
0000
,
1000
0100
1000
0000
,
0002
0000
0013
0000
,
0001
1000
0001
0000
,
1000
0001
1000
0000
,
0010
0100
0010
0000
,
0100
0010
2002
0000
,
3003
0000
0000
0000
;

//--------------- dance-single - 8Chasey ----------------
#NOTES:
     dance-single:
     8Chasey:
     Medium:
     5:
     0,0,0,0,0:
0000
0000
0000
0000
,
0000
0000
0000
0000
,
0000
0000
0000
0000
,
0000
0000
0000
0000
,
0000
0000
0000
0000
,
0001
0000
0000
0010
0000
0000
0001
1000
0000
0001
0000
0000
,
2000
0000
0000
0000
0000
0000
3100
0000
0000
1000
0000
1000
,
0010
1000
0020
0030
,
0100
0000
0001
1000
0000
0000
2002
0000
0000
3003
0000
0000
,
1000
0000
0000
0010
0000
0000
1000
0000
0100
1000
0000
0000
,
0002
0000
0013
0001
,
0100
0000
0001
0100
0000
0000
0001
0000
0010
0001
0000
0000
,
2000
0000
3000
1000
0100
0000
1000
0000
,
0010
0000
0000
1000
0000
0000
0100
0000
1000
0100
0000
0000
,
0010
0000
0000
0001
0000
0000
0100
0000
0001
0100
0000
0000
,
0010
0000
0000
1000
0000
0000
0001
0000
1000
0001
0000
0000
,
0100
0000
0000
0100
0000
0000
0010
0000
0100
0010
0000
0000
,
0110
0100
0002
1000
,
0100
1000
0100
1003
,
0110
0010
2000
0001
,
0100
0001
0100
3001
,
1001
0100
0020
1030
,
1001
0010
0200
0301
,
1100
1000
0101
0001
,
0200
0000
0300
0110
,
0010
0100
0000
0010
0100
0000
0010
0100
0000
0010
0100
0000
,
0001
0100
1000
0100
,
1000
0001
0000
1000
0001
0000
1000
0001
0000
1000
0001
0000
,
0010
0001
1000
0010
,
0100
0010
0000
0100
0010
0000
0100
0010
0000
0100
0010
0000
,
1000
0010
0001
0010
,
0100
1000
1100
0101
,
0001
0000
0000
1000
0001
1000
0001
0000
0000
1001
0000
0000
,
2000
0000
0000
3000
0010
1000
0020
0000
0000
0030
0100
0001
,
0200
0000
0301
0010
,
0002
0000
0000
0003
0010
0001
0200
0000
0000
0300
0010
1000
,
0020
0000
0130
0010
,
2000
0000
0000
3000
0001
1000
0002
0000
0000
0003
0100
0010
,
0200
0000
0020
0330
,
0010
1000
0001
0100
,
0210
0010
0310
1001
,
2000
0000
0200
3300
,
1000
0000
0000
0010
0000
0000
1000
0000
0001
1000
0000
0000
,
0002
0000
0200
0303
,
0001
0000
0000
0010
0000
0000
0001
0000
1000
0001
0000
0000
,
0100
0000
0001
0100
0000
0000
0020
0000
0000
0030
0000
0000
,
0200
0301
2000
3000
,
0100
0000
1000
0100
0000
0000
0020
0000
0000
0030
0000
0000
,
0200
1300
0002
0003
,
0100
0000
0001
0100
0000
0000
0010
0000
0000
1010
0000
0000
,
2000
0000
3001
1000
,
0100
0000
1000
0100
0000
0000
0010
0000
0000
0011
0000
0000
,
0002
0000
0000
0000
0000
0000
1003
0000
0000
0100
0000
1000
,
0010
0000
0000
1000
0000
0000
0001
0000
0000
0100
0000
0001
,
0010
0000
0000
0001
0000
0000
1000
0000
0000
0010
0000
1000
,
0100
0000
0000
0010
0000
0001
0100
0000
0000
0010
0000
0000
,
1010
0011
2002
0000
,
0000
0000
3003
0000
,
0000
0000
0000
0000
,
0000
0000
0000
0200
0000
0000
0000
0000
0000
0000
0000
0000
0000
0000
0000
0000
,
0000
0000
0000
0000
,
0000
0000
0000
0300
0000
0000
0000
0000
0000
0000
0000
0000
0000
0000
0000
0000
;

//--------------- dance-single - 8Chasey ----------------
#NOTES:
     dance-single:
     8Chasey:
     Hard:
     9:
     0,0,0,0,0:
0000
0000
0000
0000
,
0000
0000
0000
0000
,
0000
0000
0000
0000
,
0000
0000
0000
0000
,
0000
0000
0000
0000
,
0001
0000
1000
0010
0000
0000
1000
0001
0000
1000
0000
1000
,
0200
0000
0000
1000
0000
0000
0310
0000
0000
0001
0000
0001
,
0010
0000
0000
0011
0000
0000
0001
0000
0000
1010
0000
1000
,
0100
1000
0001
0100
0010
0100
0020
0000
0000
1030
0000
0001
,
1000
0100
1000
0100
0000
1000
0001
0000
0100
0010
0000
0010
,
2000
0000
0000
0100
0000
0000
3001
0000
0000
1001
0000
0001
,
0010
0001
1000
0010
0000
1000
0100
0000
0010
0100
0000
0100
,
0020
0000
0000
0000
0000
0000
0000
0000
0000
0000
0000
0000
0031
0000
0000
0000
0000
0000
1000
0000
0000
0100
0000
0000
2000
0000
0000
0000
0000
0000
0000
0000
0000
0000
0000
0000
3100
0000
0000
0000
0000
0000
0000
0000
1000
0000
0000
0000
,
0010
1000
0100
1000
0000
0001
1000
0000
0000
1001
0000
0001
,
0010
0001
0100
0001
0000
1000
0001
0000
0000
0110
0000
0010
,
1000
0010
0100
0001
0000
1000
0100
0000
0000
1100
0000
0010
,
0001
0010
0100
1000
0000
0001
0100
0000
0000
0101
0000
0100
,
0010
1000
0010
1000
0000
0100
1000
0000
1000
0002
0000
0000
,
0100
0000
0000
1000
0000
0000
0100
0000
0000
1003
0000
0010
,
1000
0010
1000
0001
0000
0010
0001
0000
0001
2000
0000
0000
,
0100
0000
0000
0001
0000
0100
0100
0000
0000
3001
0000
0010
,
0001
0000
0001
0100
0010
0100
0010
0000
0000
0110
0000
0010
,
1000
0000
1000
0100
0010
0100
0010
0000
0000
0110
0000
0010
,
0001
0000
0010
0100
0000
1000
0100
0000
1000
0001
0000
0000
,
0200
0000
0000
0000
0000
0000
0300
0000
0000
0110
0000
0001
,
1000
1000
0001
1000
1000
0001
1000
1000
0001
1000
1000
0100
,
0010
0000
0001
0010
0000
0100
1000
0000
1000
0100
0000
1000
,
0001
0001
1000
0001
0001
1000
0001
0001
1000
0001
0001
0010
,
0100
0000
0100
1000
0000
0100
1000
0000
0001
1000
0000
0100
,
0010
0010
0100
0010
0010
0100
0010
0010
0100
0010
0010
0001
,
0100
0000
0000
0101
0000
1000
0100
0000
0000
1100
0000
0100
,
0010
0001
0010
0001
0000
1000
0001
0000
0000
1001
0000
0000
,
0001
0100
0010
1000
0010
0100
0010
1000
0001
1001
0000
0000
,
2000
0000
0000
3100
1000
0100
0020
0000
0000
0031
0100
0001
,
0200
0000
0000
0010
0000
0000
0301
0000
0000
1000
0010
1000
,
0002
0000
0000
0013
0001
1000
0200
0000
0000
1300
0001
1000
,
0020
0000
0000
0100
0000
0000
1030
0000
0100
1000
0001
0100
,
0020
0000
0000
1030
0010
0100
0002
0000
0000
0013
0001
1000
,
0200
0000
0000
1000
0000
0000
0310
0000
0000
0001
0010
0001
,
2000
0000
0000
3100
1000
0001
0020
0000
0000
0031
1000
0001
,
0200
0010
0301
1001
,
1000
0010
0000
0100
0001
0000
0010
0000
0010
0000
0000
0001
,
0100
0000
0100
0001
0100
0001
1000
0000
0001
1000
0000
0000
,
0001
0010
0000
0100
1000
0000
0010
0000
0010
0000
0000
1000
,
0100
0000
0100
1000
0100
1000
0001
0000
1000
0001
0000
0100
,
0020
0000
0000
1030
0000
0000
0100
0000
1100
0000
0000
1000
,
0002
0000
0000
0000
0000
0000
0103
0000
0000
0101
0000
0100
,
0020
0000
0000
1030
0000
0000
0100
0000
1100
0000
0000
1000
,
0020
0000
0000
0000
0000
0000
1030
0000
0000
1100
0000
0100
,
1000
0000
0010
1000
0010
1000
0001
0000
0000
0011
0000
0010
,
0200
0000
0000
1000
0000
0000
2000
0000
0000
3300
0000
1000
,
0010
0000
1000
0001
0000
0001
0010
0000
0000
0011
0000
0000
,
0020
0000
0000
0001
0000
0000
0002
0000
0000
0033
0000
0100
,
0001
1000
0001
1000
0000
0100
1000
0000
0000
1010
0000
0010
,
1000
0000
1000
0001
0000
0001
0010
0000
0001
1000
0000
0100
,
1000
0001
1000
0001
0000
0100
0001
0000
0000
0011
0000
0000
,
0010
0001
1000
0010
0100
0100
0020
0000
0000
0000
0000
0000
,
0000
0000
0000
0030
,
0000
0000
0000
0000
0000
0000
0000
0000
0000
0000
0000
0000
0000
0000
0001
1000
,
0000
0000
0000
2002
0000
0000
0000
0000
0000
0000
0000
0000
0000
0000
0000
0000
,
0000
0000
0000
0000
,
0000
0000
0000
0000
,
0000
0000
0000
0000
,
0000
0000
0000
0000
,
0000
0000
0000
0000
0000
0000
0000
3003
;

//--------------- dance-double - 8Chasey ----------------
#NOTES:
     dance-double:
     8Chasey:
     Easy:
     3:
     0,0,0,0,0:
00000000
00000000
00000000
00000000
,
00000000
00000000
00000000
00000000
,
00000000
00000000
00000000
00000000
,
00000000
00000000
00000000
00000000
,
00000000
00000000
00000000
00000000
,
00001000
00000000
00010000
00000000
,
00002000
00000000
00003000
00000000
,
00010000
00000000
00001000
00000000
,
00100000
00010000
00100000
00000000
,
01000000
00000000
10000000
00010000
,
20000000
00000000
30010000
00000000
,
00100000
00000000
00001000
01000000
,
00002000
00000000
00013000
00000000
,
00000100
00000000
00001000
00000000
,
00000100
00001000
00000100
00000000
,
00000010
00000000
00000001
00000000
,
00000010
00000001
00000010
00000000
,
00000100
00000000
00020000
00001000
,
00001000
00001000
00001000
00031000
,
00100000
00000000
00002000
00010000
,
00010000
00010000
00010000
00013000
,
00000100
00000000
00000010
00000100
,
00010000
00000000
00001000
01000000
,
00100000
00000000
01000000
00100000
,
20000000
00000000
30000000
10010000
,
00010000
00010000
00010000
00010000
,
10000000
01000000
10000000
01000000
,
10000000
10000000
10000000
10000000
,
00010000
10000000
00010000
10000000
,
00100000
00100000
00100000
00100000
,
01000000
00001000
01000000
00001000
,
00010000
00000000
00001000
00000000
,
00010000
00000100
00010000
00000000
,
00002000
00003000
00200000
00300000
,
00020000
00000000
00030000
00000000
,
20000000
30000000
02000000
03000000
,
00200000
00000000
00300000
00000000
,
00002000
00003000
00020000
00030000
,
00000020
00000000
00000030
00000000
,
00000200
00000300
00000020
00000030
,
00002002
00000000
00003003
00000000
,
00000010
00000000
00001000
00000000
,
00000001
00001000
00000001
00000000
,
00000010
00000000
00000100
00000000
,
00010000
00001000
00010000
00000000
,
00002000
00000000
01003000
00000000
,
00200000
00000000
00300000
00000000
,
20000000
00000000
31000000
00000000
,
00200000
00000000
00300000
00000000
,
00001000
00010000
00001000
00000000
,
00020000
00000000
00030100
00000000
,
00001000
00000001
00001000
00000000
,
00000002
00000000
00000103
00000000
,
00000010
00000100
00000010
00000000
,
00001000
00000100
00001000
00000000
,
00000100
00000000
00010000
00000000
,
00001000
01000000
20020000
00000000
,
30030000
00000000
00000000
00000000
;
