#VERSION:0.83;
#TITLE:Theme from Hidden my game by mom!;
#SUBTITLE:(Full Song);
#ARTIST:hap;
#TITLETRANSLIT:;
#SUBTITLETRANSLIT:;
#ARTISTTRANSLIT:;
#GENRE:;
#ORIGIN:;
#CREDIT:;
#BANNER:Theme from Hidden my game by mom! (Full Song).png;
#BACKGROUND:;
#PREVIEWVID:;
#JACKET:Theme from Hidden my game by mom! (Full Song)-jacket.png;
#CDIMAGE:;
#DISCIMAGE:Banner_Missing.png;
#LYRICSPATH:;
#CDTITLE:;
#MUSIC:song.ogg;
#OFFSET:-0.475000;
#SAMPLESTART:97.805000;
#SAMPLELENGTH:12.000000;
#SELECTABLE:YES;
#BPMS:0.000=180.000,
376.000=90.000,
390.000=180.000;
#STOPS:390.000=0.667,
432.000=1.333;
#DELAYS:;
#WARPS:;
#TIMESIGNATURES:0.000=4=4;
#TICKCOUNTS:0.000=4;
#COMBOS:0.000=1;
#SPEEDS:0.000=1.000=0.000=0;
#SCROLLS:0.000=1.000;
#FAKES:;
#LABELS:0.000=Song Start;
#BGCHANGES:;
#KEYSOUNDS:;
#ATTACKS:
;

//---------------dance-single - ----------------
#NOTEDATA:;
#CHARTNAME:;
#STEPSTYPE:dance-single;
#DESCRIPTION:;
#CHARTSTYLE:;
#DIFFICULTY:Easy;
#METER:4;
#RADARVALUES:0.309114,0.420084,0.076647,0.294796,0.000000,367.000000,354.000000,13.000000,50.000000,0.000000,0.000000,0.000000,0.000000,0.000000,0.309114,0.420084,0.076647,0.294796,0.000000,367.000000,354.000000,13.000000,50.000000,0.000000,0.000000,0.000000,0.000000,0.000000;
#CREDIT:8Chasey;
#NOTES:
0000
0000
0000
0000
,
0000
0000
0000
0000
,
0010
0000
0010
0000
,
1000
0001
1000
0001
,
0100
0000
0100
0000
0001
0001
0000
1000
,
0000
0010
0020
0030
,
1000
0001
0010
1000
,
0100
0001
0100
1000
,
0001
0010
0001
1000
,
0100
0010
0020
0030
,
1000
0001
0010
0100
,
0001
0001
2000
3000
,
0010
0100
0001
1000
,
0100
0010
0020
0030
,
0001
0000
0000
0000
1000
0000
0000
0020
,
0000
0000
1030
0100
,
0010
0000
0000
0000
1000
0000
0000
0020
,
0000
0000
0031
0000
,
1000
0100
1000
0000
,
0010
0010
0001
0000
,
0100
0010
0001
0010
,
0100
1000
2000
3000
,
0001
0000
0000
0001
0001
0000
0000
0000
,
1000
0100
0010
0001
,
1000
0000
0002
0000
,
0000
0000
0003
0000
,
0010
0010
0020
0030
,
0100
0100
0200
0300
,
0001
0000
1000
0000
,
0220
0000
0330
0000
,
0002
0000
0000
0000
0000
0000
0000
2000
,
0000
0000
0000
3003
,
0100
1000
0100
0001
,
0010
0010
0010
0000
,
1000
0001
0100
0001
,
0010
0100
1000
0000
,
0001
1000
0100
1000
,
0001
0010
0010
0000
,
0100
0001
1000
0100
,
0010
0100
1001
0000
,
0010
0000
0010
0000
1000
1000
0000
0001
,
0000
0010
0020
0030
,
1000
0001
0010
1000
,
0100
0001
0100
1000
,
0001
0010
0001
1000
,
0100
0010
0020
0030
,
1000
0001
0010
0100
,
0001
0001
2000
3000
,
0010
0100
0001
1000
,
0100
0010
0020
0000
,
0200
0000
0000
0330
,
0002
0000
0003
0000
,
0200
0000
0300
0000
,
0020
0000
0030
0000
,
2000
0000
3000
0000
,
0001
0100
1000
0100
,
0001
1000
0020
0030
,
0001
0000
1000
0000
,
0010
0100
0010
0000
,
1000
0001
0010
0100
,
1000
0001
0100
0000
,
0010
1000
0100
0010
,
0100
1000
0001
0000
,
0010
0010
0100
1000
,
0010
0100
0001
0000
,
0100
0010
1000
0010
,
0001
1000
0001
0000
,
1000
0000
0000
1000
1000
0000
0000
0000
,
0001
0010
0100
1000
,
0001
0000
2000
0000
,
0000
0000
3000
0000
,
0010
0010
0020
0030
,
0100
0100
0200
0300
,
1000
0000
0001
0000
,
0220
0000
0000
0000
0330
0000
0000
2002
,
0000
0000
0000
3003
,
0100
1000
0100
0001
,
0010
0010
0010
0000
,
1000
0001
0100
0001
,
0010
0100
1000
0000
,
0001
1000
0100
1000
,
0001
0010
0010
0000
,
0100
0001
1000
0100
,
0010
0100
1001
0000
,
0100
0001
1000
0100
,
0010
0100
0020
0030
,
0001
1000
0100
0010
,
1000
0001
0100
0000
,
0001
1000
0100
1000
,
0010
0100
0002
0003
,
0100
0010
1000
0010
,
0100
0100
0002
0000
,
2000
0000
0003
0000
,
0002
0000
3003
0000
,
0020
0230
0302
0003
,
0020
0230
2300
3000
,
0002
2003
3020
0030
,
0100
0100
1001
0000
,
0010
0001
0010
1000
,
0100
0100
0100
0000
,
0001
1000
0010
1000
,
0100
0010
0001
0000
,
1000
0001
0010
0001
,
1000
0100
0100
0000
,
0010
1000
0001
0010
,
0100
0010
1001
0000
,
0010
0001
1000
0010
,
0100
0010
0110
0000
,
1001
0000
0020
0030
,
1000
0100
0001
0100
,
1000
0010
0010
0000
,
0100
0001
0010
0100
,
1000
0001
1000
0000
,
0100
0001
1000
0001
,
0100
0010
2000
3000
,
0100
0010
0001
1000
,
0020
0030
0200
0300
,
1001
0000
1001
0000
0010
0010
0000
0200
,
0000
0310
0110
1001
;

//---------------dance-double - ----------------
#NOTEDATA:;
#CHARTNAME:;
#STEPSTYPE:dance-double;
#DESCRIPTION:;
#CHARTSTYLE:;
#DIFFICULTY:Easy;
#METER:5;
#RADARVALUES:0.309957,0.420084,0.082543,0.300692,0.000000,368.000000,354.000000,14.000000,51.000000,0.000000,0.000000,0.000000,0.000000,0.000000,0.309957,0.420084,0.082543,0.300692,0.000000,368.000000,354.000000,14.000000,51.000000,0.000000,0.000000,0.000000,0.000000,0.000000;
#CREDIT:;
#NOTES:
00000000
00000000
00000000
00000000
,
00000000
00000000
00000000
00000000
,
00100000
00000000
00100000
00000000
,
00001000
00010000
00001000
00010000
,
00000100
00000000
00000100
00000000
00001000
00001000
00000000
00000001
,
00000000
00000010
00000020
00000030
,
00001000
00010000
00100000
10000000
,
01000000
00010000
00000100
00001000
,
00000001
00000010
00001000
00010000
,
01000000
00100000
00200000
00300000
,
10000000
00010000
00100000
00001000
,
00010000
00010000
00000200
00000300
,
00000010
00000100
00010000
00001000
,
01000000
00100000
00200000
00300000
,
00010000
00000000
00000000
00000000
00001000
00000000
00000000
00200000
,
00000000
00000000
00301000
00010000
,
00000010
00000000
00000000
00000000
00000100
00000000
00000000
00000002
,
00000000
00000000
00000103
00000000
,
00000010
00001000
00000100
00000000
,
00010000
00010000
00001000
00000000
,
01000000
00100000
00010000
00100000
,
01000000
00010000
00020000
00030000
,
00001000
00000000
00000000
00001000
00001000
00000000
00000000
00000000
,
01000000
00010000
00100000
00001000
,
00010000
00000000
00002000
00000000
,
00000000
00000000
00003000
00000000
,
00100000
00100000
00200000
00300000
,
01000000
01000000
02000000
03000000
,
00010000
00000000
00001000
00000000
,
00000220
00000000
00000000
00000330
,
00020000
00000000
00000000
00000000
00000000
00000000
00000000
00002000
,
00000000
00000000
00000000
00033000
,
01000000
10000000
01000000
00010000
,
00001000
00001000
00001000
00000000
,
00010000
00000100
00001000
00000100
,
00000010
00000100
00001000
00000000
,
00010000
00001000
00000100
00001000
,
00000100
00000010
00000010
00000000
,
00000100
00001000
00000001
00001000
,
00000010
00010000
00011000
00000000
,
00100000
00000000
00100000
00000000
00001000
00001000
00000000
00010000
,
00000000
00000010
00000020
00000030
,
00001000
00010000
00100000
10000000
,
01000000
00010000
00000100
00001000
,
00000001
00000010
00001000
00010000
,
01000000
00100000
00200000
00300000
,
10000000
00010000
00100000
00001000
,
00010000
00010000
00000200
00000300
,
00000010
00000100
00010000
00001000
,
01000000
00100000
00200000
00000000
,
02000000
00000000
00000000
03300000
,
00020000
00000000
00030000
00000000
,
02000000
00000000
03000000
00000000
,
00200000
00000000
00300000
00000000
,
20000000
00000000
30000000
00000000
,
00010000
01000000
00001000
00010000
,
00000100
00001000
00000020
00000030
,
00001000
00000000
00000001
00000000
,
00000010
00000100
00000010
00000000
,
00001000
00010000
00100000
01000000
,
10000000
00010000
01000000
00000000
,
00100000
00001000
00000100
00000010
,
00000100
00000001
00001000
00000000
,
00010000
00010000
00000100
00001000
,
00000010
00000100
00000001
00000000
,
00001000
00000010
00010000
00001000
,
01000000
00010000
10000000
00000000
,
00010000
00000000
00000000
00010000
00010000
00000000
00000000
00000000
,
00100000
00010000
00001000
00000100
,
00000010
00000000
00002002
00000000
,
00000000
00000000
00003003
00000000
,
00000010
00000010
00000020
00000030
,
00000100
00000100
00000200
00000300
,
00001000
00000000
00010000
00000000
,
02200000
00000000
00000000
00000000
03300000
00000000
00000000
00022000
,
00000000
00000000
00000000
00033000
,
01000000
10000000
01000000
00010000
,
00001000
00001000
00001000
00000000
,
00010000
00000100
00001000
00000100
,
00000010
00000100
00001000
00000000
,
00010000
00001000
00000100
00001000
,
00000100
00000010
00000010
00000000
,
00000100
00001000
00000001
00001000
,
00000010
00010000
00011000
00000000
,
01000000
00001000
00010000
00000100
,
00001000
00000100
00000020
00000030
,
00001000
00000100
00000010
00000001
,
00001000
00000001
00000100
00000000
,
00010000
00001000
01000000
00001000
,
00100000
01000000
20000000
30000000
,
01000000
00100000
00001000
00010000
,
00000100
00000100
00020000
00000000
,
00000002
00000000
00030000
00000000
,
00002000
00000000
00003003
00000000
,
00000020
00000230
00020300
00030000
,
00200000
02300000
23000000
30000000
,
00020000
00032000
00203000
00300000
,
00001000
00010000
00011000
00000000
,
00000100
00000001
00000100
00001000
,
00010000
00010000
00010000
00000000
,
00001000
01000000
00010000
01000000
,
00100000
01000000
00010000
00000000
,
00001000
00010000
01000000
00010000
,
01000000
00100000
00100000
00000000
,
01000000
00010000
10000000
00010000
,
00100000
00001000
00011000
00000000
,
00000100
00001000
00000001
00001000
,
00000010
00010000
00011000
00000000
,
10010000
00000000
00200000
00300000
,
10000000
01000000
00010000
01000000
,
00100000
00001000
00001000
00000000
,
01000000
00001000
00010000
00000100
,
00001000
00000001
00001000
00000000
,
00000100
00010000
00001000
00010000
,
01000000
00100000
00020000
00030000
,
01000000
00100000
00010000
00001000
,
00000020
00000030
00000200
00000300
,
00011000
00000000
00011000
00000000
00100000
00100000
00000000
00000020
,
00000000
00100030
00100010
00011000
;

//---------------dance-single - ----------------
#NOTEDATA:;
#CHARTNAME:;
#STEPSTYPE:dance-single;
#DESCRIPTION:;
#CHARTSTYLE:;
#DIFFICULTY:Medium;
#METER:7;
#RADARVALUES:0.487676,0.560112,0.265316,0.347859,0.000000,579.000000,534.000000,45.000000,59.000000,0.000000,0.000000,0.000000,0.000000,0.000000,0.487676,0.560112,0.265316,0.347859,0.000000,579.000000,534.000000,45.000000,59.000000,0.000000,0.000000,0.000000,0.000000,0.000000;
#CREDIT:8Chasey;
#NOTES:
0000
0000
0000
0000
,
0000
0000
0000
0000
,
0001
0000
0000
1000
0001
0000
0000
1000
,
0001
1000
0001
0000
1000
0001
1000
0000
,
0010
0000
0100
0000
0001
0100
0000
1000
,
0100
0010
0020
0130
,
0001
0000
0010
0000
0001
0010
1000
0000
,
0010
0100
2000
3001
,
0001
0010
0001
1000
,
0010
1000
2002
3003
,
0001
0100
1000
0100
,
0001
1000
0001
0000
2000
0000
3000
0000
,
0010
0010
0100
0100
,
0001
1000
2002
3003
,
0001
0000
0000
0000
0001
1000
0000
2000
,
0000
0010
3010
0100
,
1000
0000
0000
0000
1000
0001
0000
0002
,
0000
0010
0013
0100
,
1000
0100
0001
0000
0010
0000
0010
0000
,
0001
1000
0002
0003
,
0010
0001
1000
0000
0010
1000
0001
0000
,
0100
0010
0200
0300
,
0001
0000
0001
0010
1000
0000
1000
0010
,
0002
2003
3001
1001
,
0100
0000
0000
0010
0020
0000
0000
0000
,
0130
0100
0001
1000
,
0001
0010
0001
0010
0001
2000
0000
3000
,
1000
0010
1000
0010
1000
0001
1000
0000
,
0001
0010
0000
0000
1000
0010
0000
0000
,
0100
0010
0000
2002
0000
0000
3003
0000
,
0001
0000
0010
0000
0001
0002
0000
2000
,
0000
0003
3001
1001
,
0001
0100
1000
0000
0001
0100
1000
0000
,
0001
1000
0002
0003
,
1000
0100
0001
0000
1000
0100
0001
0000
,
1000
0001
1000
0001
,
1000
0010
0001
0000
1000
0100
0001
0000
,
1000
0000
0001
1000
0002
0000
0003
0000
,
0001
0010
1000
0000
0001
0100
1000
0100
,
0001
1000
0001
1001
,
0010
0000
0100
0000
1000
0100
0000
0001
,
0100
0010
0020
0130
,
0001
0000
1000
0000
1000
0100
1000
0000
,
0010
0100
0001
0000
0001
0000
0001
0000
,
1000
0000
0010
0000
0100
0001
0010
0000
,
0010
0100
1000
0000
0101
0000
0000
0000
,
0001
0010
1000
0010
0001
0000
1000
0000
,
1000
0010
0001
0010
1000
0000
1000
0000
,
0001
1000
0001
0000
1000
0001
0100
0000
,
0001
0000
0010
0000
1000
0000
0010
2000
,
0002
0000
0000
3003
,
0002
0000
0013
0000
,
2000
0000
3010
0000
,
0002
0000
0103
0000
,
2000
0000
3100
0000
,
0010
1000
0001
0000
0010
1000
0001
0000
,
0101
1100
0202
0303
,
0010
0001
1000
0000
0010
0001
1000
0000
,
1100
0101
2200
3300
,
0001
0001
0010
0000
0100
0010
0000
0100
,
0000
0010
2000
3000
,
1000
0001
0100
0000
0001
0100
0000
0001
,
0100
0000
0001
0100
0020
0000
0030
0000
,
0100
0010
1000
0000
0001
0001
0100
0000
,
0001
0010
1000
0010
0002
0000
0003
0000
,
1000
0001
0101
1000
,
0010
0100
0020
0030
,
1000
0000
1000
0100
0001
0000
0001
0100
,
2000
3002
1003
1001
,
0100
0000
0000
0010
0020
0000
0000
0000
,
0130
0100
1000
0001
,
1000
0100
1000
0100
1000
0020
0000
0000
,
0130
0001
0010
0000
0100
1000
0010
0000
,
1000
0010
0000
0000
0001
0010
0000
0000
,
0010
0100
0000
2002
0000
3003
0000
0010
,
0100
0010
0100
0010
0100
0000
0110
0000
,
0001
0100
1000
0000
0001
0100
1000
0000
,
0100
0001
0020
0030
,
1000
0100
0001
0000
1000
0100
0001
0000
,
1000
0100
1000
0000
0010
0000
0100
0000
,
0001
0010
1000
0000
0010
0001
0100
0000
,
0001
1000
0020
0030
,
1000
0010
0100
0000
0010
1000
0001
0000
,
0011
1010
0011
1001
,
0001
0100
0001
0100
0001
0000
0010
0000
,
1000
0100
1000
0100
1000
0000
0010
0000
,
0100
0010
1000
0000
0001
0001
0010
0000
,
0001
0010
1000
0010
0100
0000
0000
0000
,
0001
0010
1000
0000
0010
0001
0100
0000
,
0001
1000
1100
0000
,
1000
0001
0101
0000
,
0010
0100
0010
0100
0010
0100
0010
0100
,
0020
0000
1000
0000
1030
0000
0000
0001
,
2000
0001
0002
3003
,
0001
0101
2200
3300
,
1000
1100
0202
0303
,
0001
0010
1000
0010
0001
0100
1000
0100
,
0001
0001
1000
1000
2002
0000
3003
0000
,
1000
0010
0001
0000
1000
0010
0001
0000
,
1000
0010
0001
0000
0001
0000
0001
0000
,
0001
0010
1000
0000
0001
0010
1000
0000
,
0001
0010
1000
0000
1000
0000
1000
0000
,
1000
0100
0001
0000
0100
1000
0010
0000
,
0101
1100
0020
0000
,
0031
0010
1000
0000
0001
0100
1000
0100
,
0001
1000
0001
1001
,
1000
0010
0100
0000
0010
1000
0001
0000
,
0011
1010
0011
1001
,
1001
0000
0010
0100
0020
0000
0030
0000
,
0100
0001
1000
0100
1000
0001
0010
0000
,
0001
1000
0002
0003
,
0010
1000
0001
0000
0010
0001
1000
0000
,
0010
0100
0220
0330
,
0001
0000
0100
0000
1000
0100
0001
0000
,
0010
1000
0010
0000
0200
0000
0300
0000
,
0110
0110
1001
1001
,
0001
0100
1000
0100
0001
0000
1000
0000
,
1100
0000
0101
0000
0001
0010
0000
1000
,
0010
0001
1000
0000
0110
0000
1001
0000
;

//---------------dance-single - ----------------
#NOTEDATA:;
#CHARTNAME:;
#STEPSTYPE:dance-single;
#DESCRIPTION:;
#CHARTSTYLE:;
#DIFFICULTY:Hard;
#METER:9;
#RADARVALUES:0.647708,0.701614,0.477569,0.666238,0.005896,769.000000,688.000000,81.000000,113.000000,0.000000,0.000000,0.000000,0.000000,0.000000,0.647708,0.701614,0.477569,0.666238,0.005896,769.000000,688.000000,81.000000,113.000000,0.000000,0.000000,0.000000,0.000000,0.000000;
#CREDIT:8Chasey;
#NOTES:
// measure 0
0000
0000
0000
0000
,  // measure 1
0000
0000
0000
0000
,  // measure 2
0001
0000
0000
0010
0100
0000
0000
1000
,  // measure 3
0010
0100
0001
0010
0100
1000
0010
0000
,  // measure 4
0101
0000
1100
0000
0010
0010
1000
0002
,  // measure 5
0000
0103
0010
0100
2002
0000
3003
0000
,  // measure 6
0100
1000
0100
0010
0100
1000
0001
0100
,  // measure 7
0010
1000
0100
0010
0200
0000
1300
0000
,  // measure 8
0001
0100
0020
0000
0130
0001
2000
0000
,  // measure 9
3100
0010
0100
1000
0101
0000
1100
0000
,  // measure 10
0010
0010
0100
0001
0010
0100
1000
0010
,  // measure 11
0100
1000
0100
0001
0020
0000
0130
0000
,  // measure 12
1000
0010
0200
0000
0301
1000
0020
0000
,  // measure 13
1030
0100
0010
0001
1100
0000
0101
0000
,  // measure 14
0010
0000
0010
1000
0001
0020
0000
0100
,  // measure 15
0000
0031
1000
0010
2002
0000
3003
0000
,  // measure 16
0001
0010
0200
0000
1300
0010
0100
2000
,  // measure 17
0000
3100
0001
0010
0220
0000
0330
0000
,  // measure 18
1000
0100
0001
0100
0010
0001
0100
0010
,  // measure 19
1000
0001
0100
0010
1000
1000
0000
0001
,  // measure 20
0010
0001
0200
0000
0301
1000
0020
0000
,  // measure 21
1030
0100
0010
0100
1000
0001
0100
0010
,  // measure 22
0102
0000
0000
0010
0023
0000
0000
0100
,  // measure 23
0230
2300
3001
0101
,  // measure 24
0011
0000
0100
0010
2000
0000
0100
0000
,  // measure 25
3001
0010
0100
0010
0001
0100
0010
0000
,  // measure 26
1100
1000
0010
0100
1000
0200
0000
0000
,  // measure 27
0301
0010
0011
0000
0101
0100
0020
0000
,  // measure 28
1030
2000
0000
0100
3001
0002
0000
0010
,  // measure 29
0013
0100
0010
1002
0000
0000
0013
0000
,  // measure 30
0100
1000
0010
0100
1000
0100
0001
1001
,  // measure 31
0000
0010
0100
0010
0020
0000
0130
0000
,  // measure 32
0011
0001
0200
0000
0310
1000
0002
0000
,  // measure 33
0103
0010
1000
0100
2000
0000
3001
0000
,  // measure 34
0101
0100
0020
0000
1030
0100
0020
0000
,  // measure 35
0031
0010
0100
1000
0002
0000
2003
0000
,  // measure 36
3010
1000
0200
0000
1300
0001
0020
0000
,  // measure 37
0031
0100
0010
1000
1100
0000
0101
0000
,  // measure 38
0010
1000
0100
0100
0001
0010
0100
1001
,  // measure 39
0000
0010
0100
0010
0110
0000
1001
0000
,  // measure 40
0101
0000
1100
0000
0010
0010
1000
0002
,  // measure 41
0000
0103
0010
0100
2002
0000
3003
0000
,  // measure 42
1000
0100
0010
0100
0010
0001
0100
1000
,  // measure 43
0100
0010
1000
0001
0020
0000
0130
0000
,  // measure 44
0100
1000
0020
0000
1030
0001
0020
0000
,  // measure 45
0031
0100
1000
0100
0002
0000
2003
0000
,  // measure 46
3010
1000
0100
0010
1000
0010
0001
0100
,  // measure 47
0010
1000
0001
0100
2000
0000
3200
0000
,  // measure 48
0302
0023
0130
1001
,  // measure 49
0100
0010
1000
0001
0010
0010
0100
0100
,  // measure 50
0020
0000
0100
0000
0230
0010
0310
0000
,  // measure 51
0001
0000
0001
0000
0010
0000
0000
0001
,  // measure 52
0100
0010
2000
0000
,  // measure 53
3100
0000
0010
0000
0100
0010
0000
1000
,  // measure 54
0010
0100
0002
0000
,  // measure 55
0103
0010
1000
0000
0100
0010
0001
0000
,  // measure 56
1100
0010
0001
0000
0202
0000
0303
0000
,  // measure 57
1000
0010
0100
1000
0100
0001
0010
0000
,  // measure 58
0011
1010
0110
1001
,  // measure 59
0001
0010
0001
0100
0010
0000
1000
0200
,  // measure 60
0000
0010
0010
0000
1300
0000
0101
0000
,  // measure 61
0001
0010
1000
0000
0010
0100
1000
0020
,  // measure 62
0000
0100
0130
0000
1001
0000
1010
0000
,  // measure 63
1000
0001
0010
0000
0011
0000
0101
0000
,  // measure 64
0010
0100
0010
1000
0010
0001
0000
0001
,  // measure 65
1000
1010
0110
0101
,  // measure 66
0010
0001
1000
0010
0200
0000
0310
0000
,  // measure 67
2010
0000
0000
0100
3200
0000
0000
0010
,  // measure 68
0320
0032
1003
1010
,  // measure 69
1100
0000
0010
0100
0002
0000
0010
0000
,  // measure 70
1003
0100
0010
0100
1000
0010
0100
0000
,  // measure 71
0011
0001
0100
0010
0001
0020
0000
0000
,  // measure 72
1030
0100
1100
0000
1010
0010
0200
0000
,  // measure 73
0301
0002
0000
0010
1003
2000
0000
0100
,  // measure 74
3100
0010
0100
2001
0000
0000
3100
0012
,  // measure 75
0000
0100
0103
0000
1010
0000
1001
0000
,  // measure 76
0011
0001
0200
0000
0310
1000
0002
0000
,  // measure 77
0103
0010
1000
0100
2000
0000
3001
0000
,  // measure 78
0101
0100
0020
0000
1030
0100
0020
0000
,  // measure 79
0031
0010
0100
1000
0002
0000
2003
0000
,  // measure 80
3010
1000
0200
0000
1300
0001
0020
0000
,  // measure 81
0031
0100
0010
1000
1100
0000
0101
0000
,  // measure 82
0010
1000
0100
0100
0001
0010
0100
1001
,  // measure 83
0000
0010
0100
0010
0110
0000
1001
0000
,  // measure 84
0001
0010
0001
0100
0010
1000
0100
0000
,  // measure 85
0010
0100
1000
0010
0200
0000
0001
0000
,  // measure 86
1300
0100
0001
0000
1000
0100
0001
0000
,  // measure 87
0100
1000
0010
0100
0002
0000
0010
0000
,  // measure 88
0103
0010
1000
0010
0100
1000
0100
0001
,  // measure 89
0010
0100
1100
0101
,  // measure 90
0010
0010
1000
0000
0001
0001
0100
0000
,  // measure 91
0010
1000
0100
0010
0100
1000
0001
0100
,  // measure 92
0020
0001
1000
0001
,  // measure 93
0230
0000
0001
0000
1300
0100
0001
0000
,  // measure 94
0012
0000
0203
0000
0310
1000
0001
0100
,  // measure 95
0102
0000
2003
0000
3100
0010
0010
0001
,  // measure 96
1000
0000
1000
0000
0100
0000
0010
0001
0010
0000
0001
0000
0100
0000
0010
1000
,  // measure 97
0001
0100
0100
0010
2002
0000
3003
0000
,  // measure 98
1100
1000
0020
0000
0130
0001
2000
0000
,  // measure 99
3010
0100
0001
0010
0002
0000
1003
0000
,  // measure 100
1010
0010
0200
0000
0301
0010
0200
0000
,  // measure 101
1300
0100
0010
0001
2000
0000
3002
0000
,  // measure 102
0103
0001
0020
0000
0031
1000
0200
0000
,  // measure 103
1300
0010
0100
0001
0011
0000
1010
0000
,  // measure 104
0100
0001
0010
0010
1000
0100
0010
0000
,  // measure 105
1001
0100
0010
0100
0110
0000
1001
0000
,  // measure 106
0010
1000
0100
0100
0001
0010
0100
0000
,  // measure 107
1001
0010
0100
0010
0110
0000
1001
0000
,  // measure 108
0110
1000
0100
0001
2002
0000
3003
0000
,  // measure 109
0001
0010
0001
0100
0010
1000
0100
0010
,  // measure 110
1000
0001
0100
0010
2000
0000
0100
0000
,  // measure 111
3001
0010
0200
0000
1300
0010
0200
0000
,  // measure 112
1300
0100
0001
0010
0100
0010
0020
0000
,  // measure 113
0031
0010
0100
1000
0010
0100
2000
0000
,  // measure 114
3100
0002
0010
0000
0203
0000
0310
0000
,  // measure 115
1000
0100
0002
0000
0103
1000
0020
0000
,  // measure 116
2030
0000
3200
0000
0310
0100
1001
0000
,  // measure 117
1000
0100
0011
0000
0101
1000
0000
0010
,  // measure 118
1000
0001
0100
0010
0110
0000
2002
0000
,  // measure 119
3003
0000
0000
0000
;

//---------------dance-single - Impossible----------------
#NOTEDATA:;
#CHARTNAME:;
#STEPSTYPE:dance-single;
#DESCRIPTION:Impossible;
#CHARTSTYLE:;
#DIFFICULTY:Challenge;
#METER:10;
#RADARVALUES:0.967772,1.297985,0.548320,0.371443,0.728145,1149.000000,1056.000000,93.000000,63.000000,0.000000,0.000000,2.000000,0.000000,0.000000,0.967772,1.297985,0.548320,0.371443,0.728145,1149.000000,1056.000000,93.000000,63.000000,0.000000,0.000000,2.000000,0.000000,0.000000;
#CREDIT:8Chasey;
#NOTES:
0000
0000
0000
0000
,
0000
0000
0000
0000
,
2002
0000
0000
0000
3003
0000
0001
0010
0200
0000
0000
0000
0300
0000
1000
0010
,
0100
0000
0000
0100
0001
0000
0000
0001
1000
0001
1000
0001
0100
0000
0000
0000
,
1010
0100
0011
1000
0100
0010
0001
1001
,
0000
0000
1000
0100
0001
0000
0100
0000
0010
0000
0000
0000
1001
0000
0000
0000
,
1000
0000
0001
0000
0010
0000
0001
0000
0100
0000
0010
1000
0100
0000
0010
0000
,
0100
0000
1000
0001
0100
0000
0010
0000
2000
0000
0100
0000
3100
0000
0010
0000
,
0001
0010
0001
0010
0001
0000
0100
0000
0010
1000
0010
1000
0010
0000
1000
0000
,
0100
1000
0010
0100
0001
0000
0100
0000
0020
0000
0000
0000
1030
0000
0000
0000
,
0001
0010
0001
0100
0010
0000
1000
0000
0100
0000
0010
0000
0100
0000
1000
0000
,
0001
0100
0010
1000
0001
0000
0100
0000
1000
0000
0100
0000
0020
0000
0000
0000
,
1030
0001
1000
0100
0010
0000
0100
0000
0010
0001
1000
0100
1000
0000
0010
0000
,
1000
0001
0010
0001
1000
0010
0100
0001
1000
0000
0001
0000
1001
0000
0000
0000
,
2010
0000
0000
0000
3100
0000
0010
0000
0100
0000
1000
0001
0100
0000
0020
0000
,
0000
0000
0001
0000
0130
0000
1000
0000
0100
0001
0010
0000
1010
0000
0000
0000
,
0102
0000
0000
0000
0013
0000
0100
0000
1000
0010
0100
1000
0100
0000
0002
0000
,
0000
0000
0013
0001
0100
0000
0010
0000
1000
0010
0100
0001
0010
0000
0000
0000
,
1100
0000
1000
0000
0010
0000
0100
0000
0001
0000
0010
0001
0100
0000
0010
1000
,
0001
0000
0100
0000
0001
0000
0010
0000
0100
0000
1001
0000
0000
0000
1000
0010
,
0001
0000
0010
1000
0100
0000
0010
0000
0001
0000
0100
0001
1000
0000
0100
0000
,
0010
0001
0100
0010
0100
0000
0010
0000
1000
0001
0010
0100
0002
0000
0000
0000
,
0103
0000
1000
0000
0010
0000
0100
0001
1000
0000
0100
0000
1001
0000
0000
0000
,
0010
2000
0000
0000
3001
0200
0000
0000
1300
0002
0000
0000
0013
2000
0000
0000
,
3020
0000
0000
0000
0130
0000
0001
1000
0200
0000
0000
0000
0001
0000
0000
0000
,
1300
0001
0100
0010
1000
0100
0012
0000
,
0013
0000
0010
0000
0001
1000
0010
0000
0100
0000
0200
0000
0000
0000
0301
0000
,
0010
0001
0000
0000
0010
0000
0100
0000
1000
0001
0100
0000
2000
0000
0000
0000
,
3100
0000
0101
0000
0000
0000
0001
0000
0010
0000
1100
0000
0000
0000
1000
0001
,
0010
0100
0010
2100
0000
3001
0010
0001
,
0100
0000
0010
1000
0010
0000
0100
0000
0001
0010
0100
0010
0001
0000
2000
0000
,
0000
0000
3010
0100
0010
0001
0010
1000
0100
0000
0000
0000
1001
0000
0000
0000
,
0010
0100
0001
0000
0011
0000
0000
0000
1000
0001
0010
0000
1100
0000
0000
0000
,
0010
0000
0001
0010
0100
0000
0010
0100
1000
0000
0001
0000
1001
0000
0000
0000
,
0100
0010
1000
0000
1001
0000
0000
0000
0100
0001
0010
0000
0110
0000
0000
0000
,
1000
0000
0010
0100
1000
0000
0100
0010
0001
0000
0010
0000
1000
0000
0001
0000
,
1000
0100
0010
0000
0011
0000
0000
0000
0001
0010
0100
0000
1100
0000
0000
0000
,
0010
0000
1000
0001
0010
0000
0100
0000
0010
0000
1010
0000
0011
0000
0000
0000
,
0002
0000
0010
0000
0103
0000
0010
1000
0200
0000
0010
0000
1300
0000
1000
0010
,
0100
0000
0001
0010
0001
0100
0010
0000
1000
0000
0001
0000
0110
0000
0000
0000
,
1010
0100
0011
1000
0100
0010
0001
1001
,
0000
0000
1000
0100
0001
0000
0100
0000
0010
0000
0000
0000
1001
0000
0000
0000
,
0010
0000
1000
0100
0010
0000
0100
0000
1000
0000
0001
0100
0010
0000
1000
0000
,
0001
0010
0100
0000
0010
0000
0100
0000
1000
0000
0010
0000
0101
0000
0000
0000
,
0001
0010
0100
1000
0001
0000
1000
0000
1000
0100
0010
0001
1000
0000
0010
0000
,
0100
0001
0010
0001
1000
0000
0010
0000
0101
0000
0110
0000
1100
0000
0000
0000
,
0010
0000
1000
0100
0010
0001
0100
0000
0001
0000
0010
0000
0100
0000
0010
0000
,
0100
0000
1000
0010
0100
0000
1000
0000
0100
0000
0001
0000
0011
0000
0101
0000
,
1000
0001
0010
0001
0100
0000
1000
0000
0010
1000
0100
0001
1000
0000
0010
0000
,
0001
0000
0100
0010
1000
0000
0001
0000
0010
0000
0010
0000
1100
0000
0000
0000
,
0044
0000
0000
0000
0000
0000
0000
0033
1000
0100
0001
1000
0010
0000
0000
0000
,
0201
0000
0000
0000
1000
0000
1000
0000
0310
0000
1000
0100
0001
0000
0100
0000
,
0010
0000
0001
1000
0010
0000
0100
0000
0002
0000
0010
0000
0010
0000
0000
0003
,
2000
0000
0100
0001
3020
0000
0100
1030
,
0001
0000
0010
1000
0010
0000
0001
0000
0200
0000
1000
0000
0002
0000
0000
0300
,
0103
0010
1000
0100
0001
0100
0010
1000
,
0010
0001
0100
0010
1000
0000
0000
0000
2002
0000
0000
0000
3003
0000
0010
0001
,
0010
0000
0100
1000
0100
0000
1000
0001
1000
0000
0010
0100
0010
0000
1000
0000
,
0001
0000
0010
0000
0100
0000
1000
0000
0001
0010
0001
0010
2000
0000
0000
0000
,
3010
0000
0001
0100
0010
0000
1000
0000
0001
0000
0100
0000
0010
0000
1100
0000
,
0000
0000
0100
1000
0010
0000
0100
0000
1000
0000
0100
0000
0101
0000
0000
0000
,
0110
0010
1000
0001
0010
1000
0010
0101
,
0000
0000
0001
0100
1000
0000
0100
0000
0010
0000
1000
0000
1001
0000
0000
0000
,
0010
0000
1000
0001
0010
0000
0001
0000
0100
0000
1000
0100
0010
0000
1000
0000
,
0100
0001
0100
1000
0010
0000
0100
0000
0001
0000
1100
0000
0000
0000
0101
0000
,
0010
1000
0010
1000
0100
0000
0010
0000
0010
0001
0010
0001
0100
0000
0010
0000
,
1000
0100
0010
0100
1000
0001
0100
0010
2000
0000
0000
0000
3002
0000
0000
0000
,
0013
0000
0001
0000
0100
0000
0010
1000
0001
0000
0010
0000
1001
0000
0000
0000
,
0100
0002
0000
0000
1003
0020
0000
0000
0031
2000
0000
0000
3100
0002
0000
0000
,
0203
0000
0000
0000
0310
0000
1000
0001
0020
0000
0000
0000
1000
0000
0000
0000
,
0031
1000
0010
0100
0001
0010
2100
0000
,
3100
0000
0100
0000
1000
0001
0100
0000
0010
0000
0020
0000
0000
0000
1030
0000
,
0100
1000
0000
0000
0100
0000
0010
0000
0001
1000
0010
0000
0002
0000
0000
0000
,
0013
0000
1010
0000
0000
0000
1000
0000
0100
0000
0011
0000
0000
0000
0001
1000
,
0100
0010
0100
0012
0000
1003
0100
1001
,
0000
0000
0010
1000
0100
0010
0001
1000
0010
0000
0010
0000
2000
0000
0000
0000
,
3010
0100
0001
0000
0011
0000
0000
0000
1000
0001
0010
0000
1100
0000
0000
0000
,
0010
0000
0001
0010
0100
0000
0010
0100
1000
0000
0001
0000
1001
0000
0000
0000
,
0100
0010
1000
0000
1001
0000
0000
0000
0100
0001
0010
0000
0110
0000
0000
0000
,
1000
0000
0010
0100
1000
0000
0100
0010
0001
0000
0010
0000
1000
0000
0001
0000
,
1000
0100
0010
0000
0011
0000
0000
0000
0001
0010
0100
0000
1100
0000
0000
0000
,
0010
0000
1000
0001
0010
0000
0100
0000
0010
0000
1010
0000
0011
0000
0000
0000
,
0002
0000
0010
0000
0103
0000
0010
1000
0200
0000
0010
0000
1300
0000
1000
0010
,
0100
0000
0001
0010
0001
0100
0010
0000
1000
0000
0001
0000
0110
0000
0000
0000
,
0010
0000
1000
0000
0100
0000
1000
0010
0100
0000
1000
0000
0100
0000
0001
0010
,
0001
0000
1000
0010
0100
0000
0001
0000
1100
0000
0000
0000
0101
0000
0000
0000
,
0010
1000
0001
0010
0100
0000
0010
0000
0001
0100
0010
1000
0100
0000
0010
0000
,
1000
0001
0010
0100
0010
0000
1000
0000
0010
0000
0001
0000
1001
0000
0000
0000
,
1000
0000
0010
0000
0001
0000
0010
0000
0100
0000
1000
0000
0100
0000
0001
0010
,
0100
0000
0010
0100
1000
0010
0100
0000
0001
1000
0100
0010
1000
0000
0010
0000
,
0001
0100
0010
0100
1000
0000
0100
0000
0010
1000
0100
0010
0001
0000
0100
0000
,
0010
1000
0100
0010
0001
0100
0010
1001
,
0000
0000
1000
0010
0100
0000
1000
0000
0100
0001
0010
0001
0100
0010
1000
0100
,
0010
0001
0100
1000
0100
0010
1000
0100
0010
1000
0010
0001
0100
0010
1000
0001
,
2000
0000
0000
3100
0020
0000
0000
0130
1000
0001
0100
0010
0100
0100
0001
0000
,
0020
0000
0000
1030
0002
0000
0000
0103
0010
1000
0100
0001
0100
1000
0010
0000
,
0100
0000
0001
0000
0010
0000
0100
1000
0100
0000
1000
0000
0010
0000
0100
0001
1000
0000
0010
0000
0100
0000
0001
0000
0010
0000
0100
0000
1000
0000
0001
0000
,
0100
0010
0100
0000
0001
0000
1000
0000
0100
1000
0100
0000
0010
0000
0001
0000
1001
0000
0000
0000
0100
0000
0010
0000
0002
0000
0000
0000
0000
0000
0000
0000
,
0103
0010
1000
0000
1100
0000
0000
0000
0001
1000
0100
0000
0011
0000
0000
0000
,
0100
0000
1000
0100
0010
0000
0100
0010
0001
0000
1000
0000
1001
0000
0000
0000
,
0010
0100
0001
0000
1001
0000
0000
0000
0010
1000
0100
0000
0110
0000
0000
0000
,
0001
0000
0100
0010
0001
0000
0010
0100
1000
0000
0100
0000
0001
0000
1000
0000
,
0001
0010
0100
0000
1100
0000
0000
0000
1000
0100
0010
0000
0011
0000
0000
0000
,
0100
0000
0001
1000
0100
0000
0010
0000
0100
0000
0101
0000
1100
0000
0000
0000
,
2000
0000
0100
0000
3010
0000
0100
0001
0020
0000
0100
0000
0031
0000
0001
0100
,
0010
0000
1000
0100
1000
0010
0100
0000
0001
0000
1000
0000
0110
0000
0000
0000
,
0002
0000
0010
0000
0103
0000
0010
1000
0200
0000
0010
0000
1300
0000
1000
0010
,
0100
0000
0001
0010
0001
0100
0010
0000
1000
0000
0001
0000
1001
0000
0000
0000
,
0110
0000
1000
0100
0001
0000
0100
0000
2000
0000
0020
0000
0000
0000
3000
0000
,
0130
0000
0001
0000
0010
0000
0001
0100
1000
0000
0100
0000
0010
0000
1000
0100
,
0010
0000
1000
0010
0001
0000
0100
0000
0020
0000
1000
0000
0031
0000
0010
0000
,
1000
0100
1000
0010
0001
0000
0010
0000
0100
0001
0010
1000
0001
0000
1000
0000
,
0010
0001
0100
0010
1000
0000
0001
0000
1100
0000
0110
0000
0011
0000
0000
0000
,
1000
0010
0100
0000
0001
0000
0010
0000
0100
0000
0010
0001
0100
0000
0010
0000
,
1000
0100
0001
0100
0010
0000
0001
0000
1000
0000
0010
0000
0101
0000
0000
0000
,
0001
0010
0100
1000
0010
0000
0100
0000
1000
0100
0001
0010
0100
0000
0010
0000
,
0001
0100
0010
1000
0001
0000
0010
0000
1100
0000
1100
0000
0101
0000
0000
0000
,
0110
0000
1000
0000
0101
0000
0010
0000
1100
0000
1000
0010
0100
0000
2000
0000
,
0100
0000
3100
0001
0010
0000
0100
0000
0110
0000
0000
0000
2002
0000
0000
0000
,
3003
0000
0000
0000
;
