#TITLE:The World's Got a Problem;
#SUBTITLE:;
#ARTIST:bill wurtz;
#TITLETRANSLIT:;
#SUBTITLETRANSLIT:;
#ARTISTTRANSLIT:;
#GENRE:;
#CREDIT:Made by 8Chasey in 3.9;
#MUSIC:The World's Got a Problem.mp3;
#BANNER:;
#BACKGROUND:The World's Got a Problem-bg.png;
#CDTITLE:cdtitle.png;
#SAMPLESTART:78.700;
#SAMPLELENGTH:12.000;
#SELECTABLE:YES;
#OFFSET:-0.200;
#BPMS:0.000=99.000
,312.000=98.000
,313.000=94.000
,314.000=88.000
,315.000=83.000
,316.000=82.000
,317.000=78.001
,318.000=72.001
,319.000=52.001
,320.000=48.001
;
#STOPS:87.500=1.220;
#DISPLAYBPM:99.000;
#BGCHANGES:;
#FGCHANGES:;

//--------------- dance-single - LIGHT ----------------
#NOTES:
     dance-single:
     LIGHT:
     Easy:
     1:
     0.082,0.098,0,0.063,0:
0000
0000
0000
0000
,
0000
0000
0000
0000
,
0001
0000
0000
0000
,
1000
0000
0000
0000
,
0001
0000
0100
0000
,
0001
0000
0000
0000
,
1000
0000
0000
0000
,
0001
0000
0000
0000
,
1000
0000
0100
0000
,
1000
0000
0000
0000
,
0010
0000
0000
0000
,
1000
0000
1000
0000
,
0010
0000
0000
0000
,
0001
0000
0001
0000
,
0100
0000
0000
0000
,
0001
0000
1000
0000
,
0001
0000
0001
0000
,
1000
0000
0001
0000
,
1000
0000
1000
0000
,
0001
0000
1000
0000
,
0010
0000
0000
0000
,
0200
0000
0000
0300
,
0000
0000
0000
0000
,
0001
0000
0000
0000
,
1000
0000
0000
0000
,
0001
0000
0010
0000
,
0001
0000
0000
0000
,
1000
0000
0000
0000
,
0001
0000
0000
0000
,
1000
0000
0010
0000
,
1000
0000
0000
0000
,
0100
0000
0000
0000
,
0010
0000
0100
0000
,
1000
0000
1000
0000
,
0010
0000
0100
0000
,
0001
0000
0001
0000
,
1000
0000
0000
0000
,
0001
0000
0010
0000
,
0100
0000
0100
0000
,
1000
0000
0001
0000
,
0100
0000
0100
0000
,
0001
0000
1000
0000
,
0010
0000
0000
0000
,
0200
0000
0300
0000
,
0020
0000
0000
0000
,
0030
0000
0000
0000
,
0200
0000
0000
0000
,
0300
0000
0000
0000
,
0002
0000
0000
0000
,
0003
0000
0000
0000
,
2000
0000
0000
0000
,
3000
0000
0000
0000
,
0010
0000
0000
0000
,
0100
0000
0000
0000
,
0010
0000
0100
0000
,
0001
0000
0000
0000
,
0100
0000
0000
0000
,
0010
0000
0000
0000
,
0100
0000
0010
0000
,
1000
0000
0000
0000
,
0010
0000
0100
0000
,
0001
0000
0001
0000
,
0100
0000
0010
0000
,
1000
0000
1000
0000
,
0002
0000
0003
0000
,
2000
0000
3000
0000
,
0001
0000
0100
0000
,
0010
0000
0010
0000
,
1000
0000
0100
0000
,
0010
0000
0100
0000
,
0010
0000
0000
0000
,
0100
0000
0100
0000
,
0020
0000
0030
0000
,
0100
0000
0100
0000
,
0020
0000
0030
0000
,
0100
0000
0100
0000
,
0020
0000
0000
0000
,
0030
0000
0000
0000
,
0002
0000
0000
0000
,
0003
0000
0000
0000
,
2000
0000
0000
3000
;

//--------------- dance-single - STANDARD ----------------
#NOTES:
     dance-single:
     STANDARD:
     Medium:
     3:
     0.163,0.157,0,0.136,0:
0000
0000
0000
0000
,
0000
0000
0000
0000
,
0001
0000
0000
0001
0000
0000
0000
0000
,
1000
0000
0000
1000
0000
0000
0000
0000
,
0001
0000
0000
0100
0000
0000
0100
0000
,
0002
0000
0103
0010
,
1000
0000
0000
1000
0000
0000
0000
0000
,
0001
0000
0000
0001
0000
0000
0000
0000
,
1000
0001
0100
0001
,
2000
0000
3000
0000
,
0010
1000
0001
0000
,
0100
0100
0001
0000
,
0010
0001
1000
0000
,
0001
0010
0001
1000
,
0200
0000
0310
0000
,
0001
1000
0001
0100
,
0001
0010
0001
0000
,
1000
0100
0001
0000
,
0100
0010
0100
0000
,
0010
0001
1000
1000
,
0020
0000
0030
0000
,
2000
0000
0000
0000
0000
0000
0000
3001
,
0000
0000
0000
0000
,
0001
0000
0000
0010
0000
0000
0001
0000
,
1000
0000
0000
0100
0000
0000
1000
0000
,
0001
0100
0010
0100
,
0002
0000
0103
0000
,
1000
0000
0000
0100
0000
0000
1000
0000
,
0001
0000
0000
0010
0000
0000
0001
0000
,
1000
0100
0010
0001
,
2000
0000
3001
0000
,
0200
0000
0310
0000
,
0010
1000
0100
0000
,
1000
0001
1000
0100
,
0010
0001
0100
0000
,
0001
0100
0001
0000
,
2000
0000
3100
0000
,
0001
1000
0020
0000
,
0130
0000
0100
0001
,
1000
1000
0001
0000
,
0100
0010
0100
0000
,
0001
0100
1000
0100
,
0020
0000
1030
0000
,
0200
0000
0310
0100
,
0020
0000
0031
0000
,
0100
0001
1000
0000
,
0200
0000
1300
0000
,
1000
0010
0100
0000
,
0002
0000
0013
0000
,
0001
0100
0010
0000
,
2000
0000
3100
0000
,
1000
0001
0100
0000
,
0010
0000
0000
0010
0000
0000
0000
0000
,
0100
0000
0000
0100
0000
0000
0000
0000
,
0010
1000
0100
1000
,
0002
0000
1003
0000
,
0100
0000
0000
0100
0000
0000
0000
0000
,
0010
0000
0000
0010
0000
0000
0000
0000
,
0100
1000
0010
0010
,
2000
0000
3001
0000
,
0010
0001
0100
0000
,
0001
0100
0001
0000
,
0100
0001
0010
0001
,
1000
0100
1000
0000
,
0002
0000
0013
0000
,
2000
0000
3100
0000
,
0010
0001
0100
0100
,
0010
0100
0010
0000
,
1000
0001
0100
0000
,
0010
1000
0100
1000
,
0020
0000
0030
0000
,
0100
0001
0010
0001
,
0200
0000
0300
0000
,
0001
1000
0100
1000
,
0002
0000
0003
0000
,
0100
0001
0010
0001
,
2000
0000
0000
0000
,
3000
0000
0000
0000
,
0020
0000
0030
0000
,
2000
3000
0002
0003
,
0200
0000
0000
0300
;

//--------------- dance-single - HEAVY ----------------
#NOTES:
     dance-single:
     HEAVY:
     Hard:
     6:
     0.306,0.294,0,0.15,0.124:
0000
0000
0000
0000
,
0000
0000
0000
0000
,
0001
0000
0000
0010
0000
0000
0001
0000
0000
0000
0100
0000
0001
0000
0000
0000
,
1000
0000
0000
0010
0000
0000
1000
0000
0000
0000
0100
0000
1000
0000
0000
0000
,
0001
0100
0000
0010
1000
0000
0100
0000
,
0020
0000
0001
0001
0000
0100
0130
0000
,
1000
0000
0000
0001
0000
0000
1000
0000
0000
0000
0010
0000
1000
0000
0000
0000
,
0001
0000
0000
1000
0000
0000
0001
0000
0000
0000
0100
0000
0001
0000
0000
0000
,
0010
0001
0100
0000
0001
0000
1000
0100
,
2000
0010
0001
3100
,
0010
0000
0000
0001
0000
0000
0001
0000
0100
0000
0000
0010
0000
0000
1000
0000
,
0001
0000
0100
0001
0100
0000
0010
0000
,
1000
0000
0000
0010
0000
0000
1000
0000
0001
0000
0000
0100
0000
0000
0010
0000
,
0100
0000
0001
0000
1000
0100
0001
0000
,
0100
0000
0010
0001
0010
0000
0001
0000
,
0200
0001
0320
1000
,
0130
0000
0000
0001
0000
0000
1000
0000
0010
0000
0000
0010
0000
0000
0100
0000
,
0010
0000
1000
0100
1000
0000
0001
0000
,
0100
0000
0000
0001
0000
0000
1000
0000
0010
0000
0000
1000
0000
0000
0100
0000
,
0010
0000
0001
0010
0001
0000
1000
0000
,
0100
1000
0010
0000
0100
0000
0001
0000
,
0200
0000
0000
0000
0000
0000
0000
0020
,
0000
0000
0000
0000
0330
0000
0010
0100
,
0001
0000
0000
0001
0000
0000
0100
0000
0000
0000
0001
0000
0010
0000
0001
0000
,
1000
0000
0000
1000
0000
0000
0100
0000
0000
0000
1000
0000
0010
0000
1000
0000
,
0100
1000
0001
0000
0100
0001
1000
0000
,
0020
0100
1000
0130
,
0001
0000
0000
0010
0000
0000
0010
0000
0000
0000
0001
0000
1000
0000
0100
0000
,
1000
0000
0000
0010
0000
0000
0010
0000
0000
0000
1000
0000
0100
0000
1000
0000
,
0001
0000
0100
0010
1000
0000
0100
0000
,
0020
0000
0000
0001
0000
0031
0000
0100
,
0020
0000
0000
1000
0000
1030
0000
0100
,
0010
0000
0000
0100
0000
0000
0010
0000
0001
0000
0000
0001
0000
0000
1000
0000
,
0100
1000
0001
0000
0010
0100
1000
0000
,
0010
0000
0000
1000
0000
0000
1000
0000
0010
0000
0000
0100
0000
0000
0001
0000
,
0100
0000
0001
0010
0100
0000
0010
0000
,
0100
0000
1000
0010
1000
0000
0001
0000
,
0200
0001
0320
1000
,
0130
0000
0000
0100
0000
0000
0001
0000
0010
0000
0000
0001
0000
0000
1000
0000
,
0010
1000
0100
0000
0010
0001
0100
0000
,
0001
0000
0000
0010
0000
0000
0001
0000
1000
0000
0000
0100
0000
0000
1000
0000
,
0001
0000
0100
0010
1000
0000
0100
0000
,
1000
0000
0000
0010
0000
0000
0010
0000
1000
0000
0000
0010
0000
0000
0010
0000
,
0200
0000
0310
0100
0002
0000
1003
0000
,
0020
0000
0000
0000
0000
0000
1000
0000
1030
0000
0000
0100
1000
0000
0001
0000
,
1000
0000
0000
0010
0000
0000
0010
0000
1000
0000
0000
0000
0001
0000
0000
0000
,
0020
0000
0000
0000
0000
0000
0001
0000
0031
0000
0000
0100
0001
0000
1000
0000
,
0001
0000
0000
0010
0000
0000
0010
0000
0001
0000
0000
0000
1000
0000
0000
0000
,
0200
0000
0000
0000
0000
0000
1000
0000
1300
0000
0000
0010
1000
0000
0010
0000
,
0100
0000
0000
0001
0000
0000
0001
0000
0100
0000
0000
0000
0001
0000
0010
0000
,
0002
0000
0000
0000
0103
0000
0010
0000
0100
0000
0000
0000
0010
1000
0010
0000
,
1000
0000
0000
0100
0000
0000
0010
0000
0002
0000
0000
0000
0103
0000
0000
0000
,
0001
0000
0000
1000
0000
0000
0001
0000
0000
0000
0100
0000
0001
0000
0000
0000
,
1000
0000
0000
0001
0000
0000
1000
0000
0000
0000
0100
0000
1000
0000
0000
0000
,
0010
1000
0100
0000
0010
0001
0100
0000
,
0002
0000
0010
0010
0000
0100
0103
0000
,
0010
0000
0000
1000
0000
0000
0010
0000
0000
0000
1000
0000
0001
0000
0000
0000
,
0010
0000
0000
0001
0000
0000
0010
0000
0000
0000
0001
0000
0100
0000
0000
0000
,
0010
1000
0010
0000
0100
0010
0100
0000
,
0001
0000
0000
0000
1000
0000
0010
0000
1000
0000
0000
0100
1000
0000
0001
0000
,
0010
0000
0000
0001
0000
0000
0001
0000
0100
0000
0000
0001
0000
0000
1000
0000
,
0010
1000
0100
1000
0001
0000
0100
0001
,
0010
0000
0000
0010
0000
0000
0001
0000
1000
0000
0000
0010
0000
0000
1000
0000
,
0100
1000
0001
0000
0010
0001
0100
0000
,
0001
0000
0000
0001
0000
0000
0001
0000
0100
0000
0001
0000
0100
0000
0000
0000
,
0020
1000
0230
0001
,
0310
0000
0000
1000
0000
0000
0010
0000
1000
0000
0000
0100
0000
0000
1000
0000
,
0001
0100
0010
0100
0001
1000
0100
0000
,
1000
0000
0000
0010
0000
0000
0010
0000
0100
0000
0000
0001
0000
0000
0100
0000
,
0001
0010
0001
0000
1000
0010
0100
0000
,
0002
0000
0000
0010
0000
0000
0013
0000
0001
0000
0100
0000
0010
0000
0000
0000
,
1000
0100
1000
0000
0001
0010
0001
0000
,
2000
0000
0000
0010
0000
0000
3010
0000
1000
0000
0010
0000
0100
0000
0000
0000
,
0001
0100
0001
0000
1000
0100
1000
0000
,
0020
0000
0000
0100
0000
0000
0130
0000
0001
0000
0010
0000
0001
0000
0000
0000
,
1000
0100
0010
0000
0001
0000
0010
0000
,
0200
0000
0000
0020
0000
0000
0000
0000
,
0000
0000
0330
0000
,
0002
0100
1000
0103
,
0020
2030
3002
0013
,
0200
0000
0000
0300
;
