#TITLE:The Snow Song;
#SUBTITLE:(From Thomas and Friends);
#ARTIST:Mike O'Donnell and Junior Campbell;
#TITLETRANSLIT:;
#SUBTITLETRANSLIT:;
#ARTISTTRANSLIT:;
#GENRE:;
#CREDIT:8Chasey 2025;
#MUSIC:The Snow Song (from Thomas and Friends).ogg;
#BANNER:;
#BACKGROUND:;
#CDTITLE:;
#SAMPLESTART:53.990;
#SAMPLELENGTH:16.000;
#SELECTABLE:YES;
#OFFSET:-2.000;
#BPMS:0.000=60.000
,122.000=50.000
,123.000=45.000
,123.333=39.000
,124.000=60.000
,133.000=63.000
,134.000=55.000
,134.333=36.000
,134.667=42.000
,135.333=36.000
,136.000=60.000
;
#STOPS:;
#DISPLAYBPM:40.000:60.000;
#BGCHANGES:;
#FGCHANGES:;

//--------------- dance-single - 8Chasey ----------------
#NOTES:
     dance-single:
     8Chasey:
     Beginner:
     1:
     0,0,0,0,0:
0000
0000
0000
0000
,
0000
0000
0000
0000
,
0000
0000
0000
0000
,
0000
0000
0000
0000
,
0000
0000
0000
0000
,
0001
0000
0001
0000
,
1000
0000
1000
0000
,
0001
0000
0000
0000
,
1000
0000
0000
0000
,
1000
0000
1000
0000
,
0001
0000
0001
0000
,
1000
0000
0000
0000
,
0001
0000
0000
0000
,
0100
0000
0100
0000
,
0100
0000
0000
0000
,
0010
0000
0010
0000
,
0010
0000
0000
0000
,
0001
0001
0001
0001
,
0000
0000
0000
0000
,
0001
0000
0000
0000
,
1000
0000
0000
0000
,
0010
0000
0100
0000
,
0100
0000
0100
0000
,
0000
0000
0010
0000
,
0010
0000
0010
0000
,
0000
0000
1000
1000
,
1000
1000
0000
0000
,
0000
0000
0010
0010
,
0010
0010
0000
0000
,
0100
0000
0000
0000
,
0100
0000
0000
0000
,
0010
0000
0000
0000
,
0000
0000
0001
0000
,
0000
0000
1000
0000
,
0010
0000
0000
0000
;

//--------------- dance-single - 8Chasey ----------------
#NOTES:
     dance-single:
     8Chasey:
     Easy:
     1:
     0,0,0,0,0:
0000
0000
0000
0000
,
0000
0000
0000
0000
,
0001
0001
1000
1000
,
0001
1000
0001
0000
,
1001
0000
0000
0000
,
0010
0000
0100
0000
,
0010
0100
0010
0000
,
1000
0001
0000
0000
,
1000
0001
0000
0000
,
0100
0000
0010
0000
,
0100
0010
0100
0000
,
0001
1000
0000
0000
,
0001
1000
0000
0000
,
1001
0000
0001
0100
,
0001
0000
0010
0000
,
0110
0000
1000
0100
,
1000
0000
0010
0000
,
1000
1000
0001
0001
,
1000
0001
1000
0000
,
0020
0000
0130
0000
,
0200
0000
0310
0000
,
0110
0000
1001
0000
,
1000
0010
1000
0000
,
0100
0000
0010
0000
,
0001
0100
0001
0000
,
1000
0000
0010
0010
,
0100
0100
0010
0100
,
0010
0000
0100
0100
,
0010
0010
0100
0010
,
0200
0000
0300
0000
,
0002
0003
2000
3000
,
0020
0000
0000
0030
,
0100
0001
0010
0000
,
0100
1000
0010
0000
,
0200
0000
0000
0000
,
0300
0000
0000
0000
;

//--------------- dance-single - 8Chasey ----------------
#NOTES:
     dance-single:
     8Chasey:
     Medium:
     3:
     0,0,0,0,0:
0000
0000
0000
0000
,
0000
0000
0000
0000
,
2000
3002
0203
0310
,
1000
0000
1000
0001
0000
0001
0200
0000
0000
0310
0000
0000
,
1001
1000
0001
0010
,
0100
0000
0100
1000
0000
0000
0010
0000
1000
0001
0000
0000
,
0100
0000
0100
0001
0000
0000
0010
0000
0001
1000
0000
0000
,
0020
0000
0000
0130
0000
0000
0001
0000
0100
0001
0000
0000
,
0020
0000
0000
0130
0000
0000
1000
0000
0100
1000
0000
0000
,
1001
0000
0000
0001
0000
0000
0010
0000
0010
0001
0000
0000
,
0100
0000
0010
0100
0000
0000
0010
0000
0010
1000
0000
0000
,
0200
0000
0000
0310
0000
0000
0001
0000
0010
0001
0000
0000
,
0200
0000
0000
0310
0000
0000
1000
0000
0010
1000
0000
0000
,
1001
0001
0100
0010
,
1000
0100
1000
0100
0000
0000
1000
0000
0000
0001
0000
0000
,
0110
0100
1000
0001
,
1001
0000
0000
1000
0010
1000
0010
0000
0000
0100
0000
0000
,
0101
0001
1100
1000
,
0010
0000
0010
0100
0000
0100
0020
0000
0000
0130
0000
0000
,
0001
0000
0000
1000
0000
1000
0001
0000
0000
0000
0100
0010
,
0100
0000
0000
0000
0010
0100
0010
0000
0000
0000
0000
0000
,
2002
3003
0110
0100
,
0001
0000
0000
1000
0000
0000
0100
1000
0100
1000
0000
0000
,
0010
0100
0002
1003
,
0001
0000
0001
0010
0000
0000
0001
0000
0000
0100
0001
0100
,
0001
1000
1001
0001
,
0110
0000
0000
1000
0000
0000
0100
0000
0100
0010
0000
0010
,
0002
1003
1010
0101
,
0011
0000
0000
1100
0000
0000
1000
0000
1000
0001
0000
0001
,
0200
0000
0310
0100
,
0020
0000
0130
0010
,
2000
0000
0000
3001
,
0010
0000
0010
0001
0000
0000
2002
0000
0000
3003
0000
0000
,
1000
0000
1000
0100
0000
0000
0110
0000
0010
0000
0100
0000
,
0020
0000
0000
0000
,
0030
0000
0000
0000
;

//--------------- dance-single - 8Chasey ----------------
#NOTES:
     dance-single:
     8Chasey:
     Hard:
     6:
     0,0,0,0,0:
0000
0000
0000
0000
,
0000
0000
0000
0000
,
2000
3020
0230
0301
,
0100
0010
0100
0001
1000
0001
0020
0000
0000
0130
0100
0000
,
1001
0000
0001
0010
0000
1000
0010
0000
0100
0010
0000
0000
,
0001
0000
0001
0100
0000
0000
1000
0000
1000
0100
0000
0000
,
0010
0000
0100
0010
0000
0000
0100
0010
0100
0010
1000
0000
,
2010
0000
0100
3100
0000
0000
1000
0010
1000
0001
0010
0001
,
0012
0000
0100
0103
0000
0000
0001
0100
0001
1000
0100
1000
,
1001
0000
0001
0010
0000
0010
0100
0000
0100
1000
0000
1000
,
0010
0100
0010
0100
0000
0000
0010
0100
0010
0100
0001
0000
,
0102
0000
0010
0013
0001
0000
0100
0010
0100
0000
0010
1000
,
2100
0000
0010
3010
0000
0000
0100
0001
0100
0010
1000
0010
,
0210
0000
0000
0301
0010
0001
0100
0000
0100
0010
0000
0010
,
1000
0100
1000
0010
0000
1000
0001
0100
0001
0010
0000
0001
,
0200
0000
0000
0010
0010
0000
0301
0010
0001
1000
0100
0010
,
0200
0000
0000
0310
0000
0100
2100
0000
0000
3001
0000
0010
,
0220
0330
0022
0033
2200
3300
2002
3003
,
0001
0100
1000
0001
0010
1000
0002
0000
0100
0103
0000
0000
,
1010
1000
0100
0000
1000
0001
1001
0000
0000
1000
0001
0010
,
0011
0000
0001
0100
0001
1000
0020
0000
0100
0130
0000
0000
,
1001
0000
0100
0010
0001
1000
1020
0000
0000
0130
0001
0100
,
0001
0000
0001
1000
0000
1000
0100
0010
0100
1000
0000
0001
,
0100
0010
0100
0001
0000
1000
0020
0000
0000
0100
0000
0100
,
1030
0010
1000
0100
0010
0001
0200
0000
0000
0310
1000
0001
,
0020
0000
0000
0130
1000
0010
1000
0000
0001
0101
0000
0000
,
0001
0000
1000
1100
0000
0000
1000
0010
0100
0001
0010
0100
,
0020
0100
0100
0130
1000
0001
1000
1010
0000
0010
0110
0000
,
0100
0101
0000
0001
1001
0000
1000
0100
0010
0001
0100
0010
,
0200
1000
0010
0301
,
0020
0000
0000
0130
1000
0001
0100
0000
0000
0001
0020
0000
,
0200
0000
0000
0330
,
1000
0010
0100
0001
0000
0000
1000
2002
0000
0000
3003
0000
,
0001
0100
0010
1000
0000
0000
0001
1001
0200
0000
0302
0000
,
2000
0000
0000
0000
,
3003
0000
0000
0000
;

//--------------- dance-single - 8Chasey ----------------
#NOTES:
     dance-single:
     8Chasey:
     Challenge:
     9:
     0,0,0,0,0:
0000
0000
0000
0000
,
0000
0000
0000
0000
,
2200
0300
0002
3003
0022
0003
0200
0330
,
1000
0000
0000
0000
0000
0000
0000
0000
0010
0000
0000
0000
0000
0000
0000
0000
1000
0000
0000
0000
0000
0000
0000
0000
0010
0000
0000
0000
0000
0000
0000
0000
0100
0000
0000
0000
0000
0000
0000
0000
0000
0000
0000
0000
0000
0000
0000
0000
0001
0000
0000
0000
0000
0000
0000
0000
0010
0000
0000
0000
0000
0000
0000
0000
0001
0000
0000
0000
0000
0000
0000
0000
0000
0000
0000
0000
0000
0000
0000
0000
0100
0000
0000
0000
0000
0000
0000
0000
0010
0000
0000
0000
0000
0000
0000
0000
0200
0000
0000
0000
0000
0000
0000
0000
0000
0000
0000
0000
0000
0000
0000
0000
0000
0000
0000
0000
0000
0000
0000
0000
0000
0000
0000
0000
0000
0000
0000
0000
0301
0000
0000
0000
0000
0000
0000
0000
0000
0000
0000
0000
0000
0000
0000
0000
0011
0000
0000
0000
0000
0000
0000
0000
0000
0000
0000
0000
0000
0000
0000
0000
0010
0000
0000
0000
0000
0100
0000
0000
0000
0000
0000
0010
0000
0000
0000
0000
0100
0000
0000
0000
0000
0000
0000
0000
0000
0000
0000
0000
0000
0000
0000
0000
,
1001
0000
1000
0010
0100
0000
0001
0000
1000
0000
0100
0000
0110
0000
0001
0100
0010
0000
1000
0000
0001
0000
0010
0000
,
0200
0000
1000
0000
1300
0000
1001
0000
0001
0000
0000
0100
0001
0000
0010
0000
0100
0000
1100
0000
1000
0010
1000
0000
,
0010
0000
0100
0000
0001
0000
0101
0000
0000
0100
0010
0000
0100
0000
0010
1000
0010
0000
1000
0000
0100
0000
0010
0000
,
0012
0000
0010
0000
0103
0010
2000
0000
0001
0000
3100
0000
0110
0000
0010
0000
0001
0000
0100
0000
0010
0001
0100
0000
,
0010
0000
1000
0100
0010
0000
0011
0000
0001
0010
0100
0000
1100
0000
1001
0000
0101
0000
0001
0010
0001
1000
0100
1000
,
0020
0000
0001
0000
1030
0000
1100
0000
1000
0000
0100
0000
0020
0000
1000
0000
0031
0000
0101
0000
0100
0010
0100
0000
,
0020
0000
1000
0000
1030
0000
0100
1000
0100
0000
1000
0100
0020
0000
0001
0000
0031
0000
0100
0001
0100
0000
0010
0000
,
2010
0000
0100
0000
3100
0010
0002
0000
0100
0000
1003
0000
0010
0000
1000
0100
0001
0000
0100
0000
1000
0000
0001
0000
,
0012
0000
0010
0000
0103
0010
1000
0000
0100
1000
0001
0000
0010
0001
0100
0010
1000
0100
0010
0001
1000
0010
0100
0001
,
0200
0000
1000
0000
0010
0000
0301
0000
0010
0001
0100
0000
0110
0000
0010
1000
0100
0000
0001
0000
0100
1000
0100
0000
,
0120
0000
0001
0000
1000
0000
0130
0000
1000
0100
0010
0000
0002
0000
0100
0000
1000
0000
0013
0000
0100
1000
0010
0000
,
0210
0000
0001
0000
1000
0000
0310
0000
1000
0100
1000
0000
0001
0010
0001
0000
0001
0000
1000
0100
1000
0000
1000
0000
,
0020
0000
0100
0000
0130
0000
0001
0100
0001
0000
1000
0000
2100
0000
0010
0000
0001
0000
3020
0000
0100
0000
0130
0000
,
0101
0000
0001
0010
0100
0000
1100
0000
1000
0010
0100
0000
0110
0000
0010
1000
0001
0000
1001
0000
0001
0010
0002
0000
,
0103
0010
1000
0100
1000
0000
0001
0010
0001
0000
0100
0010
0200
0000
1000
0000
0010
0000
0301
0000
0010
0001
0010
0000
,
2100
0000
0001
0000
3100
0000
0010
0000
0001
0100
0010
0000
1020
0000
0001
0000
0100
0000
1030
0000
0100
0010
0001
0000
,
0021
0000
1000
0000
0100
0000
0031
0000
0100
0010
1000
0000
0200
0000
1000
0000
1300
0001
1000
0000
0001
0010
0001
0000
,
0202
0000
0000
0000
0000
0000
0000
0000
0000
0000
0000
0000
0000
0000
0000
0000
0000
0000
0000
0000
0000
0000
0000
0000
0003
0000
0000
0000
0000
0000
0000
0000
0010
0000
0000
0000
0000
0000
0000
0000
0000
0000
0000
0000
0000
0000
0000
0000
0310
0000
0000
0000
0000
0000
0000
0000
0000
0000
0000
0000
0000
0000
0000
0000
1000
0000
0000
0000
0000
0100
0000
0000
0000
0000
0000
1000
0000
0000
0000
0000
0100
0000
0000
0000
0000
0000
0000
0000
0000
0000
0000
0000
0000
0000
0000
0000
0012
0000
0000
0000
0000
0000
0000
0000
0000
0000
0000
0000
0000
0000
0000
0000
0100
0000
0000
0000
0000
0000
0000
0000
0000
0000
0000
0000
0000
0000
0000
0000
0010
0000
0000
0000
0000
0000
0000
0000
0000
0000
0000
0000
0000
0000
0000
0000
1003
0000
0000
0000
0000
0000
0000
0000
0000
0000
0000
0000
0000
0000
0000
0000
0100
0000
0000
0000
0000
0000
0000
0000
0010
0000
0000
0000
0000
0000
0000
0000
0100
0000
0000
0000
0000
0000
0000
0000
0000
0000
0000
0000
0000
0000
0000
0000
,
2000
0000
0100
0000
0001
0000
3010
0000
0100
0010
0100
0000
0101
0000
0001
0000
1000
0000
1100
0000
1000
0010
1000
0000
,
0020
0000
0100
0000
0130
0000
0001
0000
0010
0100
0010
0000
0200
0000
1000
0000
1300
0000
0010
0000
1000
0010
0100
0000
,
0002
0000
0013
0000
0010
0001
2000
0000
3100
0000
0100
1000
0020
0000
0130
0000
0001
0100
0001
0000
1000
0000
0100
0000
,
2100
0000
0010
0000
0001
0000
3001
0000
0010
0001
0010
0000
0110
0000
0100
1000
0010
0000
0101
0000
0100
0001
0010
0000
,
1100
0000
1000
0010
0100
0000
1001
0000
0001
0010
0002
0000
0103
0010
0100
0001
0010
0000
0100
1000
0100
0000
1000
0001
,
2000
0000
0000
0000
0000
0000
0000
0000
0000
0000
0000
0000
0000
0000
0000
0000
0010
0000
0000
0000
0000
0000
0000
0000
0000
0000
0000
0000
0000
0000
0000
0000
0100
0000
0000
0000
0000
0000
0000
0000
0000
0000
0000
0000
0000
0000
0000
0000
3001
0000
0000
0000
0000
0000
0000
0000
0010
0000
0000
0000
0000
0000
0000
0000
0001
0000
0000
0000
0000
0000
0000
0000
0000
0000
0000
0000
0000
0000
0000
0000
1000
0000
0000
0000
0000
0100
0000
0000
0000
0000
0000
1000
0000
0000
0000
0000
0100
0000
0000
0000
0000
0000
0000
0000
0000
0000
0000
0000
0000
0000
0000
0000
0110
0000
0000
0000
0000
0000
0000
0000
0000
0000
0000
0000
0000
0000
0000
0000
0010
0000
0000
0000
0000
0000
0000
0000
0001
0000
0000
0000
0000
0000
0000
0000
0100
0000
0000
0000
0000
0000
0000
0000
0000
0000
0000
0000
0000
0000
0000
0000
0110
0000
0000
0000
0000
0000
0000
0000
0000
0000
0000
0000
0000
0000
0000
0000
0010
0000
0000
0000
0000
0000
0000
0000
1000
0000
0000
0000
0000
0000
0000
0000
,
0001
0000
1001
0000
1000
0001
1000
0000
1001
0000
0001
0020
0130
0010
0001
0100
0010
1000
0100
1000
0010
0100
0001
0010
,
0200
0000
1000
0000
1000
0000
0010
0000
1300
0000
0100
0000
0020
0000
0001
0000
0001
0000
0100
0000
0031
0000
1000
0001
,
2000
0000
0100
0000
3010
1000
0002
0000
0100
0000
0013
0000
0200
0000
0000
0000
0000
0000
1000
0000
0020
0000
0330
0000
,
2002
0000
0000
0000
0000
0000
0000
0000
0000
0000
0000
0000
0000
0000
0000
3003
0000
0000
0001
1000
0001
0000
0000
0000
,
1000
0000
0001
0000
0010
0000
0200
0000
0000
0000
0300
0000
1000
0100
0020
0000
0000
0000
0030
0000
0000
0000
0000
0000
,
0001
0000
1000
0000
0100
0000
0020
0000
0000
0000
0030
0000
0001
0010
0100
0000
0022
0000
0033
0000
2200
0000
3300
0000
,
2002
0000
0000
0000
,
3003
0000
0000
0000
;

//--------------- dance-double - 8Chasey ----------------
#NOTES:
     dance-double:
     8Chasey:
     Easy:
     1:
     0,0,0,0,0:
00000000
00000000
00000000
00000000
,
00000000
00000000
00000000
00000000
,
00010000
00010000
00001000
00001000
,
00010000
00001000
00010000
00000000
,
00011000
00000000
00000000
00000000
,
00001000
00000000
00010000
00000000
,
00001000
00010000
00001000
00000000
,
00010000
00001000
00000000
00000000
,
00010000
00001000
00000000
00000000
,
00010000
00000000
00001000
00000000
,
00010000
00001000
00010000
00000000
,
00001000
00010000
00000000
00000000
,
00001000
00010000
00000000
00000000
,
00011000
00000000
00010000
00010000
,
00010000
00000000
00001000
00000000
,
00011000
00000000
00001000
00001000
,
00001000
00000000
00010000
00000000
,
00001000
00001000
00010000
00010000
,
00001000
00010000
00001000
00000000
,
00020000
00000000
00031000
00000000
,
00002000
00000000
00013000
00000000
,
00022000
00033000
00011000
00000000
,
00001000
00010000
00001000
00000000
,
00010000
00000000
00011000
00000000
,
00010000
00001000
00010000
00000000
,
00001000
00000000
00010000
00010000
,
00001000
00001000
00010000
00001000
,
00010000
00000000
00001000
00001000
,
00010000
00010000
00001000
00010000
,
00002000
00000000
00003000
00000000
,
00020000
00030000
00002000
00003000
,
00020000
00000000
00030000
00000000
,
00001000
00010000
00001000
00000000
,
00010000
00001000
00010000
00000000
,
00022000
00000000
00000000
00000000
,
00033000
00000000
00000000
00000000
;

//--------------- dance-double - 8Chasey ----------------
#NOTES:
     dance-double:
     8Chasey:
     Medium:
     3:
     0,0,0,0,0:
00000000
00000000
00000000
00000000
,
00000000
00000000
00000000
00000000
,
00002000
00023000
00030200
00000310
,
00000001
00000000
00000001
00001000
00000000
00001000
00000200
00000000
00000000
00010300
00000000
00000000
,
00011000
00001000
01000000
00100000
,
10000000
00000000
10000000
01000000
00000000
00000000
00100000
00000000
00001000
00100000
00000000
00000000
,
00001000
00000000
00001000
00010000
00000000
00000000
00000010
00000000
00001000
00000001
00000000
00000000
,
00000020
00000000
00000000
00000130
00000000
00000000
00010000
00000000
00001000
00010000
00000000
00000000
,
00200000
00000000
00000000
01300000
00000000
00000000
00001000
00000000
00010000
00001000
00000000
00000000
,
00100000
00000000
00000000
01100000
00000000
00000000
01000000
00000000
00010000
00001000
00000000
00000000
,
00010000
00000000
00000000
00011000
00000000
00000000
00001000
00000000
00000100
00000001
00000000
00000000
,
00000020
00000000
00000000
00000130
00000000
00000000
00010000
00000000
00001000
00010000
00000000
00000000
,
00200000
00000000
00000000
01300000
00000000
00000000
00001000
00000000
00010000
00001000
00000000
00000000
,
00011000
00010000
00000100
00000010
,
00000001
00000010
00000001
00000000
00001000
00000000
00000001
00000000
00000000
00000100
00000000
00000000
,
00000110
00000010
00010000
00001000
,
00100000
00000000
00000000
01000000
00100000
01000000
00100000
00000000
00000000
00001000
00000000
00000000
,
01001000
00001000
00010100
00010000
,
00000100
00000000
00000100
00000010
00000000
00000010
00000200
00000000
00000000
00010300
00000000
00000000
,
00001000
00000000
00000000
00100000
00000000
00100000
01000000
00000000
00000000
00000000
10000000
00010000
,
10000000
00000000
00000000
00000000
01000000
00100000
01000000
00000000
00000000
00010000
00000000
00000000
,
00022000
00033000
00011000
00010000
,
00000100
00000000
00000000
00000010
00000000
00000000
00000001
00000010
00000001
00000000
00001000
00000000
,
00000100
00010000
00002000
00103000
,
01000000
00000000
01000000
10000000
00000000
00000000
00010000
00000000
00000000
01000000
00100000
01000000
,
00100000
10000000
10010000
00010000
,
00011000
00000000
00000000
00001000
00000000
00000000
00010000
00000000
00010000
00000100
00000000
00000100
,
00000020
00000031
00001001
00001000
,
00011000
00000000
00000000
00010000
00000000
00000000
00001000
00000000
00001000
01000000
00000000
01000000
,
00200000
00000000
01300000
00100000
,
02000000
00000000
03001000
00010000
,
00000020
00000000
00000000
00000130
,
00000010
00000000
00000000
00001000
00000000
00000000
00000100
00010000
00000000
00000000
00000000
00000000
,
00100000
00000000
00000000
01000000
00000000
00000000
00010000
00000000
10000000
00000000
01000000
00000000
,
00200000
00000000
00000000
00000000
,
00300000
00000000
00000000
00000000
;

//--------------- dance-double - 8Chasey ----------------
#NOTES:
     dance-double:
     8Chasey:
     Hard:
     5:
     0,0,0,0,0:
00000000
00000000
00000000
00000000
,
00000000
00000000
00000000
00000000
,
00012000
00003200
00000302
00000013
,
00000100
00000000
00001000
00000100
00010000
00001000
00020000
00000000
00000000
00130000
10000000
00000000
,
11000000
00000000
01000000
00010000
00000000
00010000
00001000
00000000
00001000
00000100
00000000
00000000
,
00000001
00000000
00000010
00000001
00000000
00000000
00001000
00000000
00000100
00001000
00000000
00000000
,
00000010
00000000
00000100
00000010
00000000
00000000
00001000
00000001
00001000
00000001
00000000
00000000
,
00012000
00000000
00000000
00103000
00000000
00000000
01000000
10000000
01000000
10000000
00000000
00000000
,
10200000
00000000
00000000
01300000
00000000
00000000
00001000
00010000
00001000
00010000
00000000
00010000
,
00000100
00000000
00001000
00000010
00000000
00000000
00000100
00000000
00000001
00000010
00000000
00000000
,
00000100
00000000
00000100
00010000
00000000
00000000
00001000
01000000
00001000
01000000
00000000
00000000
,
01200000
00000000
00000000
10300000
00000000
00000000
01000000
00100000
01000000
00000000
00100000
00000000
,
00102000
00000000
00000000
00013000
00000000
00000000
00000100
00000000
00001000
00000001
00001000
00000001
,
00000020
00000000
00000000
00000130
00010000
00001000
00010000
00000000
00010000
00100000
00000000
00100000
,
10000000
00000000
01000000
10000000
00000000
01000000
00100000
01000000
00100000
00001000
00000000
00010000
,
00000200
00000000
00000000
00000001
00000001
00000000
00001300
00000010
00001000
00000100
00000000
00010000
,
00002000
00000000
00000000
00103000
00010000
00100000
00020000
00000000
00000000
01030000
00000000
00100000
,
02200000
03300000
00022000
00033000
00000220
00000330
00002002
00003003
,
00000001
00000010
00001000
00010000
01000000
10000000
00020000
00000000
00100000
00130000
00000000
00000000
,
01100000
00000000
00000000
01000000
10000000
00100000
20000000
00000000
00000000
31000000
00010000
00001000
,
00000200
00000000
00000000
00000301
00000010
00000001
00000020
00000000
00000100
00000130
00000000
00000000
,
00001001
00000000
00000001
00000100
00001000
00010000
00002000
00000000
00000000
00103000
00000000
00100000
,
01000000
00000000
01000000
10000000
00000000
00010000
10000000
00010000
00100000
00001000
00000000
00001000
,
00010000
00000100
00001000
00000001
00000000
00000001
00000200
00000000
00000000
00001000
00001000
00000000
,
00000301
00000000
00000001
00001000
00000000
00001000
00000200
00000000
00000000
00010300
00001000
00010000
,
00200000
00000000
00000000
01300000
00000000
01000000
00010000
00000000
10000000
11000000
00000000
00000000
,
10000000
00000000
00010000
01010000
00000000
00000000
00100000
00001000
00010000
00000100
00000010
00000001
,
00000200
00000010
00000010
00000310
00001000
00000100
00000010
00000110
00000000
00010000
00010100
00000000
,
00001000
01001000
00000000
01000000
01100000
00000000
00100000
10000000
01000000
00010000
00001000
00010000
,
00000020
00000001
00000100
00001030
,
00000200
00000000
00000000
00010300
00001000
00010000
00001000
00000000
00000000
00100000
00020000
00000000
,
20000000
00000000
00000000
30030000
,
10000000
01000000
00100000
00001000
00000000
00000000
00020000
00002000
00000000
00000000
00033000
00000000
,
00010000
00000100
00000010
00000001
00000000
00000000
00001000
00000010
00000100
00000000
00002000
00000000
,
00020000
00000000
00000000
00000000
,
00033000
00000000
00000000
00000000
;

//--------------- dance-double - 8Chasey ----------------
#NOTES:
     dance-double:
     8Chasey:
     Challenge:
     9:
     0,0,0,0,0:
00000000
00000000
00000000
00000000
,
00000000
00000000
00000000
00000000
,
02020000
03000000
00002000
00033000
00002200
00003000
00000020
00000330
,
00000100
00000000
00000000
00000000
00000000
00000000
00000000
00000000
00001000
00000000
00000000
00000000
00000000
00000000
00000000
00000000
00000001
00000000
00000000
00000000
00000000
00000000
00000000
00000000
00000010
00000000
00000000
00000000
00000000
00000000
00000000
00000000
00000001
00000000
00000000
00000000
00000000
00000000
00000000
00000000
00000000
00000000
00000000
00000000
00000000
00000000
00000000
00000000
00000100
00000000
00000000
00000000
00000000
00000000
00000000
00000000
00001000
00000000
00000000
00000000
00000000
00000000
00000000
00000000
00010000
00000000
00000000
00000000
00000000
00000000
00000000
00000000
00000000
00000000
00000000
00000000
00000000
00000000
00000000
00000000
00001000
00000000
00000000
00000000
00000000
00000000
00000000
00000000
00010000
00000000
00000000
00000000
00000000
00000000
00000000
00000000
00200000
00000000
00000000
00000000
00000000
00000000
00000000
00000000
00000000
00000000
00000000
00000000
00000000
00000000
00000000
00000000
00000000
00000000
00000000
00000000
00000000
00000000
00000000
00000000
00000000
00000000
00000000
00000000
00000000
00000000
00000000
00000000
10300000
00000000
00000000
00000000
00000000
00000000
00000000
00000000
00000000
00000000
00000000
00000000
00000000
00000000
00000000
00000000
11000000
00000000
00000000
00000000
00000000
00000000
00000000
00000000
00000000
00000000
00000000
00000000
00000000
00000000
00000000
00000000
01000000
00000000
00000000
00000000
00000000
00100000
00000000
00000000
00000000
00000000
00000000
01000000
00000000
00000000
00000000
00000000
00100000
00000000
00000000
00000000
00000000
00000000
00000000
00000000
00000000
00000000
00000000
00000000
00000000
00000000
00000000
00000000
,
00101000
00000000
00001000
00010000
00000100
00000000
00000010
00000000
00000001
00000000
00001000
00000000
00001001
00000000
00001000
00000100
00010000
00000000
00001000
00000000
00100000
00000000
01000000
00000000
,
20000000
00000000
00100000
00000000
30100000
00000000
01100000
00000000
01000000
00000000
00000000
01000000
00001000
00000000
00010000
00000000
00000100
00000000
00000110
00000000
00000010
00000001
00000010
00000000
,
00000001
00000000
00000100
00000000
00001000
00000000
00011000
00000000
00000000
00010000
00001000
00000000
00100000
00000000
01000000
10000000
01000000
00000000
10000000
00000000
01000000
00000000
00100000
00000000
,
00102000
00000000
00100000
00000000
01003000
00010000
20000000
00000000
00010000
00000000
31000000
00000000
01100000
00000000
00100000
00000000
00001000
00000000
00010000
00000000
00000100
00001000
00000010
00000000
,
00000100
00000000
00000001
00000010
00000100
00000000
00001100
00000000
00001000
00000100
00000010
00000000
00000011
00000000
00001001
00000000
00001010
00000000
00001000
00000100
00010000
00001000
00100000
00010000
,
02000000
00000000
10000000
00000000
03010000
00000000
00110000
00000000
00100000
01000000
10000000
00000000
00200000
00000000
00010000
00000000
10300000
00000000
11000000
00000000
01000000
00010000
00001000
00000000
,
00020000
00000000
00000100
00000000
00030100
00000000
00001000
00000010
00001000
00000000
00000100
00000010
00000002
00000000
00000100
00000000
00000103
00000000
00000010
00001000
00000010
00000000
00010000
00000000
,
00012000
00000000
00100000
00000000
00103000
01000000
20000000
00000000
01000000
00000000
30010000
00000000
00100000
00000000
01000000
00010000
00001000
00000000
00010000
00000000
00001000
00000100
00000001
00000000
,
00000021
00000000
00000100
00000000
00000130
00010000
00001000
00000000
00100000
00010000
01000000
00000000
00100000
10000000
00010000
01000000
00010000
10000000
01000000
00100000
00001000
00010000
00000100
00000010
,
00000002
00000000
00000100
00000000
00000010
00000000
00010003
00000000
00001000
00010000
00100000
00000000
01100000
00000000
01000000
00010000
00100000
00000000
10000000
00000000
00100000
00001000
00010000
00000000
,
00010200
00000000
00000010
00000000
00000001
00000000
00001300
00000000
00000010
00000100
00001000
00000000
00020000
00000000
00100000
00000000
00001000
00000000
00030100
00000000
00001000
00000010
00000100
00000000
,
00000210
00000000
00000001
00000000
00001000
00000000
00000310
00000000
00010000
00001000
00010000
00000000
00001000
01000000
00001000
00000000
01000000
00000000
00100000
10000000
00100000
00000000
10000000
00000000
,
02000000
00000000
00100000
00000000
03100000
00000000
00001000
00010000
00001000
00000000
00010000
00000000
00010200
00000000
00000010
00000000
00000001
00000000
00002300
00000000
00000001
00000000
00003001
00000000
,
00000011
00000000
00000010
00000100
00001000
00000000
00001100
00000000
00000100
00000010
00000001
00000000
00001001
00000000
00001000
00000100
00010000
00000000
00011000
00000000
00010000
00001000
01000000
00000000
,
00100000
00000000
00000000
00000000
00000000
00000000
00000000
00000000
10000000
00000000
00000000
00000000
00000000
00000000
00000000
00000000
01000000
00000000
00000000
00000000
00000000
00000000
00000000
00000000
00100000
00000000
00000000
00000000
00000000
00000000
00000000
00000000
01000000
00000000
00000000
00000000
00000000
00000000
00000000
00000000
00000000
00000000
00000000
00000000
00000000
00000000
00000000
00000000
00010000
00000000
00000000
00000000
00000000
00000000
00000000
00000000
00001000
00000000
00000000
00000000
00000000
00000000
00000000
00000000
00010000
00000000
00000000
00000000
00000000
00000000
00000000
00000000
00000000
00000000
00000000
00000000
00000000
00000000
00000000
00000000
00001000
00000000
00000000
00000000
00000000
00000000
00000000
00000000
00000100
00000000
00000000
00000000
00000000
00000000
00000000
00000000
00000020
00000000
00000000
00000000
00000000
00000000
00000000
00000000
00000000
00000000
00000000
00000000
00000000
00000000
00000000
00000000
00000001
00000000
00000000
00000000
00000000
00000000
00000000
00000000
00000000
00000000
00000000
00000000
00000000
00000000
00000000
00000000
00000100
00000000
00000000
00000000
00000000
00000000
00000000
00000000
00000000
00000000
00000000
00000000
00000000
00000000
00000000
00000000
00001030
00000000
00000000
00000000
00000000
00000000
00000000
00000000
00000000
00000000
00000000
00000000
00000000
00000000
00000000
00000000
00000100
00000000
00000000
00000000
00000000
00000000
00000000
00000000
00010000
00000000
00000000
00000000
00000000
00000000
00000000
00000000
00000100
00000000
00000000
00000000
00000000
00000010
00000000
00000000
00000000
00000000
00000000
00000100
00000000
00000000
00000000
00000000
,
00000020
00000000
00000001
00000000
00000130
00000000
00010000
00000000
00001000
00100000
01000000
00000000
21000000
00000000
00100000
00000000
00010000
00000000
31000000
00000000
00100000
00001000
00010000
00000000
,
00010200
00000000
00000010
00000000
00000001
00000000
00001300
00000000
00000001
00000100
00001000
00000000
00020000
00000000
00001000
00000000
00031000
00100000
00010000
00000000
10000000
01000000
10000000
00000000
,
20200000
00000000
00000000
00000000
00000000
00000000
00000000
00000000
00000000
00000000
00000000
00000000
00000000
00000000
00000000
00000000
00300000
00000000
00000000
00000000
00000000
00000000
00000000
00000000
00000000
00000000
00000000
00000000
00000000
00000000
00000000
00000000
01000000
00000000
00000000
00000000
00000000
00000000
00000000
00000000
00000000
00000000
00000000
00000000
00000000
00000000
00000000
00000000
31000000
00000000
00000000
00000000
00000000
00000000
00000000
00000000
00000000
00000000
00000000
00000000
00000000
00000000
00000000
00000000
00010000
00000000
00000000
00000000
00000000
00001000
00000000
00000000
00000000
00000000
00000000
00010000
00000000
00000000
00000000
00000000
00001000
00000000
00000000
00000000
00000000
00000000
00000000
00000000
00000000
00000000
00000000
00000000
00000000
00000000
00000000
00000000
00001020
00000000
00000000
00000000
00000000
00000000
00000000
00000000
00000000
00000000
00000000
00000000
00000000
00000000
00000000
00000000
00010000
00000000
00000000
00000000
00000000
00000000
00000000
00000000
00000000
00000000
00000000
00000000
00000000
00000000
00000000
00000000
00000100
00000000
00000000
00000000
00000000
00000000
00000000
00000000
00000000
00000000
00000000
00000000
00000000
00000000
00000000
00000000
00001030
00000000
00000000
00000000
00000000
00000000
00000000
00000000
00000000
00000000
00000000
00000000
00000000
00000000
00000000
00000000
00000100
00000000
00000000
00000000
00000000
00000000
00000000
00000000
00000010
00000000
00000000
00000000
00000000
00000000
00000000
00000000
00000001
00000000
00000000
00000000
00000000
00000000
00000000
00000000
00000000
00000000
00000000
00000000
00000000
00000000
00000000
00000000
,
00000200
00000000
00001000
00000000
00000010
00000000
00000301
00000000
00000010
00000100
00010000
00000000
00011000
00000000
00001000
00000000
00100000
00000000
01100000
00000000
01000000
10000000
01000000
00000000
,
00200000
00000000
00001000
00000000
00301000
00000000
00010000
00000000
00000100
00000010
00000100
00000000
00002000
00000000
00000010
00000000
00003001
00000000
00000100
00000000
00001000
00010000
00001000
00000000
,
00100000
01000000
10000000
00000000
00100000
00000000
01000000
00010000
00100000
00000000
00001000
00000000
00021000
00000000
00030100
00000000
00000010
00000001
00000010
00000000
00001100
00000000
00001000
00000000
,
00000102
00000000
00000010
00000000
00001000
00000000
00001003
00000000
00000100
00010000
00001000
00000000
00011000
00000000
00010000
00100000
10000000
00000000
11000000
00000000
01000000
00100000
00001000
00000000
,
00011000
00000000
00010000
00000100
00000010
00000000
00000011
00000000
00000001
00000100
00002000
00000000
00013000
00001000
00010000
00100000
01000000
00100000
10000000
01000000
00100000
00001000
00010000
00000100
,
00000020
00000000
00000000
00000000
00000000
00000000
00000000
00000000
00000000
00000000
00000000
00000000
00000000
00000000
00000000
00000000
00000001
00000000
00000000
00000000
00000000
00000000
00000000
00000000
00000000
00000000
00000000
00000000
00000000
00000000
00000000
00000000
00000100
00000000
00000000
00000000
00000000
00000000
00000000
00000000
00000000
00000000
00000000
00000000
00000000
00000000
00000000
00000000
00000031
00000000
00000000
00000000
00000000
00000000
00000000
00000000
00000100
00000000
00000000
00000000
00000000
00000000
00000000
00000000
00000001
00000000
00000000
00000000
00000000
00000000
00000000
00000000
00000000
00000000
00000000
00000000
00000000
00000000
00000000
00000000
00001000
00000000
00000000
00000000
00000000
00000100
00000000
00000000
00000000
00000000
00000000
00001000
00000000
00000000
00000000
00000000
00000100
00000000
00000000
00000000
00000000
00000000
00000000
00000000
00000000
00000000
00000000
00000000
00000000
00000000
00000000
00000000
00000110
00000000
00000000
00000000
00000000
00000000
00000000
00000000
00000000
00000000
00000000
00000000
00000000
00000000
00000000
00000000
00000010
00000000
00000000
00000000
00000000
00000000
00000000
00000000
00000001
00000000
00000000
00000000
00000000
00000000
00000000
00000000
00000100
00000000
00000000
00000000
00000000
00000000
00000000
00000000
00000000
00000000
00000000
00000000
00000000
00000000
00000000
00000000
00000110
00000000
00000000
00000000
00000000
00000000
00000000
00000000
00000000
00000000
00000000
00000000
00000000
00000000
00000000
00000000
00000010
00000000
00000000
00000000
00000000
00000000
00000000
00000000
00010000
00000000
00000000
00000000
00000000
00000000
00000000
00000000
,
00001000
00000000
00011000
00000000
00010000
00100000
10000000
00000000
10010000
00000000
10000000
01000000
00100000
00001000
00010000
00001000
00000100
00000001
00000010
00000001
00000100
00001000
00010000
00010000
,
00002000
00100000
01000000
00010000
00103000
00001000
00020000
00000010
00000100
00001000
00030010
00010000
,
00000200
00000000
00000010
00000000
00001300
00000100
00000020
00000000
00000001
00000000
00000130
00000000
00020000
00000000
00000000
00000000
00000000
00000000
00100000
00000000
00002000
00000000
00033000
00000000
,
00022000
00000000
00000000
00000000
00000000
00000000
00000000
00000000
00000000
00000000
00000000
00000000
00000000
00000000
00000000
00033000
00000000
00000000
00001000
00010000
00000100
00000000
00000000
00000000
,
00001000
00000000
00000001
00000000
00000010
00000000
00000200
00000000
00000000
00000000
00000300
00000000
00001000
00000100
00000020
00000000
00000000
00000000
00000030
00000000
00000000
00000000
00000000
00000000
,
10000000
00000000
00010000
00000000
00100000
00000000
02000000
00000000
00000000
00000000
03000000
00000000
10000000
01000000
00100000
00000000
00202000
00000000
00303000
00000000
00020200
00000000
00030300
00000000
,
00022000
00000000
00000000
00000000
,
00033000
00000000
00000000
00000000
;
