#TITLE:The Quiet Things;
#SUBTITLE:(That No One Ever Knows);
#ARTIST:Brand New;
#TITLETRANSLIT:;
#SUBTITLETRANSLIT:;
#ARTISTTRANSLIT:;
#GENRE:;
#CREDIT:8Chasey 2026;
#MUSIC:The Quiet Things That No One Ever Knows.ogg;
#BANNER:;
#BACKGROUND:;
#CDTITLE:cdtitle.png;
#SAMPLESTART:45.525;
#SAMPLELENGTH:12.000;
#SELECTABLE:YES;
#OFFSET:-0.264;
#BPMS:0.000=163.276
,294.000=81.638
,296.000=163.276
,352.000=158.200
;
#STOPS:294.000=0.735;
#DISPLAYBPM:163.000;
#BGCHANGES:;
#FGCHANGES:;

//--------------- dance-single - 8Chasey - 2024 chart ----------------
#NOTES:
     dance-single:
     8Chasey - 2024 chart:
     Beginner:
     2:
     0,0,0,0,0:
0000
0000
0000
0000
,
0000
0000
0000
0000
,
0000
0000
0000
0000
,
0000
0000
0000
0000
,
0000
0000
0000
0000
,
0000
0000
0000
0000
,
0000
0000
0000
0000
,
0000
0000
0000
0000
,
0001
0000
0000
0000
,
0001
0000
0001
0000
,
0002
0000
0003
0000
,
1000
0000
1000
0000
,
2000
0000
3000
0000
,
1000
0000
0000
0000
,
0020
0000
0030
0000
,
0100
0000
0000
0000
,
0010
0000
0020
0000
,
0030
0000
0000
0000
,
0001
0000
0001
0000
,
0001
0000
0000
0000
,
1000
0000
1000
0000
,
1000
0000
0000
0000
,
0001
0000
1000
0000
,
0001
0000
0000
0000
,
1000
0000
0001
0000
,
1000
0000
0000
0000
,
0001
0000
0000
0000
,
0020
0000
0030
0000
,
1000
0000
0000
0000
,
0020
0000
0030
0000
,
0200
0000
0300
0000
,
0100
0000
0100
0000
,
0100
0000
0100
0000
,
0110
0000
0000
0000
,
0010
0000
0000
0000
,
0001
0000
0000
0000
,
0010
0000
0000
0000
,
1000
0000
0000
0000
,
0100
0000
0000
0000
,
0200
0000
0000
0000
,
0300
0000
0000
0000
,
0002
0000
0000
0000
,
0003
0000
0000
0000
,
0200
0000
0000
0000
,
0300
0000
0000
0000
,
0020
0000
0000
0000
,
0030
0000
0000
0000
,
2000
0000
0000
0000
,
3000
0000
0000
0000
,
1001
0000
0000
0000
,
0001
0000
0000
0000
,
0001
0000
0000
0000
,
1000
0000
0000
0000
,
1000
0000
0000
0000
,
0100
0000
0000
0000
,
0010
0000
0010
0000
,
0010
0000
0100
0000
,
0020
0000
0000
0000
,
0030
0000
0000
0000
,
0001
0000
0010
0000
,
0001
0000
0000
0000
,
1000
0000
0010
0000
,
1000
0000
0000
0000
,
0100
0000
0000
0000
,
0001
0000
1000
0000
,
0000
0000
1001
0000
,
0000
0000
0000
0000
,
0100
0000
0000
0000
,
0010
0000
0100
0000
,
0010
0000
0000
0000
,
0001
0000
1000
0000
,
0001
0000
0000
0000
,
1000
0000
0001
0000
,
0010
0000
0020
0000
,
0030
0000
0000
0000
,
0100
0000
0000
0000
,
0010
0000
0000
0000
,
0000
0001
0001
0000
,
0001
0000
0000
0000
,
0000
1000
1000
0000
,
1000
0000
0000
0000
,
1001
0000
0000
0000
,
2000
0000
3000
0000
,
0002
0000
0003
0000
,
0200
0000
0300
0000
,
0100
0000
0000
0000
,
0010
0000
0010
0000
,
0100
0000
0010
0000
,
0100
0000
0000
0000
;

//--------------- dance-single - 8Chasey - 2024 chart ----------------
#NOTES:
     dance-single:
     8Chasey - 2024 chart:
     Easy:
     4:
     0,0,0,0,0:
0000
0000
0000
0000
,
0000
0000
0000
0000
,
0000
0000
0000
0000
,
0000
0000
0000
0000
,
0000
0000
0000
0000
,
0000
0000
0000
0000
,
0000
0000
0000
0000
,
0000
0000
0000
0000
,
0002
0000
1003
0100
,
2000
0000
3001
0010
,
0002
0000
0103
0000
,
0010
1000
0001
0000
,
2000
0000
3001
0010
,
0002
0000
1003
0100
,
2000
0000
3010
0000
,
0100
0001
1000
0000
,
0100
0000
2002
3003
,
0001
0001
0020
0000
,
0031
1000
0200
0000
,
1300
1000
0100
0000
,
1000
0010
0200
0000
,
0302
0003
2000
3000
,
0100
1000
0010
0000
,
0200
0000
0301
0000
,
0010
0001
1000
0000
,
0200
0000
0310
0000
,
0001
0010
0002
0000
,
1003
0100
1000
0000
,
0010
0000
2000
0000
,
3010
0000
0100
0000
,
1001
0000
1001
0000
,
0001
0010
0001
0000
,
1000
0100
1000
0000
,
0002
0000
0103
0000
,
0001
0010
0001
0001
,
2000
0000
3100
0000
,
1000
0010
1000
0010
,
0200
0000
0310
0000
,
1000
0001
0010
0001
,
0020
0000
0130
1000
,
0010
0000
0100
0000
,
2002
0000
0000
0000
3003
0000
0000
0020
,
0000
0000
0030
0000
,
0200
0000
0000
0000
0300
0000
0000
0020
,
0000
0000
0030
0000
,
0002
0000
0000
0000
0003
0000
0000
0020
,
0000
0000
0030
0000
,
2000
0000
0000
0000
3000
0000
0000
0020
,
0000
0000
0030
0000
,
1000
1000
0020
0000
,
1030
0001
1000
0000
,
0001
0010
0100
0000
,
0010
0100
0010
0100
,
0020
0000
0130
0000
,
0010
0100
1000
0000
,
0100
0000
0010
0000
,
0100
0010
0001
0000
,
1000
0000
0002
0000
,
1003
0001
2000
0000
,
3100
0000
0010
0010
,
0000
0000
0100
0100
,
1000
0000
0001
0000
,
1000
0001
1000
0000
,
0020
0000
1030
0000
,
0001
0000
0200
0000
,
0301
0000
2002
0000
,
3003
1000
0001
1000
,
0002
0000
0013
0001
,
2000
0000
3100
0010
,
0200
0000
0000
0300
,
0100
1000
0001
0100
,
0100
0000
1001
0000
,
0010
0100
0010
0000
,
0200
0300
0020
0000
,
0230
0000
0300
0000
,
0001
0010
0001
0000
,
1001
0000
0000
0000
,
0100
1000
0010
0000
,
1000
0100
1000
0000
,
0010
0010
0010
0010
,
0220
0000
0330
0000
,
0100
0000
0010
0000
,
0100
0000
0001
0000
,
1000
0000
0100
0100
,
0100
0000
0010
0000
,
0002
0000
0013
0000
,
0001
1000
2000
0000
,
3010
0000
0100
0000
,
0020
0000
0000
0000
,
0000
0000
0000
0000
,
0000
0000
0000
0000
,
0000
0000
0000
0000
,
0030
0000
0000
0000
;

//--------------- dance-single - 8Chasey - 2024 chart ----------------
#NOTES:
     dance-single:
     8Chasey - 2024 chart:
     Medium:
     6:
     0,0,0,0,0:
0000
0000
0000
0000
,
0000
0000
0000
0000
,
0000
0000
0000
0000
,
0000
0000
0000
0000
,
0000
0000
0000
0000
,
0000
0000
0000
0000
,
0000
0000
0000
0000
,
0000
0000
0000
0000
,
1001
0000
1000
0000
0001
0000
0010
0001
,
0100
0001
2000
3000
,
0110
0000
0010
0000
0001
0000
0100
0001
,
1000
0100
0020
0030
,
1100
0000
1000
0000
0001
0000
0010
0001
,
0100
0100
0002
0003
,
0101
0000
0001
0000
0010
0000
0001
1000
,
0100
0010
0200
0300
,
1000
0001
0000
0000
2002
0000
3003
0000
,
0100
0000
0001
0000
1000
0100
0010
0000
,
0100
0000
1000
0001
0000
1000
0001
0000
,
0010
0000
0001
0000
1000
0010
0100
0000
,
0010
0000
0100
0001
0000
0100
0001
0000
,
1000
0100
1000
0000
0001
0010
0100
0000
,
0010
0100
1000
0001
,
1001
1000
0100
1000
,
0001
0010
0001
0100
,
0200
0301
0002
1003
,
0100
0000
1000
0010
0000
1000
0010
0000
,
0100
0001
0020
0130
,
0010
0000
0100
0000
1000
0001
1000
0000
,
0001
0100
0001
1000
,
0200
0000
0020
0330
,
0100
1000
0010
0000
1000
0000
0001
0000
,
1000
0001
0011
1100
,
0110
0100
2000
0001
,
3001
0010
0002
1000
,
1003
0010
0200
0010
,
0310
1000
0001
0020
,
0200
0330
0100
1000
,
0001
0000
0100
0000
0010
0100
0010
0000
,
2000
3000
0002
0003
,
1001
0000
0000
1000
0001
0000
0010
0000
,
0002
0000
0000
0000
1003
0000
0000
0100
,
0000
0200
0000
0300
,
2000
0000
0000
0000
3001
0000
0000
0100
,
0000
0200
0000
0300
,
0020
0000
0000
0000
1030
0000
0000
0001
,
0000
0200
0000
0300
,
2002
0000
3003
0000
0001
0000
0000
1000
,
0000
0001
1000
0100
,
0010
0000
0100
0000
1000
0000
0000
0001
,
0100
0001
2000
3000
,
0100
1000
0100
0000
0010
0000
0100
0000
,
1000
0001
0010
0002
,
0103
0000
0100
0000
0010
0000
0000
1000
,
0100
1000
0001
0100
,
0020
0000
1030
0001
,
0100
0000
0010
0000
1001
0000
0000
1000
,
0100
1000
0001
0100
,
0100
0000
0001
0000
1000
0000
0001
1000
,
0100
0000
1000
0000
0100
0000
0000
1000
,
0010
0000
0100
0000
0001
0010
0001
0000
,
2000
0000
3100
1000
,
0002
0100
0103
0010
,
0100
0001
1001
1000
,
0100
0000
1000
0000
0010
0100
0010
0100
,
0020
0000
0000
0000
0130
0000
0000
0001
,
0100
0001
0010
0100
,
2000
0000
3002
0100
,
0103
0001
0010
0100
,
1100
0000
1000
0001
,
0000
0010
0001
0100
,
0101
0000
0000
0000
1001
0000
0000
1000
,
0001
0000
1000
0000
0100
0000
0010
0001
,
1000
0000
2002
3003
,
1001
0000
0000
1000
0100
0000
1000
0000
,
0010
0100
0001
0000
1000
0000
0002
0000
,
2003
0000
3100
0000
,
1000
0010
1000
0001
,
0020
0030
0110
0000
,
0100
1000
1001
0010
,
0110
0000
0200
0301
,
1000
0001
0020
0030
,
0110
0000
2000
3001
,
0010
0001
0002
1003
,
1001
1000
0100
0000
,
0010
0001
0010
0001
,
0101
1000
0001
1000
,
0100
1000
0001
0000
,
0200
0000
0000
0000
,
0000
0000
0000
0000
,
0000
0000
0000
0000
,
0000
0000
0000
0000
,
0300
0000
0000
0000
;

//--------------- dance-single - 8Chasey - 2024 chart ----------------
#NOTES:
     dance-single:
     8Chasey - 2024 chart:
     Hard:
     8:
     0,0,0,0,0:
0000
0000
0000
0000
,
0000
0000
0000
0000
,
0000
0000
0000
0000
,
0000
0000
0000
0000
,
0000
0000
0000
0000
,
0000
0000
0000
0000
,
0000
0000
0000
0000
,
0000
0000
0000
0000
,
0002
0000
0100
0000
1003
0000
0100
1000
,
0001
1000
0100
0000
0010
0000
0110
0000
,
2000
0000
0010
0000
3001
0000
0100
0001
,
0010
0100
1000
0000
0020
0000
0130
0000
,
0200
0000
0001
0000
0310
0000
1000
0100
,
1000
0010
0100
0000
1001
0000
0100
0000
,
0020
0000
1000
0000
0130
0000
0001
1000
,
0100
1000
0001
0000
0100
0001
0010
0000
,
0100
1000
0000
0000
0022
0000
0033
0000
,
1000
0100
1000
0000
0001
0100
0010
0000
,
2000
0000
3001
0010
0000
0100
0010
0000
,
0100
0000
1000
0000
0001
0100
0010
0000
,
0200
0000
0301
1000
0000
0100
0010
0000
,
0001
1000
0010
0000
1000
0001
0100
0020
,
0000
0130
0001
0000
1000
0000
0001
0010
,
0002
0000
0103
0000
0010
1000
0100
0000
,
0010
0000
0001
0000
1000
0010
0100
0000
,
0001
0100
0001
0000
2000
0000
3010
0000
,
1000
0001
1000
0100
0000
1000
0001
0000
,
0101
0000
0001
0000
0010
0001
0100
0000
,
0002
0000
1003
0100
0000
0010
0100
1000
,
0010
0000
0100
0000
0001
0010
0001
0000
,
1100
0020
0230
0310
,
0101
0000
0001
1000
0000
0100
1000
0010
,
0000
0100
0001
0000
1000
0001
1000
0001
,
0010
0000
0100
0000
1001
0000
1000
0002
,
0000
0103
0001
0000
0110
0000
0100
2000
,
0000
3010
0100
0000
0001
1000
0100
0000
,
0020
0000
0031
1000
0010
1000
0001
0000
,
0200
0000
0301
1000
0100
0000
1000
0001
,
0000
0010
0001
0100
0010
1000
0100
0000
,
0011
0000
0100
0010
1000
0000
1010
0000
,
1000
0001
0010
0001
0000
1000
0100
0000
,
2000
0000
0000
0000
3001
0010
0001
0200
,
0000
0002
0000
0300
,
0023
0000
0000
0000
0031
1000
0100
0020
,
0000
0200
0000
0300
,
0032
0000
0000
0000
0103
0010
1000
0002
,
0000
2000
0000
0003
,
3020
0000
0000
0000
0130
0001
1000
0200
,
0000
0000
1300
0010
0200
0000
0310
0000
,
1001
1000
0002
0010
,
0010
0000
0100
0000
0103
0000
0010
1000
,
0001
0010
0100
2000
,
0000
0001
0100
3010
,
0100
0000
0001
0000
1001
0000
1000
0100
,
1000
0010
0110
0200
,
0001
0001
0010
0301
,
1000
0001
1000
0000
0100
0000
0010
0200
,
1000
0000
1000
0000
0020
0000
0000
0300
,
0100
0000
0100
0000
0130
0000
1000
0010
,
1000
0001
0100
2002
,
0000
3003
0110
1001
,
0002
0000
0000
0000
0010
0000
0000
0013
,
0001
2000
0010
0001
,
0010
3000
1000
0000
0100
1000
0001
0000
,
0100
0001
1000
0001
1000
0100
0010
0000
,
2100
3001
0020
0032
,
0100
0000
1000
0000
0103
0000
0010
1000
,
0100
2000
3001
0110
,
0010
0001
0100
0000
0020
0000
2030
0000
,
3010
0000
1000
0000
0101
0000
0100
0001
,
1000
0100
0010
0110
,
0021
0001
0100
0100
,
0130
0000
1000
0010
1000
0001
0100
0010
,
0100
0000
0001
0000
1000
0000
0100
0000
0020
0000
0030
0000
0001
0100
0000
0000
,
2001
0000
0100
0000
3010
0000
0100
0001
,
0010
0002
0100
0000
1003
0100
0010
0000
,
0200
0000
1300
0000
0010
0000
1000
0001
,
0200
0301
0010
0001
,
1001
0000
0100
0000
0010
1000
0100
0000
,
0100
1000
0001
0010
0001
0100
0110
0000
,
1001
0100
0020
1000
,
1030
0000
0100
1000
0002
0000
0100
0000
,
1003
0000
0100
2000
0010
0000
0001
3000
,
0001
1000
0010
0000
0200
0000
1000
0000
,
0301
0000
1001
0000
1000
0100
1000
0001
,
0000
0100
0010
0000
0100
0001
0010
0100
,
0010
0011
1000
1010
,
0100
0001
1000
0010
0000
0010
2000
0000
,
0002
0000
0000
0000
,
0000
0000
0000
0000
,
0000
0000
0000
0000
,
0000
0000
0000
0000
,
0000
3003
0000
0000
0000
0000
0000
0000
;

//--------------- dance-double - 8Chasey ----------------
#NOTES:
     dance-double:
     8Chasey:
     Easy:
     3:
     0,0,0,0,0:
00000000
00000000
00000000
00000000
,
00000000
00000000
00000000
00000000
,
00000000
00000000
00000000
00000000
,
00000000
00000000
00000000
00000000
,
00000000
00000000
00000000
00000000
,
00000000
00000000
00000000
00000000
,
00000000
00000000
00000000
00000000
,
00000000
00000000
00000000
00000000
,
00000002
00000000
00001003
00000000
,
00000100
00001000
00000100
00000000
,
00010000
00000000
00001000
00000000
,
00100000
00000000
01000000
00000000
,
20000000
00000000
30010000
00000000
,
01000000
00010000
01000000
00000000
,
00001000
00000000
00010000
00000000
,
00000100
00000000
00000010
00000000
,
00000200
00000300
00000110
00000000
,
00000010
00000001
00000000
00000010
,
00000001
00000000
00000100
00000000
,
00000010
00001000
00000000
00000010
,
00001000
00000000
00000100
00000000
,
00010000
00000000
00001000
00000000
,
00100000
00000000
01000000
00000000
,
20000000
00000000
30010000
00000000
,
10000000
00010000
10000000
00000000
,
00100000
01000000
00000000
00100000
,
01000000
00000000
00010000
00000000
,
00100000
01000000
00000000
00100000
,
01000000
00000000
10000000
00000000
,
02000000
00000000
03010000
00000000
,
00011000
00000000
00011000
00000000
,
00002000
00000000
00003100
00000000
,
00000010
00000100
00000010
00000000
,
00000110
00000000
00001000
00000000
,
00000100
00001000
00000200
00000000
,
00001300
00000000
00000001
00000000
,
00000100
00000001
00000200
00000000
,
00000301
00000000
00000020
00000000
,
00000130
00000000
00001000
00000001
,
00001000
00000000
00000100
00000000
,
00010000
00001000
00010000
00000000
,
00022000
00000000
00000000
00000000
00033000
00000000
00000000
00200000
,
00000000
00000000
00300000
00000000
,
02000000
00000000
00000000
00000000
03000000
00000000
00000000
00200000
,
00000000
00000000
00300000
00000000
,
00020000
00000000
00000000
00000000
00030000
00000000
00000000
00200000
,
00000000
00000000
00300000
00000000
,
20000000
00000000
00000000
00000000
30000000
00000000
00000000
00200000
,
00000000
00000000
00300000
00000000
,
00001000
00000000
00010000
00001000
,
00000000
00001000
00010000
00000000
,
00000100
00000000
00000010
00000001
,
00000010
00000000
00000001
00000000
,
00000100
00000000
00000010
00000100
,
00000000
00000010
00000100
00000000
,
00001000
00000000
00010000
00001000
,
00010000
00000000
00001000
00000000
,
00011000
00000000
00010000
00000000
,
00001000
00100000
00001000
00000000
,
00100000
00000000
01000000
00100000
,
00000000
01000000
00100000
00000000
,
01000000
00000000
10000000
00000000
,
00010000
01000000
00010000
00000000
,
00100000
00000000
00001000
00010000
,
00000000
00001000
00010000
00000000
,
00000100
00000000
00000220
00000000
,
00000330
00000000
00000001
00000000
,
00002000
00000000
00003001
00000000
,
00000010
00000100
00000010
00000000
,
00000200
00000000
00000000
00000000
,
00000300
00010000
00000100
00020000
,
00000000
00000000
00030000
00000000
,
00001000
00010000
00001000
00000000
,
00200000
00300000
02000000
03000000
,
20000000
00000000
30010000
00000000
,
01000000
00100000
01000000
00000000
,
00002000
00000000
00013000
00000000
,
00000100
00001000
00000001
00000000
,
00001001
00000000
00000000
00000000
,
00000010
00000010
00000010
00000010
,
00000220
00000000
00000330
00000000
,
00000100
00000000
00000010
00000000
,
00010000
00000000
00001000
00000000
,
00100000
00000000
01000000
00100000
,
01000000
00000000
10000000
00000000
,
00010000
00000000
01000000
00000000
,
00001000
00000000
00010000
00000000
,
00000010
00000000
00000100
00000000
,
00000020
00000000
00000000
00000000
,
00000000
00000000
00000000
00000000
,
00000000
00000000
00000000
00000000
,
00000030
00000000
00000000
00000000
;

//--------------- dance-double - 8Chasey ----------------
#NOTES:
     dance-double:
     8Chasey:
     Medium:
     6:
     0,0,0,0,0:
00000000
00000000
00000000
00000000
,
00000000
00000000
00000000
00000000
,
00000000
00000000
00000000
00000000
,
00000000
00000000
00000000
00000000
,
00000000
00000000
00000000
00000000
,
00000000
00000000
00000000
00000000
,
00000000
00000000
00000000
00000000
,
00000000
00000000
00000000
00000000
,
00011000
00000000
00010000
00000000
00001000
00000000
00100000
00010000
,
01000000
00010000
20000000
30000000
,
01100000
00000000
00100000
00000000
00001000
00000000
00010000
00000100
,
00001000
00000010
00000200
00000300
,
00000101
00000000
00000001
00000000
00001000
00000000
00000100
00010000
,
00001000
00100000
02000000
03000000
,
11000000
00000000
10000000
00000000
00100000
00000000
01000000
00001000
,
01000000
00001000
00020000
00030000
,
00000100
00000010
00000000
00000000
00002002
00000000
00003003
00000000
,
00000100
00000000
00000001
00000000
00000010
00000100
00000010
00000000
,
00000100
00000000
00010000
00001000
00000000
00010000
00001000
00000000
,
01000000
00000000
00100000
00000000
10000000
00100000
01000000
00000000
,
00100000
00000000
01000000
00001000
00000000
00010000
00001000
00000000
,
00010000
00000000
00000100
00000000
00000010
00000100
00000010
00000000
,
00000001
00000000
00000100
00000000
00001000
00010000
00001000
00000000
,
00011000
00010000
01000000
10000000
,
00010000
00100000
00010000
01000000
,
02000000
03001000
00002000
00013000
,
00020000
00000000
00030100
00000010
00000000
00000100
00000010
00000000
,
00000001
00000100
00000020
00001030
,
00000100
00000000
00010000
00000000
00001000
00010000
00001000
00000000
,
01000000
00100000
10000000
00010000
,
00200000
01000000
02000000
03300000
,
10000000
01000000
00100000
00000000
00001000
00000000
00010000
00000000
,
00000100
00000010
00000011
00001100
,
00001001
00000001
00000200
00000010
,
00000310
00001000
00000002
00001000
,
00001003
00000100
00020000
00001000
,
00031000
01000000
00010000
00200000
,
02000000
03300000
01000000
10000000
,
00100000
00000000
01000000
00000000
00001000
00010000
00001000
00000000
,
00020000
00030000
00002000
00003000
,
00011000
00000000
00000000
00010000
00000100
00000000
00000010
00000000
,
00000002
00000000
00000000
00000000
00001003
00000000
00000000
00000100
,
00000000
00000200
00000000
00000300
,
00020000
00000000
00000000
00000000
00031000
00000000
00000000
01000000
,
00000000
02000000
00000000
03000000
,
00200000
00000000
00000000
00000000
10300000
00000000
00000000
00010000
,
00000000
00020000
00000000
00030000
,
02200000
00000000
03300000
00000000
10000000
00000000
00000000
00010000
,
00000000
10000000
01000000
00100000
,
00001000
00000000
00010000
00000000
00001000
00000000
00000000
00010000
,
00000100
00000010
00000002
00000003
,
00000100
00000001
00000100
00000000
00000010
00000000
00010000
00000000
,
00001000
00100000
01000000
00200000
,
00310000
00000000
00010000
00000000
10000000
00000000
00000000
00100000
,
10000000
01000000
00100000
00010000
,
02000000
00000000
03001000
00010000
,
00000100
00000000
00000010
00000000
00001001
00000000
00000000
00000001
,
00000100
00000001
00001000
00000100
,
00000100
00000000
00010000
00000000
00001000
00000000
01000000
00010000
,
01000000
00000000
00010000
00000000
10000000
00000000
00000000
10000000
,
01000000
00000000
00100000
00000000
00010000
00100000
00010000
00000000
,
02000000
00000000
03010000
00100000
,
00002000
00010000
00013000
00000100
,
00000010
00000001
00001001
00001000
,
00000100
00000000
00010000
00000000
00001000
00010000
00001000
00010000
,
00002000
00000000
00000000
00000000
00103000
00000000
00000000
00100000
,
01000000
00100000
00010000
10000000
,
00020000
00000000
01030000
00200000
,
10000000
10300000
01000000
00100000
,
00110000
00000000
00000000
00000000
00010000
00000000
00000000
01000000
,
00010000
01000000
00001000
00010000
,
00000100
00000010
00000110
00000100
,
00001000
00000000
00000001
00000000
00000100
00000000
00000010
00000100
,
00000010
00000000
00002002
00003003
,
00001001
00000000
00000000
00000001
00000100
00000000
00000010
00000000
,
00001000
00000100
00001000
00000100
00010000
00000000
00001000
00000000
,
02000000
00000000
03100000
00000000
,
01000000
00010000
00100000
01000000
,
20000000
30000000
10010000
00010000
,
00100000
00001000
00010000
00000100
,
00000110
00000000
00000020
00000031
,
00000100
00001000
00020000
00030000
,
00011000
00000000
00002000
00103000
,
01000000
10000000
00200000
01300000
,
01100000
01000000
00001000
00000000
,
00010000
00001000
00010000
00000100
,
00001100
00001000
00000001
00000010
,
00000100
00001000
00000001
00000000
,
00000200
00000000
00000000
00000000
,
00000000
00000000
00000000
00000000
,
00000000
00000000
00000000
00000000
,
00000000
00000000
00000000
00000300
;

//--------------- dance-double - 8Chasey ----------------
#NOTES:
     dance-double:
     8Chasey:
     Hard:
     8:
     0,0,0,0,0:
00000000
00000000
00000000
00000000
,
00000000
00000000
00000000
00000000
,
00000000
00000000
00000000
00000000
,
00000000
00000000
00000000
00000000
,
00000000
00000000
00000000
00000000
,
00000000
00000000
00000000
00000000
,
00000000
00000000
00000000
00000000
,
00000000
00000000
00000000
00000000
,
00002000
00000000
00100000
00000000
01003000
00000000
00100000
10000000
,
01000000
10000000
00010000
00000000
00100000
00000000
00011000
00000000
,
00020000
00000000
00000010
00000000
00030100
00000000
00000010
00000001
,
00000100
00000001
00001000
00000000
00000200
00000000
00000310
00000000
,
00000020
00000000
00000001
00000000
00000130
00000000
00001000
00000100
,
00010000
00001000
00100000
00000000
01100000
00000000
01000000
10000000
,
00200000
00000000
10000000
00000000
01300000
00000000
00010000
00100000
,
00001000
00010000
00000100
00000000
00001000
00000010
00000100
00000000
,
00000001
00000010
00000000
00000000
00002200
00000000
00003300
00000000
,
00000001
00000100
00000001
00000000
00001000
00000100
00010000
00000000
,
00001000
00000000
00100000
01000000
00000000
10000000
00010000
00000000
,
01000000
00000000
00010000
00000000
00100000
00001000
00010000
00000000
,
00000100
00000000
00001000
00000001
00000000
00000100
00000010
00000000
,
00001000
00000010
00010000
00000000
00001000
00100000
01000000
00100000
,
00000000
01000000
10000000
00000000
00010000
00000000
01000000
00100000
,
02000000
00000000
00100000
00000000
03001000
00010000
00001000
00000000
,
00010000
00000000
00000100
00000000
00000010
00000001
00000100
00000000
,
00001000
00010000
00001000
00000000
00100000
00010000
01000000
00000000
,
00010000
00000000
10000000
01000000
00000000
10000000
00100000
00000000
,
01000000
00001000
00010000
00000000
00000100
00001000
00000001
00000000
,
00000100
00000000
00000010
00001000
00000000
00000100
00010000
00001000
,
00010000
00000000
00100000
00000000
10000000
00100000
10000000
00000000
,
11000000
02000000
03200000
00301000
,
00011000
00000000
00010000
00000100
00000000
00001000
00000100
00000010
,
00000000
00000001
00000100
00000000
00000010
00000100
00000010
00000000
,
00001010
00000000
00001000
00000100
00010000
00000000
00001000
00200000
,
00000000
01300000
10000000
00000000
10010000
00000000
00010000
02000000
,
00000000
03001000
00010000
00000000
00000100
00001000
00000010
00000000
,
00000200
00000000
00000301
00000100
00001000
00010000
00001000
00000000
,
02000000
00000000
03100000
10000000
01000000
00000000
00010000
00001000
,
00000000
00001000
00010000
00000100
00001000
00000001
00000100
00000000
,
00001010
00000000
00001000
00000100
00010000
00000000
00101000
00000000
,
00100000
00010000
01000000
00100000
00000000
10000000
01000000
00000000
,
20000000
00000000
00000000
00000000
30010000
00100000
01000000
00200000
,
00000000
00002000
00000000
00300000
,
00023000
00000000
00000000
00000000
00030010
00000100
00000001
00000020
,
00000000
00000200
00000000
00000030
,
00020300
00000000
00000000
00000000
00130000
10000000
01000000
00020000
,
00000000
00002000
00000000
00030000
,
02003000
00000000
00000000
00000000
03100000
01000000
00001000
00020000
,
00000000
00000000
00030100
00000010
00000002
00000000
00001003
00000000
,
00001001
00001000
00000200
00010000
,
00010000
00000000
00001000
00000000
00001300
00000000
00000100
00000010
,
00000001
00000100
00001000
00200000
,
01000000
01300000
10010000
10000000
,
00010000
00000000
00100000
00000000
01000000
00100000
01000000
00100000
,
00000000
01000000
10000000
00000000
10010000
00000000
00020000
00000000
,
00100000
10000000
01000000
00130000
,
00001000
00010000
00001000
00000000
00010000
00000000
00000100
00000020
,
00000001
00000000
00000001
00000000
00000200
00000000
00000000
00000030
,
00000010
00000000
00000010
00000000
00000310
00000000
00000001
00000010
,
00000001
00000100
00001000
00022000
,
00000000
00033000
01100000
10010000
,
20000000
00000000
01000000
00000000
31000000
00000000
10000000
00010000
,
00000000
01000000
00020000
00000000
00100000
00000000
10000000
00000000
,
00100000
00030000
00010000
00000000
01000000
00010000
01000000
00000000
,
00001000
00010000
00001000
00000100
00000010
00001000
00000010
00000000
,
00000102
00001003
00000200
00020300
,
00100000
00000000
00001000
00000000
00130000
00000000
10000000
01000000
,
10000000
02000000
03100000
00110000
,
00010000
01000000
00001000
00010000
00000100
00000000
00001100
00000000
,
00001000
00000000
00000001
00000000
00001001
00000000
00001000
00000010
,
00000100
00000010
00001000
00001200
,
00010000
00010000
00001000
00001000
,
00010300
00000000
00001000
00100000
00001000
01000000
00010000
01000000
,
00100000
00000000
10000000
00000000
01000000
00000000
00100000
00000000
00002000
00000000
00003000
00000000
00010000
00000100
00000000
00000000
,
00000120
00000000
00000001
00000000
00000130
00000000
00010000
00001000
,
00100000
00020000
01000000
00000000
10030000
01000000
00100000
00000000
,
00002000
00000000
00013000
00000000
00000010
00000000
00000100
00000010
,
00000200
00000301
00001000
00000100
,
00000110
00000000
00000010
00000000
00000001
00000100
00001000
00000000
,
00010000
00001000
00100000
01000000
10000000
00010000
01010000
00000000
,
10100000
10000000
02000000
00100000
,
03100000
00000000
00010000
00100000
00002000
00000000
01000000
00000000
,
00013000
00000000
00000100
00002000
00000010
00000000
00000001
00003000
,
00000001
00001000
00000100
00000000
00000020
00000000
00001000
00000000
,
00000031
00000000
00001001
00000000
00001000
00000100
00000010
00000100
,
00000000
00010000
00001000
00000000
00100000
00010000
01000000
00100000
,
10000000
11000000
00100000
00101000
,
00001000
00010000
00000100
00000010
00000000
00000100
00002000
00000000
,
00000002
00000000
00000000
00000000
,
00000000
00000000
00000000
00000000
,
00000000
00000000
00000000
00000000
,
00000000
00000000
00000000
00000000
,
00000000
00000000
00000000
00003003
;
