#TITLE:The Mine Song;
#SUBTITLE:;
#ARTIST:LazyTown;
#TITLETRANSLIT:;
#SUBTITLETRANSLIT:;
#ARTISTTRANSLIT:;
#GENRE:;
#CREDIT:8Chasey 2025;
#MUSIC:The Mine Song.ogg;
#BANNER:;
#BACKGROUND:;
#CDTITLE:;
#SAMPLESTART:10.99;
#SAMPLELENGTH:12;
#SELECTABLE:YES;
#OFFSET:-0.523;
#BPMS:0.000=90.000;
#STOPS:;
#BGCHANGES:;
#FGCHANGES:;

//--------------- dance-single - 8Chasey ----------------
#NOTES:
     dance-single:
     8Chasey:
     Beginner:
     1:
     0,0,0,0,0:
0000
0000
0000
0000
,
0000
0000
0000
0000
,
0100
0000
0100
0000
,
0010
0000
0010
0000
,
1000
1000
1000
0000
,
0001
0001
0001
0000
,
0010
0000
0100
0000
,
0010
0000
0100
0000
,
0010
0000
0000
0000
,
0100
0000
0000
0000
,
0010
0010
0010
0000
,
0100
0000
0100
0000
,
0100
0000
0001
0000
,
1000
0000
0001
0000
,
0001
0000
1000
0000
,
0001
0000
1000
0000
,
1000
0000
0100
0000
,
0000
0000
0001
0000
,
0000
0000
0010
0000
,
1000
0000
0010
0000
,
0110
0000
0000
0000
,
0000
1001
0000
0000
;

//--------------- dance-single - 8Chasey ----------------
#NOTES:
     dance-single:
     8Chasey:
     Easy:
     2:
     0,0,0,0,0:
0000
0000
0000
0000
,
0000
0000
0000
0000
,
0001
0000
1000
0000
,
0001
1000
0001
0000
,
1000
0100
1000
0000
,
0001
0010
0001
0000
,
1000
0000
0001
0000
,
1000
0001
1000
0000
,
0010
0000
0010
0000
,
0100
0010
0100
0000
,
0010
0100
0001
0000
1000
0000
0000
0000
,
0001
0000
1000
0000
,
0010
0000
0100
0010
,
0000
0010
1000
0001
,
0000
0001
1000
0100
,
0000
0100
0010
0100
,
0010
0000
0100
0000
,
0010
0000
0001
1000
,
0001
0000
1000
0001
,
1000
0000
0010
0100
,
0110
0000
0000
0000
,
0000
1001
0000
0000
;

//--------------- dance-single - 8Chasey ----------------
#NOTES:
     dance-single:
     8Chasey:
     Medium:
     3:
     0,0,0,0,0:
0000
0000
0000
0000
,
0000
0000
0000
0000
,
0001
0001
1000
1000
,
0001
1000
1001
0000
,
0100
0000
0001
0000
0010
0001
0010
0000
,
0100
0000
1000
0000
0010
1000
0010
0000
,
1000
1000
0001
0001
,
1000
0001
1001
0000
,
0010
0100
0001
0000
,
0010
0100
1000
0000
,
0010
0100
0001
0000
1000
0000
0000
0000
,
0010
0000
0100
0000
,
1001
0000
1001
0100
,
0001
0000
0010
0000
0100
1000
0100
0000
,
1000
0000
0010
1000
0010
0000
0100
0000
,
0001
0000
1000
0000
0001
1000
0001
0000
,
1000
0000
0010
0100
,
0010
0000
0100
0010
,
0100
0000
0000
0000
0001
0100
0001
0000
,
1000
0100
1000
0000
0010
0100
0010
0000
,
0110
0000
0000
0000
,
0000
1001
0000
0000
;

//--------------- dance-single - 8Chasey ----------------
#NOTES:
     dance-single:
     8Chasey:
     Hard:
     5:
     0,0,0,0,0:
0000
0000
0000
0000
,
0000
0000
0000
0000
,
0001
0100
0001
0000
1000
0000
0100
0000
,
0010
0100
0010
0000
0110
0000
0000
0000
,
1100
0000
1000
0000
0001
1000
0001
0000
,
0100
0000
0001
0000
1000
0001
1000
0000
,
0010
1000
0010
0000
0100
0001
0100
0000
,
0001
1000
0001
1000
0010
0100
0010
0000
,
1000
0100
1000
0000
0010
0000
0100
0000
,
0001
0100
0010
0100
0001
0000
1000
0000
,
0010
0100
0001
0000
1000
0000
0000
0000
,
0101
0000
1010
0000
,
0011
0000
1100
0100
,
0010
0001
0010
0000
0001
0000
1000
0000
,
0001
1000
0001
1000
0001
0000
0100
0001
,
0100
0100
0001
0000
1000
0010
0100
0010
,
0100
0100
0010
0010
0100
0000
0010
0000
,
1001
0000
0000
0000
0001
0010
0100
1000
,
0010
0000
0000
0000
1000
0010
1000
0000
,
0001
0100
0001
0000
1000
1000
0001
0001
,
0110
0000
0000
0000
,
0000
1001
0000
0000
;

//--------------- dance-single - 8Chasey ----------------
#NOTES:
     dance-single:
     8Chasey:
     Challenge:
     8:
     0,0,0,0,0:
0000
0000
0000
0000
,
0000
0000
0000
0000
,
0001
0000
0100
0001
0000
1000
0001
0000
1000
0010
0000
1000
0100
0000
1000
0000
,
0010
0110
0100
0110
1001
0000
0000
0000
,
1100
0000
1000
0000
0001
0000
0010
0001
0000
0100
0001
0000
1000
0000
0010
1000
,
0010
0000
0100
0000
0110
0000
0010
0000
0100
0001
0100
0000
0001
0000
0010
0000
,
0001
0010
0001
1000
0100
0000
0100
0000
1000
0010
1000
0000
0001
0000
0100
0000
,
0010
1000
0010
0000
0100
0001
0100
0000
0001
0000
1000
0000
1001
0000
0000
0000
,
0010
0000
1000
0000
0010
0000
0100
0000
0001
0100
0000
0000
0010
0000
0000
0000
,
1000
0000
0100
0000
0100
1000
0001
0000
1000
0000
0000
0000
0010
0000
0100
0000
,
0010
0100
0001
0000
1000
0000
0000
0000
,
0011
0000
0001
0100
0000
0001
1000
0000
1010
0000
1000
0100
0000
1000
0001
0000
,
1001
0000
0000
0000
0100
0010
0000
0000
0101
0000
0001
0000
1000
0010
1000
0010
,
0000
0010
1000
0000
0100
0000
1000
0000
1100
0000
0100
0000
0010
0001
0010
0001
,
0100
0000
0001
0000
1001
0000
1000
0000
1001
0000
0001
0000
0100
0010
0000
0100
,
0001
0000
0101
0000
1000
0100
0000
0000
1100
0000
1000
0000
0010
0100
0010
0100
,
0001
0010
0100
1000
0100
0100
0010
0010
,
0100
0000
1000
0001
0100
0000
0001
0000
1000
0000
0001
0000
0010
0000
0001
0100
,
0001
0000
1000
0000
0010
0000
1000
0000
0100
1000
0100
0000
1000
0000
0001
0000
,
0100
0001
0100
0000
0010
0000
1000
0000
1100
0000
1010
0000
0101
0000
0011
0000
,
0110
0000
0000
0000
,
0000
1001
0000
0000
;

//--------------- dance-double - 8Chasey ----------------
#NOTES:
     dance-double:
     8Chasey:
     Easy:
     3:
     0,0,0,0,0:
00000000
00000000
00000000
00000000
,
00000000
00000000
00000000
00000000
,
00001000
00000000
00010000
00000000
,
00000100
00000010
00000100
00000000
,
00001000
00000001
00001000
00000000
,
00000100
00000100
00001000
00000000
,
00000100
00000000
00010000
00000000
,
00001000
00010000
00001000
00000000
,
00010000
00000000
00001000
00000000
,
00001000
00000000
01000000
00000000
,
00100000
01000000
00010000
00000000
10000000
00000000
00000000
00000000
,
00010000
00000000
00100000
00000000
,
00001000
00000000
00010000
00001000
,
00100000
00000000
00001000
00010000
,
00000100
00000000
00000010
00000001
,
00000100
00000000
00001000
00010000
,
00001000
00000000
01000000
00001000
,
00010000
00000000
00100000
00001000
,
00101000
00000000
00010000
00000000
,
00001000
00000000
01000000
00100000
,
01000000
00000000
00000000
00000000
,
00000000
00011000
00000000
00000000
;
