#VERSION:0.83;
#TITLE:The Metal;
#SUBTITLE:;
#ARTIST:Tenacious D;
#TITLETRANSLIT:;
#SUBTITLETRANSLIT:;
#ARTISTTRANSLIT:;
#GENRE:Metal;
#CREDIT:;
#MUSIC:The Metal.ogg;
#BANNER:The Metal-bn.png;
#BACKGROUND:;
#CDTITLE:;
#SAMPLESTART:81.620;
#SAMPLELENGTH:12.000;
#SELECTABLE:YES;
#OFFSET:-0.225;
#BPMS:0.000=112.000
,13.000=114.000
,16.000=112.000
,84.000=448.000
,116.000=224.000
,132.000=448.000
,164.000=224.000
,172.000=56.000
,183.000=55.000
,184.000=57.000
,185.000=55.000
,186.000=56.800
,188.000=112.000
,264.000=56.000
,272.000=112.000
,288.000=224.000
,320.000=112.000
,332.000=114.000
;
#STOPS:22.500=0.550
,37.500=0.536
,52.500=0.536
,67.500=0.536
,172.000=2.143
,194.500=0.536
,209.500=0.536
,224.500=0.536
,239.500=0.536
;
#SPEEDS:0.000=1.000=0.000=0;
#SCROLLS:0.000=1.000;
#TICKCOUNTS:0.000=4;
#TIMESIGNATURES:0.000=4=4;
#LABELS:0.000=Song Start;
#COMBOS:0.000=1;
#DISPLAYBPM:56.000:448.000;
#ORIGIN:;
#PREVIEWVID:;
#JACKET:;
#CDIMAGE:;
#DISCIMAGE:;
#BGCHANGES:;
#FGCHANGES:;

//--------------- dance-single - 2025 chart ----------------
#NOTEDATA:;
#STEPSTYPE:dance-single;
#DESCRIPTION:2025 chart;
#DIFFICULTY:Beginner;
#METER:3;
#RADARVALUES:0,0,0,0,0;
#NOTES:
0000
0000
0000
0000
,
0000
0000
0000
0010
,
0000
0000
0000
0000
,
0100
0000
0100
0000
,
1001
0000
0000
0000
,
0001
0000
0000
1000
,
0000
0000
0000
0010
,
0000
0100
0000
0010
,
0000
0000
0000
1000
,
0000
0000
0001
0000
,
0000
0000
0100
0000
,
0010
0000
0100
0000
,
0000
0000
0010
0000
,
0000
0100
0000
0000
,
0000
0001
0000
1000
,
0000
0001
0000
0000
,
0000
0100
0000
0000
,
0010
0000
0000
0000
,
1000
0000
0001
0000
,
1000
1000
1000
0000
,
0001
0001
0001
0000
,
2000
0000
0000
0000
,
0000
0000
0000
0000
,
3000
0000
0000
0000
,
0000
0000
0000
0000
,
0002
0000
0000
0000
,
0000
0000
0000
0000
,
0003
0000
0000
0000
,
0000
0000
0000
0000
,
2000
0000
0000
0000
,
0000
0000
0000
0000
,
3000
0000
0000
0000
,
0000
0000
0000
0000
,
0002
0000
0000
0000
,
0000
0000
0000
0000
,
0003
0000
0000
0000
,
0000
0000
0000
0000
,
2000
0000
0000
0000
,
0000
0000
0000
0000
,
3000
0000
0000
0000
,
0000
0000
0000
0000
,
0002
0000
0000
0000
,
0000
0000
0000
0000
,
0003
0000
1000
0000
,
0000
0000
0001
0000
,
0100
0010
0100
0000
,
0010
0100
0010
0000
,
1000
0000
0001
0000
,
1000
0000
0000
0001
,
0000
1000
0000
0001
,
0000
0000
0000
0100
,
0000
0100
0000
0010
,
0000
0010
0010
0000
,
0010
0000
0100
0000
,
0100
0000
0001
0000
,
1000
0000
0001
0000
,
0000
1000
0000
0001
,
0000
1000
0000
0000
,
0000
0010
0000
0010
,
0000
0100
0000
0100
,
0100
0000
0100
0000
,
0010
0000
0010
0000
,
1001
0000
0001
0000
,
1000
0000
0001
0000
,
1001
0000
1000
0000
,
0001
0000
1000
0000
,
0010
0000
0010
0010
,
0100
0000
0100
0100
,
0010
0000
1000
0000
,
0001
0001
0001
0000
,
0010
0000
0001
0000
,
1000
1000
1000
0000
,
0000
0000
0001
0001
,
0000
0000
1000
1000
,
0000
0000
0001
0000
,
0100
0000
0001
0000
,
0000
0000
1000
1000
,
0000
0000
0001
0001
,
0000
0000
1000
0000
,
0010
0000
1000
0000
,
0000
0001
0001
0001
,
0000
1000
1000
1000
,
0000
0010
0000
0100
,
0000
0010
0000
1001
;

//--------------- dance-single - 2025 chart ----------------
#NOTEDATA:;
#STEPSTYPE:dance-single;
#DESCRIPTION:2025 chart;
#DIFFICULTY:Easy;
#METER:5;
#RADARVALUES:0,0,0,0,0;
#NOTES:
0000
0000
0000
0000
,
0000
0000
0000
0000
,
0000
0000
0000
0000
,
0000
0000
0000
0000
,
1001
0000
0001
0100
,
0001
0000
0000
0000
0000
0000
0000
0010
0000
0000
0010
0000
0100
0000
0000
0000
,
1000
0100
1000
0001
,
0100
0000
0010
0100
0010
0000
0110
0000
,
0000
0100
0001
0100
,
0000
0000
0000
0010
0000
0000
0010
0000
1000
0000
0000
0000
0100
0000
0000
0000
,
1000
0001
0100
0001
,
1000
0010
1000
0000
1001
0000
0000
0000
,
0001
0000
0000
0000
1000
0000
0000
0000
0001
0000
0000
0000
0000
0000
0000
0010
,
0000
0010
0100
0000
0010
0000
0000
0000
,
0001
0000
0100
0001
0100
0000
0010
0000
,
0100
0110
0000
0010
,
1000
0000
0000
0000
0100
0000
0000
0000
0000
0000
0000
0010
0000
0000
0010
0000
,
0001
1000
0001
1000
,
1001
0000
0001
0100
,
0001
0000
1000
1000
1000
0000
0000
0000
,
1000
0000
0001
0001
0001
0000
0000
0000
,
2000
0000
0000
3000
,
0000
0000
2000
0000
,
0000
3000
0000
0000
,
1000
0000
0000
0000
,
0002
0000
0000
0003
,
0000
0000
0002
0000
,
0000
0003
0000
0000
,
0001
0000
0000
0000
,
0100
0000
0001
0000
,
1000
0001
1000
0000
,
0100
0000
1000
0000
,
0001
1000
0001
0000
,
0020
0000
0000
0030
,
0000
0000
0020
0000
,
0000
0030
0000
0000
,
0010
0000
0000
0000
,
0200
0000
0000
0300
,
0000
0000
0200
0000
,
0000
0300
0000
0000
,
0100
0000
0000
0000
,
1000
0000
0010
0000
,
0100
0000
0001
0000
,
1001
0000
2000
0000
3001
0000
0100
0001
,
0100
0000
0010
0000
0200
0000
0310
0010
,
0100
0000
0001
0100
0002
0000
1003
0000
,
0100
1000
0100
0000
2000
0000
0002
3003
,
1001
0000
0001
0100
,
0001
0000
0000
0000
0000
0000
0000
1000
0000
0000
1000
0000
0010
0000
0000
0000
,
1000
0000
0100
1000
0100
0000
2000
0000
,
0000
0001
3001
0010
,
0001
0000
0100
0001
0100
0000
0001
0000
,
0000
0000
0000
0100
0000
0000
0100
0000
0010
0000
0000
0000
1000
0000
0000
0000
,
0100
0010
0200
0000
,
0010
0310
0001
0100
,
0001
0000
0000
0000
1000
0000
0100
0000
1000
0000
0000
0000
0000
0000
0000
0001
,
0000
0001
0010
0000
0001
0000
1000
0100
,
1000
0002
0000
1000
,
1003
0000
0100
1000
0100
0000
1000
0000
,
0001
0000
0000
0000
0100
0000
0000
0000
0000
0000
0000
0010
0000
0000
0010
0000
,
0100
0000
0001
0100
0001
0000
1000
0000
,
0020
0000
0100
0130
,
0001
0010
0001
1000
,
0100
0000
0000
0000
1000
0000
0000
0010
0000
0000
0020
0000
0000
0000
0000
0000
,
0130
0000
0110
0000
0010
0100
0010
0000
,
1000
0100
0010
0001
,
2000
3001
0002
1003
,
0020
0000
0130
0000
0200
0000
0310
0110
,
0010
1000
0000
0000
1000
0010
0000
1000
,
0000
1000
0000
0000
0100
0000
0100
0000
,
0010
0001
0000
0000
0001
0010
0000
0001
,
0000
0001
0000
0000
0100
0000
0100
0000
,
0010
0000
1000
1000
,
0000
0000
0001
0001
,
0000
0000
0100
0000
,
0001
0000
1000
0000
,
1001
0000
0001
0001
,
0000
0000
1000
1000
,
0000
0000
0010
0000
,
1000
0000
0001
0000
,
0100
0001
0100
0100
,
0010
1000
0010
0010
,
1000
0100
1000
1000
,
0001
0100
0001
1001
;

//--------------- dance-single - 2025 chart ----------------
#NOTEDATA:;
#STEPSTYPE:dance-single;
#DESCRIPTION:2025 chart;
#DIFFICULTY:Medium;
#METER:7;
#RADARVALUES:0,0,0,0,0;
#NOTES:
0000
0000
0000
0000
,
0000
0000
0000
0000
,
0000
0000
0000
0000
,
0001
0000
1000
0000
0001
0000
0000
0100
0000
0000
0001
0000
1000
0000
0000
0000
,
1001
0000
0010
0100
0001
0000
0010
0000
,
0011
0000
0000
0000
0001
0000
1000
0001
0000
0000
1000
0000
0100
0000
0100
0000
,
1000
0000
0010
1000
0001
0010
0011
0000
,
0010
0000
0000
0001
0000
0000
0100
0000
0010
0000
0000
0000
1010
0000
0000
0000
,
1000
0010
0100
0001
0010
0000
0011
0000
,
0100
0000
0010
0100
0000
0000
1000
0000
1001
0000
0000
0000
0001
0000
0100
0000
,
0001
0000
0010
0000
0100
0000
0000
0000
1000
0000
0010
0000
1000
0000
0000
0001
,
0000
1000
0100
0000
0110
0000
0010
0001
,
0100
0000
0001
0000
1000
0000
0000
0000
1010
0000
0000
0000
0010
0000
0100
0001
,
0000
0100
0110
0000
0010
1000
0100
0000
,
1000
0000
0001
0000
0100
0000
0100
0000
0001
0000
0000
0100
0000
0000
0001
0000
,
1000
0000
1001
0000
1000
0100
0010
0001
,
0010
0000
0000
0000
0110
0000
0000
0000
0100
0000
1000
0001
0000
0000
1000
0000
,
0101
0000
1010
0000
1000
0100
1000
0001
,
0010
0000
0000
0000
0100
0000
0000
0010
0000
0000
0100
0000
0010
0000
0000
0000
,
0100
0000
1000
0100
1000
0000
0001
0000
,
0100
0000
0001
0100
0001
0000
1000
0000
,
0010
0000
0000
0100
,
0000
0000
0010
0000
,
0000
0100
0000
0000
,
0010
0000
0010
0000
,
0100
0000
0000
0010
,
0000
0000
0100
0000
,
0000
0010
0000
0000
,
0100
0000
0100
0000
,
0002
0000
0000
0100
0000
0000
1003
0000
,
0000
0010
1000
0100
,
2000
0000
0000
0100
0000
0000
3001
0000
,
0000
0010
0001
0100
,
0001
0000
0000
1000
,
0000
0000
0001
0000
,
0000
1000
0000
0000
,
0001
0000
0001
0000
,
1000
0000
0000
0001
,
0000
0000
1000
0000
,
0000
0001
0000
0000
,
1000
0000
1000
0000
,
0020
0000
0000
0100
0000
0000
1030
0000
,
0100
1000
0001
0000
,
1001
0000
1000
0000
0200
0000
0300
0000
1000
0010
1000
0000
0002
0000
0003
0000
,
0010
0000
0001
0000
0100
0000
0010
0100
0020
0000
0030
0000
1000
0100
1000
0100
,
1000
0000
0001
0000
0200
0000
0000
0000
0310
0000
1000
0100
1000
0000
0001
0000
,
0010
0000
0001
0100
0001
0000
1000
0010
2000
0000
0000
0000
0002
0000
3003
0000
,
1001
0000
0101
0001
0010
0001
1000
0000
,
1100
0000
0000
0000
1000
0000
0010
1000
0000
0000
0001
0000
0011
0000
0000
0000
,
1100
0000
1000
0010
1000
0001
0020
0000
,
0100
0000
0000
0130
0000
0000
1000
0000
0100
0000
0001
0000
0100
0000
0000
0000
,
1100
0000
1000
0010
1000
0001
0100
0000
,
0001
0000
0010
0001
0000
0000
1000
0000
1100
0000
0000
0000
1010
0000
0000
0000
,
0010
0000
0100
0000
0001
0000
0010
0000
0200
0000
0000
0000
0010
0000
0000
0310
,
0000
0001
0100
0010
1010
0000
0011
0000
,
0010
0000
0001
0000
0100
0000
1000
0000
0100
0000
0000
0000
0010
0000
1000
0010
,
0000
0000
0100
0000
0101
0000
0000
0000
0001
0000
0010
0000
0001
0000
0000
1000
,
0000
0000
0002
0000
1000
0000
0000
0000
1003
0000
0000
0100
0000
0000
1000
0000
,
0010
0100
0110
0000
1001
0000
0001
0010
,
0001
0000
1000
0000
0100
0000
0000
0000
1000
0000
0010
1000
0000
0000
0001
0000
,
0101
0000
1100
0000
1000
0010
1000
0002
,
0010
0000
0000
0000
0013
0000
0000
0100
0000
0000
0010
0000
0010
0000
0010
0000
,
0110
0100
1000
0010
1000
0001
0100
0000
,
0001
0000
0010
0000
0001
0000
1000
0001
0000
0000
2000
0000
0100
0000
0100
0000
,
3100
0000
0000
0000
0010
0001
0000
0010
0000
0000
0001
0000
0100
0000
0010
0000
,
0100
0000
0001
1000
0100
0010
0100
0000
,
0020
0000
0000
0030
0001
0000
1000
0000
0010
0000
1000
0000
0001
0000
0100
0000
,
0020
0000
0030
0000
1000
0000
0001
0000
0010
0000
0001
0000
1000
0001
1000
0000
,
1001
0001
0000
0100
0110
0010
0000
0100
,
0000
0100
0000
0001
0100
1000
0100
0001
,
1000
1000
0000
0010
0110
0100
0000
0001
,
0000
0001
0000
1000
0010
0001
0010
1000
,
0100
1000
0100
0000
1000
0000
1001
0000
,
0001
0010
0001
0000
0101
0000
1001
0000
,
0010
1000
0010
0000
1000
0000
0100
0000
,
0010
0001
0100
0110
,
0100
0001
0100
0000
0001
0000
1001
0000
,
1000
0010
1000
0000
1100
0000
1001
0000
,
0010
0001
0010
0000
0001
0000
0100
0000
,
0010
1000
0100
0110
,
0010
0001
0010
0100
1000
0001
1001
0000
,
1000
0100
1000
0001
0010
0000
0011
0000
,
0001
0100
0001
1000
0010
1000
1010
0000
,
0100
1000
0001
0100
0010
0000
1001
0000
;

//--------------- dance-single - ----------------
#NOTEDATA:;
#STEPSTYPE:dance-single;
#DESCRIPTION:;
#DIFFICULTY:Hard;
#METER:10;
#RADARVALUES:0.617426,0.751935,0.687307,0.204334,0.47678,698,587,111,33,0,0,0,0,0,0.617426,0.751935,0.687307,0.204334,0.47678,698,587,111,33,0,0,0,0,0;
#CHARTNAME:;
#CHARTSTYLE:;
#CREDIT:;
#NOTES:
0000
0000
0000
0000
,
0000
0000
0000
0000
,
0000
0000
0000
0000
,
0001
0000
0001
0000
0010
0001
0000
1000
0100
0000
1000
0000
0001
0000
0100
0000
,
1001
0000
0000
0000
1000
0000
0000
0001
1000
0000
0010
0000
0001
0000
0100
0000
,
0110
0000
0000
0000
1100
0000
0000
0001
1000
0000
0010
0000
1001
0000
0010
0000
,
1001
0000
0000
0000
1000
0100
1000
0010
0100
0000
0001
0000
1001
0000
1000
0000
,
0010
1000
0001
0100
0010
0000
0100
0000
0001
0000
0010
0000
1100
0000
0000
0000
,
0101
0000
0000
1000
0001
0000
0010
0000
0100
0000
1000
0000
0110
0000
0000
0000
,
1001
0000
0000
1000
0001
0000
0010
0000
0011
0000
1100
0000
1001
0000
0000
0001
,
0010
0001
0100
0000
0010
0000
1000
0000
0001
0000
0220
0000
0000
0330
0000
0000
,
0001
0000
1000
0000
0010
0001
1000
0010
0100
0000
0010
0000
1000
0100
0001
0000
,
0010
0001
1000
0000
0010
0000
0100
0000
1001
0000
0000
0000
1000
0010
0100
0001
,
0000
0001
1000
0000
0010
1000
0100
0000
0010
0000
0001
0000
1000
0010
0100
0000
,
0001
1000
0100
0000
1000
0000
0010
0000
0101
0000
0001
0010
0000
0001
0100
0000
,
0010
0000
1000
0000
1001
0000
0100
0000
1000
0010
0100
0010
1000
0000
0001
0000
,
0011
0000
1100
0000
1001
0000
0010
0000
1000
0001
0100
0010
0000
1000
0001
0000
,
0001
0010
0001
0100
0010
1000
0100
1000
0001
0100
0010
0100
,
2002
0000
0000
0000
3003
0000
0000
1000
0010
0000
0010
0000
0101
0000
1100
0000
,
0010
0000
0010
0000
1000
0001
0100
0001
0000
0000
0000
0000
0011
0000
0000
0000
,
0001
0000
1100
0000
1000
0010
0100
1000
0000
0000
0101
0000
1001
0000
0000
0000
,
1010
0000
0000
0101
,
0000
0000
0011
0000
,
0000
1100
0000
0000
,
1001
0000
0110
0000
,
1001
0000
0000
1010
,
0000
0000
0101
0000
,
0000
0110
0000
0000
,
0011
0000
1100
0000
,
0020
0000
1030
0000
0001
0100
1000
0000
,
0001
0010
1000
0010
0002
0000
1003
0000
,
0010
1000
0001
0100
0010
1000
0100
0010
,
1000
0010
0001
0000
2000
0000
3001
0000
,
1010
0000
0000
0101
,
0000
0000
1100
0000
,
0000
0011
0000
0000
,
0110
0000
1001
0000
,
1100
0000
0000
0101
,
0000
0000
1010
0000
,
0000
0011
0000
0000
,
1001
0000
0110
0000
,
1000
0010
1000
0100
0001
0100
1000
0010
,
0100
0001
1000
0010
2000
0000
0010
0000
,
3001
0000
0000
0000
0010
0000
1000
0000
0100
0000
0000
0000
0001
0000
1000
0000
0010
0000
0000
0000
0100
0000
0000
0000
0110
0000
0000
0010
0000
0000
0010
0000
,
1000
0000
0001
1000
0010
0000
0010
1000
0100
0000
0010
0000
0001
1000
0001
1000
,
0002
0000
0010
0000
0103
0000
0010
1000
0100
0000
1000
0001
0100
0010
0100
0010
,
2000
0000
0100
0000
3002
0000
0010
0000
0203
0000
0310
1000
0001
1000
0020
0000
,
0130
0000
0100
0000
0011
0000
0000
0001
0010
0000
0100
0000
1000
0000
0010
0000
,
1001
0000
1100
0000
0101
0000
0000
0010
1000
0000
0001
0000
1001
0000
0010
0000
,
1100
0000
0000
1000
0001
0010
0001
0100
0010
0000
1000
0000
0101
0000
0101
0000
,
1100
0000
1100
0000
0010
1000
0001
0100
0001
0010
1000
0000
0010
0000
0001
0000
,
1100
0000
0000
1000
0010
0100
0001
0000
1000
0000
0010
0000
1001
0000
1000
0000
,
1000
0000
0000
0010
1000
0001
0010
0000
1001
0000
1001
0000
0100
0000
0000
0010
,
1000
0001
0100
0000
0100
0000
0010
0000
1100
0000
0000
0000
0101
0000
0000
0001
,
0010
0001
0100
0010
1000
0100
0010
0000
0001
0000
1100
0000
0101
0000
0000
0010
,
1000
0001
0010
0000
0100
0000
0110
0000
1001
0000
0000
1000
0100
1000
0010
0100
,
0000
0100
0001
0000
0011
0000
1100
0000
0110
0000
0000
0010
1000
0100
0010
0100
,
1000
0000
0001
0000
0120
0000
0000
0000
1000
1030
0000
1000
0100
1000
0010
0100
,
0001
0010
0100
0000
0011
0000
1010
0000
0101
0000
1100
0000
0010
1000
0001
0100
,
0010
0000
0010
0000
0020
0000
1000
0000
0001
0000
0000
1030
0001
0000
1001
0000
,
0020
0000
0000
0000
1030
0000
0000
1000
0100
1000
0001
0000
0010
0000
0110
0000
,
2002
0000
0000
0000
3003
0000
0000
0001
0010
0000
0100
0000
1000
0010
0100
0001
,
1000
0000
0000
0000
1001
0000
0000
1000
0010
0000
0100
0000
0011
0000
1100
0000
,
1001
0000
0000
0001
0010
0001
0000
1000
0010
0000
1001
0000
0010
0000
0100
0000
,
1001
0000
0000
0000
1001
0000
0000
1000
0010
1000
0100
0010
1000
0010
0001
0000
,
1100
0000
1010
0000
0101
0000
0011
0000
1000
0001
1000
0001
1000
0001
1000
0001
,
1000
0000
0000
1000
0020
0000
0130
0000
0200
0000
0301
0000
0002
0000
1003
0000
,
0010
0000
1000
0000
0001
0000
0100
0000
0000
0100
0000
0000
0020
0000
0000
0000
0000
0000
1030
0000
0000
0000
0000
0000
0002
0000
0000
0000
0000
0000
0103
0000
0000
0000
0000
0000
2000
0000
0000
0000
0000
0000
3001
0000
0000
0000
0000
0000
,
1000
0010
0000
0100
1001
0110
0001
1100
,
0000
0000
1100
0000
0000
0000
0101
0000
0010
1000
0001
0100
0001
0010
0100
1000
,
0001
0011
0000
0011
1100
1001
0000
0101
,
0000
0000
0101
0000
0000
0000
1100
0000
0010
1000
0100
1000
0001
0100
0010
1000
,
0001
0100
0001
0100
0001
0100
0010
0000
0000
1001
0000
0000
,
1000
0100
1000
0100
1000
0100
0010
0000
0000
1001
0000
0000
,
0010
0100
0010
0100
0010
0100
0002
0000
0000
0103
0000
0000
,
2000
3100
0020
0130
,
1000
0010
1000
0010
1000
0010
0100
0000
0000
0110
0000
0000
,
0001
0010
0001
0010
0001
0010
0100
0000
0000
0110
0000
0000
,
1000
0001
1000
0001
1000
0001
0200
0000
0000
0310
0000
0000
,
2000
3010
0002
0013
,
0001
0010
0001
0000
0100
0010
1000
0000
0100
0000
0010
0000
0002
0000
0000
0000
,
0013
0000
0001
0100
0010
0000
1000
0100
0000
0010
0001
0000
2000
0000
0000
0000
,
3010
1000
0001
0000
0100
0010
1000
0000
0100
0000
0010
0000
0200
0000
0000
0000
,
0310
0001
1000
0010
0100
0000
0010
0000
0001
1000
0100
0000
1001
0000
0000
0000
;

//--------------- dance-single - Impossible ----------------
#NOTEDATA:;
#STEPSTYPE:dance-single;
#DESCRIPTION:Impossible;
#DIFFICULTY:Challenge;
#METER:11;
#RADARVALUES:0.88368,1.322368,0.637771,0.06192,1.080495,999,896,103,10,0,0,0,0,0,0.88368,1.322368,0.637771,0.06192,1.080495,999,896,103,10,0,0,0,0,0;
#CHARTNAME:;
#CHARTSTYLE:;
#CREDIT:;
#NOTES:
0000
0000
0000
0000
,
0000
0000
0000
1001
,
0000
0000
0000
0000
,
0011
0000
1010
0000
0010
1000
0001
0100
0001
0010
1000
0010
0001
0100
1000
0000
,
1001
0000
0010
1000
0100
1000
0000
1000
0001
0010
0100
0000
0010
1000
0001
0000
,
0101
0000
0100
0000
0010
1000
0001
0010
0001
1000
0010
0000
1100
0000
0101
0000
,
0010
1000
0010
0100
0001
0010
0001
0100
0010
1000
0001
0100
0001
0000
0011
0000
,
1000
0000
0000
0010
0000
0000
1000
0000
0000
0001
0000
0000
0010
0000
0000
0001
0000
0000
1000
0000
0100
0000
0010
0000
0001
0000
0000
1000
0000
0000
0010
0000
0000
0100
0000
0000
0001
0000
0000
0000
0000
0000
0001
0000
0000
0100
0000
0000
,
0101
1000
0000
0010
1000
0100
1000
0001
0100
0010
0100
0001
0010
0000
1001
0000
,
0100
1000
0001
0100
0010
0100
0010
0000
1000
0100
1000
0001
0010
0001
0100
0010
,
0000
0010
1000
0000
0101
0001
0010
0000
0100
1000
0200
0000
0010
0000
0310
0001
,
0100
0000
0000
0010
0000
0000
1000
0000
0000
0001
0000
0000
1000
0000
0010
0000
0100
0000
0001
0000
1000
0000
0010
0000
0100
0000
0000
0000
0000
0000
1001
0000
0000
0000
0000
0000
0001
0000
0000
0010
0000
0000
0001
0000
0000
1000
0000
0000
,
0010
0000
1010
0000
1000
0001
0100
0010
1000
0000
1100
0000
0001
0010
0001
0100
,
1000
0100
0001
0000
0011
0000
0010
0001
0100
0010
1000
0100
0000
0100
1000
0000
,
0010
0000
0000
0100
0000
0000
0001
0000
0000
0001
0000
0000
0011
0000
0000
0000
0000
0000
1000
0000
0000
0010
0000
0000
1000
0000
0000
0001
0000
0000
0100
0000
0000
0010
0000
0000
1000
0000
0000
0000
0000
0000
1000
0000
0001
0000
1000
0000
,
0010
0100
0001
0010
0100
0000
1000
0100
0101
0000
0010
1000
0000
0001
0100
0010
,
1000
0001
0010
0100
1001
0000
0001
0010
0001
0100
0010
1000
0001
0010
0100
0000
,
1000
0000
0000
0000
0000
0000
1010
0000
0000
0100
0000
0000
0010
0000
0000
1000
0000
0000
0100
0000
0000
0001
0000
0000
0100
0000
0000
0010
0000
0000
0001
0000
0000
1000
0000
0000
0010
0000
1000
0000
0100
0000
1000
0000
0001
0000
0010
0000
,
0100
0000
0000
0010
0000
0000
0001
0000
0000
0000
0000
0000
1000
0000
0000
0010
0000
0000
0100
0000
0000
0001
0000
0000
1000
0000
0000
0000
0000
0000
0010
0000
1000
0000
0001
0000
0010
0000
0100
0000
1000
0000
0001
0000
0100
0000
0010
0000
,
1000
0000
0001
0010
0011
0100
0010
1000
0001
0000
0010
0000
1001
0000
0100
0000
,
1000
0010
0100
0001
1100
0010
0001
0100
0010
0000
1100
0000
0101
0000
1001
0000
,
1001
0010
1000
0101
,
0010
1000
1100
0010
,
0001
0110
0001
1000
,
0100
0000
0000
0000
0010
1000
0010
1000
,
0001
0010
0100
1100
,
0010
1000
0101
1000
,
0010
0110
0100
0001
,
1000
0100
1000
0100
0010
0001
0010
0001
,
1000
0010
0100
0001
0010
0001
1000
0010
,
1001
0000
0000
0000
0010
0000
1000
0001
0200
0000
0000
0000
0310
0000
0000
0000
,
1000
0100
1000
0100
0010
0000
0001
0000
0100
0000
0010
0000
1000
0000
0001
0000
,
0100
0000
1000
0000
0100
0000
0001
0010
0200
0000
0000
0000
0310
0000
0000
0000
,
0110
1000
0100
0011
,
0010
0001
1010
0010
,
0100
1001
1000
0001
,
1001
0000
0000
0000
0010
0001
0010
0001
,
1000
0010
0100
0011
,
1000
0010
1010
0100
,
0001
0110
1000
0001
,
0010
0001
0010
0001
0100
0010
1000
0100
,
0010
0000
0001
0000
1000
0000
0010
0000
0000
0000
1000
0001
0100
0000
0001
0000
,
0010
0000
0100
0000
1000
0000
0010
0000
0100
0000
0001
0000
0100
0010
1000
0100
,
0010
0000
0100
1000
0001
0000
0010
0000
1001
0000
1000
0100
0000
0010
0001
0000
0001
1000
0010
0000
1000
0100
0000
0100
1000
0010
0100
0000
0001
0000
0010
0000
,
0001
1000
0010
0000
0100
0000
0010
0000
1000
0100
0010
0100
1000
0000
0001
0000
0200
0000
0000
0010
0000
0000
0301
0000
0001
0000
0011
0000
0101
0000
1010
0000
,
1000
0100
0000
0100
0010
0000
0100
0000
1000
0001
0100
0000
0001
0000
0010
0000
0001
0100
0010
1000
0100
0000
0010
0001
0100
0000
0001
1000
0100
0010
0001
0000
,
1000
0010
1000
0100
0010
0000
0001
0000
0101
0000
1000
0010
0100
0001
0010
0000
0110
0000
0000
1000
0100
0010
0100
1000
0001
0000
0010
0002
2000
0000
3003
0000
,
0010
0000
1000
0100
0010
1000
0000
0010
0001
0100
0010
1000
0001
0000
1001
0000
,
1000
0000
1010
0000
0100
0010
1000
0001
0010
0001
0100
0000
0110
0000
1000
0010
,
0100
0001
0000
0001
0010
0001
0100
0010
1000
0000
0100
0000
0110
0000
0010
0001
,
1000
0100
0010
1000
0010
0001
0100
0010
1000
0001
0010
0100
1001
0000
0001
0010
,
0001
1000
0010
0100
0010
1000
0100
0010
0001
0000
1100
0000
0101
0000
0010
1000
,
0100
1000
0010
0100
0001
0010
1001
0000
0110
0000
1000
0100
1000
0010
0100
1000
,
0100
0001
0010
0100
1000
0010
0100
0000
0110
0000
0100
0010
1000
0100
1000
0010
,
0100
0001
0010
0100
1100
0000
0101
0000
0110
0000
0100
0010
1000
0000
0100
1000
,
0010
0100
0010
1000
0100
0010
0001
1000
0100
0000
0010
0001
0100
0001
0010
0100
,
1000
0010
0100
0000
1001
0000
0001
1000
0100
0010
0000
0010
0001
1000
0100
1000
,
0010
0100
0001
0000
1001
0000
0011
0000
1100
1000
0010
0100
0010
1000
0100
0010
,
0001
1000
0010
0100
0110
0000
0011
0010
0001
0100
0010
1000
0100
0000
0110
0000
,
1000
0010
1000
0010
0101
0000
0001
0010
0001
1000
0100
0010
1000
0010
0001
0000
,
0001
0000
0011
0010
0100
1000
0010
1000
0100
0000
0110
0000
1001
0000
1000
0000
,
0010
1000
0100
0000
1000
0001
0100
1000
0100
0010
1000
0100
0010
0001
1000
0100
,
1001
0000
0001
1000
0010
1000
0100
0010
1000
0010
0001
0100
0010
1000
0001
0010
,
0110
0000
1000
0001
1000
0010
0100
1000
0100
0001
1001
0000
1100
0000
0101
0000
,
0110
0000
1000
0100
1000
0010
0100
1000
0000
0100
0001
0010
0100
1000
0001
1000
,
1001
0000
0000
0000
0000
0000
0010
0000
0000
1000
0000
0000
0100
0000
0000
0010
0000
0000
0001
0000
0000
1000
0000
0000
0001
0000
0010
0000
0001
0000
1000
0000
0010
0000
0100
0000
1000
0000
0100
0000
0001
0000
0010
0000
0100
0000
1000
0000
,
0002
0000
0000
0013
0001
1000
1100
0000
0010
1000
0101
0000
1000
0001
1001
0000
,
1010
0000
0000
0000
0000
0000
0000
0000
0001
0000
0000
0000
0000
0000
0000
0000
0010
0000
0000
0000
0000
0000
0000
0000
1100
0000
0000
0000
0000
0000
0000
0000
0000
0000
0000
0000
0001
0000
0000
0000
0000
0000
0000
0000
0000
0000
0000
0000
0010
0000
0000
0000
0000
0000
0000
0000
0000
0000
0000
0000
0001
0000
0000
0000
0000
0000
0000
0000
0000
0000
0000
0000
1000
0000
0000
0000
0000
0000
0000
0000
0000
0000
0000
0000
0000
0000
0000
0000
0000
0000
0000
0000
0000
0000
0000
0000
0100
0000
0000
0000
0000
0000
0000
0000
0000
0000
0000
0000
1000
0000
0000
0000
0000
0000
0000
0000
0000
0000
0000
0000
0010
0000
0000
0000
0000
0000
0000
0000
0000
0000
0000
0000
0000
0000
0000
0000
0000
0000
0000
0000
0000
0000
0000
0000
0010
0000
0000
0000
0000
0000
0000
0000
0000
0000
0000
0000
0000
0000
0000
0000
0000
0000
1000
0000
0000
0001
0000
0000
1000
0000
0000
0000
0000
0000
0000
0000
0000
0000
0000
0000
0000
0000
0000
0000
0000
0000
0000
0000
0000
0000
0000
0000
,
0001
0000
0101
0000
0010
1000
0100
0010
0001
0000
1100
0000
0001
0000
0110
0000
,
1000
0100
0010
0000
0001
0000
1100
0000
0010
1000
0100
0010
1000
0010
0001
0100
,
0010
1010
0100
0001
0011
1100
0110
1001
,
0001
0100
1000
0000
1000
0100
0001
0010
0001
1000
0100
0010
1000
0010
0001
1000
,
0010
1000
0001
0100
0010
1000
0001
0000
0000
1001
0000
0000
,
1000
0010
0100
0001
1000
0001
0100
0000
0000
0110
0000
0000
,
1000
0000
0001
0000
0010
0000
1000
0000
0010
0000
0001
0000
0100
0000
0000
0010
0000
0000
1100
0000
0000
0000
0000
0000
,
0001
0010
1001
0000
0010
1000
0101
0000
,
0010
1000
0100
0010
1000
0010
0001
0000
0000
0011
0000
0000
,
1000
0010
0100
1000
0100
0001
0010
0000
0000
1010
0000
0000
,
0100
0000
0010
0000
1000
0000
0100
0000
0010
0000
1000
0000
0010
0000
0000
0001
0000
0000
0101
0000
0000
0000
0000
0000
,
0010
1000
1001
0000
0100
0010
1100
0000
,
0001
0010
0001
0100
1000
0100
0010
1000
0100
0010
1000
0010
0002
0000
0000
0000
,
0103
0010
1000
0100
0010
1000
0010
0001
0100
1000
0100
0001
0020
0000
0000
0000
,
0031
1000
0010
1000
0100
0010
1000
0010
0001
0100
0010
1000
0200
0000
0000
0000
,
0310
0001
1000
0010
0100
0001
0010
0001
1000
0010
0100
0001
1001
0000
0000
0000
;
