#TITLE:The Gummy Bear Song;
#SUBTITLE:(I'm A Gummy Bear);
#ARTIST:Christian Schneider;
#TITLETRANSLIT:;
#SUBTITLETRANSLIT:;
#ARTISTTRANSLIT:;
#GENRE:;
#CREDIT:;
#MUSIC:The Gummy Bear Song.ogg;
#BANNER:The Gummy Bear Song-bn.png;
#BACKGROUND:;
#CDTITLE:;
#SAMPLESTART:37.500;
#SAMPLELENGTH:15.000;
#SELECTABLE:YES;
#OFFSET:-0.936;
#BPMS:0.000=128.000;
#STOPS:;
#BGCHANGES:;
#FGCHANGES:;

//--------------- dance-single - ----------------
#NOTES:
     dance-single:
     :
     Beginner:
     1:
     0,0,0,0,0:
0000
0000
0000
0000
,
0000
0000
0000
0000
,
0000
0000
0000
0000
,
0000
0000
0000
0000
,
0001
0001
0000
0000
,
1000
1000
0000
0000
,
0001
0000
1000
0000
,
1001
0000
0000
0000
,
1000
1000
1000
1000
,
0000
0000
1000
0000
,
0001
0001
0001
0001
,
0000
0000
0001
0000
,
1000
0000
0000
0000
,
0001
0000
0000
0000
,
1000
0000
0001
0000
,
1001
0000
0000
0000
,
0001
0000
0000
0000
,
1000
0000
0000
0000
,
0001
0000
1000
0000
,
1001
0000
0000
0000
,
0010
0010
0000
0000
,
0010
0010
0000
0000
,
1000
0000
0001
0000
,
1000
0000
0000
0000
,
0100
0100
0000
0000
,
0100
0100
0000
0000
,
0001
0000
1000
0000
,
0001
0000
0000
0000
,
1000
1000
1000
0000
,
1000
1000
1000
0000
,
1000
1000
1000
0000
,
1000
0000
1000
0000
,
0001
0001
0001
0000
,
0001
0001
0001
0000
,
0001
0001
0001
0000
,
0001
0000
0001
0000
,
0001
0001
0001
0001
,
0000
0000
0001
0000
,
1000
1000
1000
1000
,
0000
0000
1000
0000
,
0010
0010
0000
0000
,
0010
0010
0000
0000
,
1000
0000
0001
0000
,
1001
0000
0000
0000
,
0100
0100
0000
0000
,
0100
0100
0000
0000
,
0001
0000
1000
0000
,
1001
0000
0000
0000
,
1000
0000
1000
0000
,
1000
0000
0000
0000
,
0001
0000
0001
0000
,
0001
0000
0000
0000
,
0010
0000
0010
0000
,
0010
0000
0000
0000
,
0100
0000
0100
0000
,
0100
0000
1001
0000
,
0001
0001
0000
0000
,
1000
1000
0000
0000
,
0001
0000
1000
0000
,
0010
0000
0000
0000
,
1000
1000
0000
0000
,
0001
0001
0000
0000
,
1000
0000
0001
0000
,
0010
0000
0000
0000
,
0100
0000
0100
0000
,
1000
0000
0001
0000
,
0100
0000
0100
0000
,
0001
0000
1000
0000
,
0010
0000
0010
0000
,
1000
0000
0001
0000
,
0010
0000
0010
0000
,
0001
0000
1000
0000
,
1001
0000
0000
0000
,
0001
0001
0000
0000
,
1001
0000
0000
0000
,
1000
1000
0000
0000
,
0110
0000
0000
0000
,
0000
0000
1001
0000
;

//--------------- dance-single - ----------------
#NOTES:
     dance-single:
     :
     Easy:
     3:
     0,0,0,0,0:
0000
0000
0000
0000
,
0000
0000
0000
0000
,
0010
0000
0010
0000
,
0010
2002
0000
3003
,
1000
0100
0000
0100
,
0001
0100
0000
0100
,
0010
0000
0100
0000
,
0010
2002
0000
3003
,
0001
0100
0001
0100
,
0020
0000
0030
0000
,
1000
0100
1000
0100
,
0000
0000
1001
0000
,
0020
0000
1030
0100
,
0020
0000
0031
0100
,
0002
0000
2003
0000
,
3010
0010
1001
0000
,
0200
0000
1300
0010
,
0200
0000
0301
0010
,
0002
0000
2003
0000
,
3100
0100
1001
0000
,
0001
0010
0000
0001
,
1000
0010
0000
1000
,
0100
0100
0010
0010
,
0110
0000
0000
0000
,
1000
0001
0000
0001
,
0001
1000
0000
1000
,
0001
0001
1000
1000
,
1001
0000
0000
0000
,
0001
0010
0001
0010
,
1000
0010
1000
0010
,
0001
0001
1000
1000
,
0010
0010
0010
0010
,
1000
0100
1000
0100
,
0001
0100
0001
0100
,
0010
0010
0100
0100
,
0020
0000
0000
0030
,
0001
0010
0001
0010
,
0200
0000
0300
0000
,
1000
0010
1000
0010
,
0000
0000
1001
0000
,
2000
0000
3100
0010
,
0002
0000
0103
0010
,
2000
0000
3002
0000
,
0013
0010
1001
0000
,
2000
0000
3001
0010
,
0002
0000
1003
0010
,
1000
1000
0001
0001
,
0200
0000
0310
0000
,
0001
0010
0001
0000
,
1000
0010
1000
0000
,
0100
0000
0010
0000
,
2002
0000
3003
0000
,
1000
0100
1000
0000
,
0001
0100
0001
0000
,
0010
0000
0100
0000
,
2002
0000
3003
0000
,
1000
2200
3300
0000
,
0001
0202
0303
0000
,
0001
0001
1000
1000
,
2002
0000
3003
0000
,
1000
2020
3030
0000
,
0001
0022
0033
0000
,
1000
1000
0001
0001
,
2002
0000
3003
0000
,
1000
0100
0010
0000
,
0001
0100
0010
0000
,
0010
0000
0100
0000
,
0220
0000
0330
0000
,
0010
1000
0001
0000
,
0010
0001
1000
0000
,
0200
0000
0310
0000
,
0020
0000
0130
0000
,
1000
1000
1000
1000
,
0100
0000
1100
0000
,
0001
0001
0001
0001
,
0100
0000
0101
0000
,
0010
0000
0100
0000
,
0001
1000
1001
0000
;

//--------------- dance-single - ----------------
#NOTES:
     dance-single:
     :
     Medium:
     4:
     0,0,0,0,0:
0000
0000
0000
0000
,
0000
0000
0000
0000
,
0001
0001
1000
1000
,
0010
2002
0000
3003
,
1000
0100
1000
0000
0000
0000
1000
0000
,
0001
0100
0001
0000
0000
0000
0001
0000
,
0010
0010
0100
0100
,
2002
0000
3003
0000
,
1000
0100
1000
0000
1000
0100
1000
0000
,
0020
0100
0000
0130
,
0001
0100
0001
0000
0001
0100
0001
0000
,
0000
0000
1001
0000
,
0010
1000
0000
0000
1000
0000
0001
0000
,
0010
0001
0000
0000
0001
0000
1000
0000
,
0100
0010
0000
0000
0100
0000
0010
0000
,
0010
1001
1001
0000
,
0001
0010
0000
0000
0002
0000
0103
0000
,
1000
0010
0000
0000
2000
0000
3100
0000
,
0020
0130
0200
0310
,
0000
0000
1001
0000
,
0002
0100
0000
1003
,
2000
0100
0000
3001
,
0002
0013
2000
3010
,
0100
2002
0000
3003
,
2000
0010
0000
3100
,
0002
0010
0000
0103
,
0010
1000
0100
0001
,
1001
0000
0000
0000
,
0001
0000
0010
0000
0001
0010
0001
0000
,
1000
0000
0010
0000
1000
0010
1000
0000
,
0100
0000
0010
0000
0100
0010
0100
0000
,
0110
0110
1001
1001
,
0001
0000
0100
0000
0001
0100
0001
0000
,
1000
0000
0100
0000
1000
0100
1000
0000
,
0010
0000
0100
0000
0010
0100
0010
0000
,
2002
0000
0000
3003
,
1000
0010
1000
0000
1000
0010
1000
0000
,
1001
1001
0000
0000
,
0001
0010
0001
0000
0001
0010
0001
0000
,
0000
0000
1001
0000
,
0100
1000
0000
0000
0100
0000
0010
0000
,
0100
0001
0000
0000
0100
0000
0010
0000
,
0100
0010
0000
0000
0100
0000
0010
0000
,
0200
0000
0310
0000
,
0011
0000
0001
0010
,
1010
0000
1000
0010
,
0100
0010
0000
0000
0100
0010
0000
0000
,
1000
0001
1001
0000
,
1000
0100
1000
0100
,
0001
0100
0001
0100
,
0001
0001
1000
1000
,
1001
0000
1001
0000
,
0001
0010
0001
0000
0001
0000
0001
0000
,
1000
0010
1000
0000
1000
0000
1000
0000
,
0001
0001
1000
1000
,
0110
0000
1001
0000
,
0001
0010
0100
0000
0000
0000
1000
0000
,
1000
0010
0100
0000
0000
0000
0001
0000
,
1000
1100
0001
0101
,
0220
0000
0000
0330
,
1000
0100
1000
0000
0100
0000
0010
0000
,
0001
0100
0001
0000
0100
0000
0010
0000
,
1000
0100
0001
0100
,
0110
0000
0000
0110
,
0010
0001
0001
0001
,
0010
1000
1000
1000
,
0200
1300
0200
0301
,
0010
1001
0000
0000
,
1100
1001
0000
1001
,
0101
1001
0000
1001
,
0010
0100
0010
0100
,
2002
0000
3003
1001
,
0001
0010
0000
0010
0000
0010
0000
0010
,
0100
0100
1001
0000
,
1000
0010
0000
0010
0000
0010
0000
0010
,
0100
0100
1001
0000
,
0001
1000
0001
0000
1000
0001
1000
0000
,
0020
0000
0200
0330
;

//--------------- dance-single - ----------------
#NOTES:
     dance-single:
     :
     Hard:
     7:
     0,0,0,0,0:
0000
0000
0000
0000
,
0000
0000
0000
0000
,
0010
0001
0100
0000
0010
1000
0100
0000
,
0010
2002
0000
3003
,
0010
2000
0100
0000
0001
0000
3100
0000
,
0010
0002
0100
0000
1000
0000
0103
0000
,
0100
0001
0010
0000
0100
1000
0010
0000
,
0110
0220
0000
0330
,
1000
0100
0010
0100
1000
0100
0010
0100
,
0001
1001
1000
1001
,
0001
0100
0010
0100
0001
0100
0010
0100
,
0000
0000
1001
0000
,
0001
0020
0000
0130
1000
0100
0010
0100
,
1000
0020
0000
0130
0001
0100
0010
0100
,
0001
1000
1001
0000
1000
0001
0010
0100
,
2000
0000
3010
0000
0101
0000
0001
0100
,
0001
0020
0000
0130
1000
0100
0010
0001
,
1000
0020
0000
0130
0001
0100
0010
1000
,
0001
0010
0011
0000
1000
0010
1010
0000
,
0001
0000
1000
0000
1001
0000
0010
0010
,
1000
0100
0010
0000
0100
1000
0100
0010
,
0001
0100
0010
0000
0100
0001
1000
0100
,
0010
0001
0200
0000
0310
1000
0200
0000
,
0310
0001
1000
0000
0010
1000
0001
0000
,
1000
0100
1200
0000
0010
0010
1300
0000
,
0001
0100
0201
0000
0010
0010
0301
0000
,
1000
0010
1000
0010
0001
0010
0001
0010
,
0200
0000
0000
0000
0000
0010
0010
0310
,
0110
0000
0002
0000
0013
0001
0010
0100
,
0000
0000
2000
0000
3010
1000
0010
0100
,
0000
0000
0110
0000
1000
0100
0010
0001
,
2000
0100
3100
0000
0002
0100
0103
0000
,
1000
0000
1020
0000
0130
0010
1000
1000
,
0001
0000
0021
0000
0130
0010
0001
0001
,
1000
1001
0001
1001
,
0200
0000
0001
1000
,
0301
0010
0100
0010
0001
1000
0001
0000
,
1000
0010
0100
0010
1000
0001
1000
0000
,
0001
0010
0011
0000
1000
0010
1010
0000
,
0200
0310
0110
0000
,
0001
0011
0000
0011
0001
0000
0001
0000
,
1000
1010
0000
1010
1000
0000
1000
0000
,
0010
0100
0001
0000
0010
0100
1000
0000
,
0001
1000
1001
0000
0110
0000
0000
0000
,
0010
2010
0000
3100
1000
0010
0100
0001
,
0010
0012
0000
0103
0001
0010
0100
1000
,
0001
1001
1000
1001
,
0010
0010
0020
0000
0200
0000
0330
0000
,
1000
0100
1000
0100
0010
0100
0010
0100
,
0010
0001
0010
0001
1000
0001
1000
0001
,
1001
0101
1100
0110
,
0001
0010
2000
0000
0000
0010
3010
0001
,
0101
0000
0101
0000
0000
0001
0010
0100
,
1100
0000
1100
0000
0000
1000
0010
0100
,
0001
0010
1000
0000
0010
0001
1000
0000
,
0001
0100
2000
0000
0000
0000
3100
0000
,
0101
0001
0010
0000
0011
0000
1010
0000
,
1100
1000
0010
0000
1010
0000
0011
0000
,
0001
0010
0001
0010
0100
1000
0100
1000
,
0001
1000
2002
0000
3003
0000
1001
0000
,
0010
0010
1010
0000
0000
0000
1010
0000
,
0100
0100
0101
0000
0000
0000
0101
0000
,
0012
0103
2010
3100
,
1000
0100
0001
0000
0000
0010
1001
0000
,
0110
2100
0010
3001
,
0110
0102
0010
1003
,
0010
1000
0100
1000
0010
0100
0001
0000
,
0010
0001
0100
0001
0010
0100
1000
0000
,
1100
1001
1001
0000
0101
1001
1001
0000
,
1010
1001
1001
0000
0011
1001
1001
0000
,
0001
0010
0100
0000
1000
0010
0100
0000
,
0001
2000
0002
0000
3000
1003
0001
0010
,
0200
1000
0001
1300
,
0100
0010
0110
0000
1001
0000
1001
0000
,
0020
1000
0001
1000
,
0031
0100
0010
0000
1001
0000
1001
0000
,
0020
0031
0200
1300
,
0000
0000
1001
0000
;

//--------------- dance-single - 2025 chart ----------------
#NOTES:
     dance-single:
     2025 chart:
     Challenge:
     9:
     0,0,0,0,0:
0000
0000
0000
0000
,
0000
0000
0000
0000
,
0001
0100
1000
0001
0010
1000
0100
0010
,
0001
1000
2002
0000
0000
0000
3003
0000
,
1100
1000
0020
0000
0100
0130
0001
1000
,
0001
0010
0200
0000
0010
0310
0001
0100
,
1000
0100
0001
0010
1000
0010
0001
1000
,
0010
0100
0220
0000
0000
0000
0330
0000
,
0100
0001
0010
0001
0100
1000
0100
0001
,
0010
0001
1001
0000
1000
0000
1001
0000
,
0100
1000
0010
1000
0100
0001
0100
0010
,
0001
0000
1000
0000
0010
0000
0000
0000
0120
0000
0000
0100
0000
0000
0130
0000
,
0001
0000
0011
0000
0000
0010
0100
0000
1000
0000
0001
0000
0100
0000
0001
0000
,
1000
0000
1010
0000
0000
0010
0100
0000
0001
0000
1000
0000
0100
0000
1000
0000
,
0010
0000
0110
0000
0000
0100
0001
0000
0100
0000
1000
0000
0100
0000
0010
0000
,
1000
0000
0100
1000
0100
0000
1000
0000
0001
0000
0000
0010
0001
0000
0010
0000
,
0110
0000
1100
0000
0000
1000
0100
0000
1000
0000
0001
0000
0100
0000
0010
0000
,
0110
0000
0101
0000
0000
0001
0100
0000
0001
0000
1000
0000
0100
0000
0010
0000
,
0110
0000
1001
0000
0000
0001
0010
0000
0001
0100
0001
0000
1000
0010
1000
0000
,
0100
0000
0010
0000
0100
0000
0000
0000
1001
0000
0001
0010
0001
0000
0100
0000
,
0110
0000
0010
0000
1000
0000
0100
1000
0100
0000
1000
0000
0001
0000
1000
0000
,
0100
0000
0010
0000
0001
0000
0100
0001
0100
0000
0001
0000
1000
0000
0001
0000
,
0011
0000
0010
0000
0110
0000
0100
0000
1100
0000
1000
0000
0010
1000
0010
0000
,
0100
0000
0001
0000
1001
0000
1000
0000
0100
0000
1000
0010
1000
0000
0001
0000
,
1001
0000
1000
0000
0100
0000
0010
0001
0010
0000
0001
0000
0100
0000
0010
0000
,
0100
0000
0001
0000
0100
0000
0010
1000
0010
0000
1000
0000
0100
0000
1000
0000
,
0010
1000
0010
0000
1000
0000
0100
0000
0010
0001
0010
0000
0001
0000
0100
0000
,
0110
2000
0002
0000
3003
1100
1010
0101
,
0011
0000
0001
0000
0020
0000
0000
0031
0010
0001
0010
0001
1000
0000
1001
0000
,
0001
0000
1000
0000
0020
0000
0000
1030
0010
1000
0010
1000
0001
0000
1001
0000
,
1000
0000
0100
0000
0020
0000
0000
0130
0010
0100
0010
0100
1000
0000
1100
0000
,
1000
0001
0000
0000
0101
0000
0000
0100
0010
0000
0100
0001
1000
0000
1001
0000
,
0001
0000
0010
0000
0002
0000
0000
0103
0001
0100
0001
0100
0010
0000
1010
0000
,
1000
0000
0010
0000
2000
0000
0000
3100
1000
0100
1000
0100
0010
0000
0011
0000
,
0001
0000
0100
0000
0020
0000
0000
0130
0010
0100
0010
0100
0010
0000
1001
0000
,
0001
0020
0000
0000
0100
0000
0000
0000
0031
0000
0002
0000
1003
0000
2000
0000
,
3100
0010
0001
0100
1000
0100
0001
0010
,
0100
0000
0010
0100
0010
0000
0001
0000
0100
0000
0010
0000
0110
0000
0000
0000
,
0100
0010
1000
0100
0001
0100
1000
0010
,
1000
0000
0001
0000
1000
0000
0000
0000
1002
0000
0000
0010
0000
0000
0013
0000
,
0100
0000
0110
0000
0010
0000
0001
0010
0001
0000
0100
0000
0010
1000
0010
0000
,
0100
0000
0110
0000
0010
0000
1000
0010
1000
0000
0100
0000
0010
0001
0010
0000
,
0002
0000
0100
0000
0103
0000
0001
0010
0001
0000
1000
0000
0010
1000
0010
0000
,
2000
0000
0100
0000
3100
0000
0010
0000
0110
0000
0100
0010
0000
0100
0010
0000
,
0001
0000
1001
0000
1000
0000
0010
1000
0100
0000
1000
0000
0001
1000
0001
0000
,
1000
0000
1001
0000
0001
0000
0010
0001
0100
0000
0001
0000
1000
0001
1000
0000
,
0010
0000
0100
0010
0100
0000
0001
0100
0001
0000
0010
0001
0010
0000
0100
0000
,
1000
0010
0100
0000
0102
0100
0010
0013
,
0110
0000
0100
1000
0100
0000
1000
0010
1000
0000
0010
0100
0010
0000
0100
0000
,
0001
0100
0001
0100
0001
0000
1000
0000
1001
0000
0001
0000
0010
0000
0100
0010
,
0100
0000
1000
0100
1000
0000
0001
0100
0001
0000
0010
0001
0010
0000
0100
0000
,
0110
0000
0010
0001
1000
0000
0001
0000
1002
0000
0000
0000
0100
0000
0103
0000
,
0010
0000
1000
0010
1000
0000
0100
1000
0100
0000
0010
0001
0010
0000
0001
0000
,
0100
0010
0100
0010
0100
0000
0001
0000
0011
0000
0010
0000
0100
0000
1000
0100
,
1000
0000
0010
0100
0010
0000
0100
0001
0100
0000
0001
1000
0001
0000
0010
0000
,
0100
0010
0100
0010
0100
0010
0100
0000
2002
0000
0000
0000
0000
0000
3003
0000
,
1000
0000
0010
1000
0020
0000
0000
0000
0100
0000
0100
0000
1000
0000
1030
0000
,
0001
0000
0010
0001
0020
0000
0000
0000
0100
0000
0100
0000
0001
0000
0031
0000
,
0100
0000
0010
0100
0010
0000
1000
0001
1000
0000
0200
0000
0010
0000
0310
0000
,
0001
0000
1000
0000
1001
0000
0000
1000
0001
0000
0010
0000
0100
0000
0010
0000
,
0001
0000
0100
0001
0100
0000
0001
0000
0020
0000
0100
0000
0100
0000
0130
0000
,
1000
0000
0100
1000
0100
0000
1000
0000
0020
0000
0100
0000
0100
0000
0130
0000
,
0001
0000
0010
0001
0010
0000
0100
1000
0100
0000
1000
0000
0010
0000
0100
0000
,
0001
0000
1000
0001
1000
0000
0100
0000
1000
0000
0010
0000
0110
0000
0100
0000
,
0001
0000
0010
0000
0110
0000
0100
1000
0100
0000
1000
0000
1000
0000
0010
0000
,
1000
0000
0100
0000
0110
0000
0010
0001
0010
0000
0001
0000
0001
0000
0100
0000
,
0001
0010
0001
0000
1000
0100
1000
0000
0010
0100
0010
0000
1000
0000
0001
0000
,
1001
0000
0001
0000
1001
0000
1000
0000
0100
0000
1000
0100
1000
0000
0010
0000
,
0110
0000
0100
0000
0101
0000
0001
0010
0001
0000
0010
0000
0100
1000
0100
0000
,
0110
0000
0100
0000
1100
0000
1000
0010
1000
0000
0010
0000
0100
0001
0100
0000
,
0010
1010
1000
1100
0100
0110
0010
0011
,
0001
0000
0101
0000
0220
0000
0000
0000
0330
0000
0010
1000
0001
0000
1001
0000
,
0000
0000
1000
0100
1000
0000
1000
0010
1000
0000
1000
0001
1000
0000
0001
0000
,
0200
0001
0001
0000
0010
0000
0301
0010
,
0000
0000
0001
0100
0001
0000
0001
0010
0001
0000
0001
1000
0001
0000
1000
0000
,
0020
1000
1000
0000
0100
0000
1030
0100
,
0000
0000
1000
0001
1000
0000
0001
1000
0001
0000
0100
0010
0100
0000
0010
0000
,
1010
0101
1001
0000
;

//--------------- dance-double - ----------------
#NOTES:
     dance-double:
     :
     Easy:
     3:
     0,0,0,0,0:
00000000
00000000
00000000
00000000
,
00000000
00000000
00000000
00000000
,
00001000
00000000
00010000
00000000
,
00022000
00000000
00033000
00000000
,
00010000
00000100
00001000
00000000
,
00000010
00001000
00000001
00000000
,
00001000
00000000
00000001
00000000
,
00002002
00000000
00003003
00000000
,
00010000
00001000
00010000
00001000
,
00000000
00011000
00000000
00000000
,
00001000
00010000
00001000
00010000
,
00000000
00000000
00011000
00000000
,
00100000
00000000
00001000
00010000
,
00000100
00000000
00001000
00000001
,
00000200
00000000
00000320
00000000
,
00000130
00000010
00001001
00000000
,
00001000
00000000
00000100
00010000
,
00100000
00000000
10000000
01000000
,
00010000
00000000
00001000
00000000
,
00010000
00001000
00011000
00000000
,
00010000
00000100
00000000
00010000
,
00001000
01000000
00000000
00001000
,
00100000
00010000
10000000
01000000
,
00010000
00011000
00000000
00000000
,
00001000
00100000
00000000
00001000
,
00010000
00000010
00000000
00010000
,
00000100
00000010
00000001
00000100
,
00001000
00011000
00000000
00000000
,
00001000
00100000
00010000
00100000
,
00001000
00010000
00011000
00000000
,
00010000
00000010
00001000
00000010
,
00010000
00001000
00011000
00000000
,
00001000
01000000
00010000
01000000
,
00001000
00011000
00010000
00011000
,
00010000
00000100
00001000
00000100
,
00022000
00000000
00000000
00033000
,
00001000
00010000
00001000
00010000
,
00000000
00011000
00000000
00000000
,
00010000
00001000
00010000
00001000
,
00000000
00000000
00011000
00000000
,
00010000
00000000
00000100
00001000
,
00000010
00000000
00000100
00001000
,
00010000
00000000
01000000
00100000
,
00010000
10000000
10010000
00000000
,
00100000
00000000
00001000
00010000
,
00000100
00000000
00001000
00000100
,
00000001
00000000
00000100
00010000
,
00100000
10000000
10010000
00000000
,
10000000
01000000
00100000
00010000
,
00001000
00000100
00000010
00000001
,
00002000
00003000
00000002
00000003
,
00002002
00000000
00003003
00000000
,
00000001
00000100
00000010
00001000
,
00010000
01000000
00100000
10000000
,
00020000
00030000
20000000
30000000
,
20020000
00000000
30030000
00000000
,
00100000
00101000
00000000
00010000
,
00000010
00010010
00000000
00001000
,
00010000
00010000
00001000
00001000
,
00022000
00000000
00033000
00000000
,
00000100
00010100
00000000
00001000
,
01000000
01001000
00000000
00010000
,
00001000
00001000
00010000
00010000
,
00022000
00000000
00033000
00000000
,
00100000
00010000
10000000
00000000
,
01000000
10000000
00010000
00000000
,
00100000
00000000
00001000
00000000
,
00022000
00000000
00033000
00000000
,
00000010
00001000
00000001
00000000
,
00000100
00000001
00001000
00000000
,
00000010
00000000
00010000
00000000
,
00022000
00000000
00033000
00000000
,
10000000
00010000
10000000
00010000
,
00000000
00000000
00011000
00000000
,
00000001
00001000
00000001
00001000
,
00000000
00000000
00011000
00000000
,
00001000
00010000
00001000
00010000
,
00000000
00000000
00011000
00000000
;

//--------------- dance-double - 2024 chart ----------------
#NOTES:
     dance-double:
     2024 chart:
     Medium:
     5:
     0,0,0,0,0:
00000000
00000000
00000000
00000000
,
00000000
00000000
00000000
00000000
,
00010000
00001000
00000100
00001000
,
00100000
00220000
00000000
00330000
,
00001000
00010000
00001000
00000000
00000000
00000000
00000010
00000000
,
00000001
00001000
00000001
00000000
00000000
00000000
00000100
00000000
,
00001000
00010000
01000000
10000000
,
20020000
00000000
30030000
00011000
,
00001000
00010000
00001000
00000000
00010000
00000000
00001000
00000000
,
00010000
00000200
00000000
00010300
,
00010000
00001000
00010000
00000000
00001000
00000000
00010000
00000000
,
00100000
10000000
10010000
00000000
,
01000000
00010000
00000000
00000000
00100000
00000000
00001000
00000000
,
00010000
00001000
00000000
00000000
00010000
00000000
00010000
00000000
,
00000100
00001000
00000000
00000000
00000001
00000000
00000100
00000000
,
00000010
00000100
00000110
00000000
,
00001000
00000010
00000000
00000000
00010000
00000000
00001000
00000000
,
01000000
00010000
00000000
00000000
10000000
00000000
00100000
00000000
,
20000000
31000000
00020000
01030000
,
00100000
01000000
10010000
00000000
,
00200000
00001000
00000000
00301000
,
00020000
00000100
00000000
00030100
,
00001000
00000010
00001000
00000001
,
00001000
00002002
00000000
00003003
,
00000200
00010000
00000000
00010300
,
00002000
00100000
00000000
00103000
,
00010000
10000000
01000000
00100000
,
01100000
00000000
00000000
00000000
,
00010000
00000000
00001000
00000000
00010000
00000100
00010000
00000000
,
00001000
00000000
00010000
00000000
00001000
01000000
00001000
00000000
,
00100000
00000000
00010000
00000000
10000000
00010000
10000000
00000000
,
11000000
01010000
10010000
10010000
,
00100000
00000000
00001000
00000000
00010000
00001000
00010000
00000000
,
00000010
00000000
00010000
00000000
00001000
00010000
00001000
00000000
,
00000100
00000000
00000010
00000000
00001000
00000001
00001000
00000000
,
00002002
00000000
00000000
00003003
,
00000001
00000100
00000001
00000000
00001000
00000000
00000001
00000000
,
00001000
00000100
00001000
00000000
00000100
00000000
00010000
00000000
,
00000100
00010000
00001000
00000000
00010000
00001000
00100000
00000000
,
00010000
10000000
10010000
00000000
,
00010000
00100000
00000000
00000000
00001000
00000000
00010000
00000000
,
00000100
00010000
00000000
00000000
00000100
00000000
00000100
00000000
,
00001000
00000010
00000000
00000000
00000100
00000000
00000001
00000000
,
00001000
00000100
00010000
00000000
,
00001000
00100000
00000000
00000000
00001000
00000000
01000000
00000000
,
00010000
00100000
00000000
00000000
01000000
00000000
00010000
00000000
,
00002000
00000000
00023000
00000000
,
00030100
00000010
00000110
00000000
,
00000001
00000100
00000001
00000100
,
00001000
00000100
00001000
00010000
,
00001000
00001000
00010000
00010000
,
00011000
00000000
00011000
00000000
,
00010000
01000000
00010000
01000000
,
10000000
01000000
10000000
00100000
,
01000000
01000000
00100000
00100000
,
01100000
00000000
10010000
00000000
,
00100000
00010000
00100000
00000000
00001000
00000000
00010000
00000000
,
00000010
00001000
00000010
00000000
00010000
00000000
00000100
00000000
,
00001000
00000001
00001000
00000000
00000001
00001000
00000001
00000000
,
00000100
00001000
00010000
01000000
,
10000000
00100000
10000000
00000000
01000000
00000000
00100000
00000000
,
00010000
00100000
00010000
00000000
01000000
00000000
00001000
00000000
,
00010000
00000100
00001000
00000001
,
00000100
00000000
00001000
00000000
00010000
00001000
00010000
00000000
,
01000000
10000000
10000000
10000000
,
01000000
00010000
00010000
00010000
,
00002000
00003100
00000002
00000103
,
00000001
00001001
00000000
00000000
,
00010010
00011000
00000000
00011000
,
00101000
00000000
00011000
00000000
00000000
00000000
00010000
00001000
,
00010000
01000000
10000000
00010000
,
20020000
00000000
30030000
10010000
,
01000000
00010000
00000000
00010000
00000000
00010000
00000000
00010000
,
00100000
00001000
00100000
00000000
00000100
00000000
00010000
00000000
,
00000100
00001000
00000000
00001000
00000000
00001000
00000000
00001000
,
00000010
00000100
00000001
00000000
00000100
00000000
00000010
00000000
,
00001000
00000100
00000000
00000100
00001000
00000010
00000000
00000010
,
00000200
00000000
00000020
00000330
;

//--------------- dance-double - 2024 chart ----------------
#NOTES:
     dance-double:
     2024 chart:
     Hard:
     8:
     0,0,0,0,0:
00000000
00000000
00000000
00000000
,
00000000
00000000
00000000
00000000
,
00000100
00010000
00001000
00000000
01000000
00001000
00010000
00000000
,
00101000
00020020
00000000
00030030
,
00000100
00000002
00000010
00000000
00001000
00000000
00000103
00010000
,
00001000
00200000
00010000
00000000
01000000
00000000
00310000
10000000
,
01000000
10000000
00100000
00000000
01000000
00010000
00100000
00000000
,
01100000
00000000
20020000
00000000
00000000
30030000
10010000
00000000
,
01000000
00010000
01000000
10000000
01000000
00010000
01000000
00100000
,
10000000
00000000
11000000
00000000
00100000
00001000
00010000
00000000
,
00000100
00001000
00000100
00000001
00000100
00001000
00000100
00010000
,
00001000
00010000
00022000
00033000
,
00001000
00200000
00000000
00310000
00100000
00010000
10000000
00100000
,
10000000
02000000
00000000
13000000
01000000
00100000
00010000
00100000
,
00001000
00010000
00011000
00000000
00010000
00000100
00001000
00000010
,
00000200
00000000
00000000
00000000
00000301
00000000
00000000
00000000
00001010
00000000
00000000
00001000
00000010
00000000
00001000
00000000
,
00000100
00000200
00000000
00010300
00001000
00100000
00010000
10000000
,
00100000
02000000
00000000
03100000
01000000
00010000
00100000
00001000
,
00010000
00000100
00010100
00000000
00001000
00000001
00001001
00000000
,
00000101
00000000
00000000
00000000
00001100
00000000
00000000
00000000
00011000
00000000
00000000
00010000
00001000
00000000
00001000
00000000
,
00100000
00010000
00200000
00000000
00310000
00100000
01000000
10000000
,
00100000
10000000
00200000
00000000
10300000
01000000
00010000
00001000
,
00010000
00000100
00000020
00000000
00000031
00001000
00000200
00000000
,
00010300
00001000
00100000
00000000
00001000
00010000
00000010
00000000
,
00000100
00000001
00000102
00000000
00001000
00000000
00000013
00000100
,
00001000
00000000
00002100
00000000
00000010
00000000
00003100
00010000
,
00001000
00100000
00010000
00100000
01000000
10000000
01000000
00010000
,
00002000
00000000
00020000
00000000
00003000
00000100
00000100
00030100
,
00010100
00000000
00000000
00000000
00001000
00000000
00000000
00000010
00001000
00000010
00001000
00000000
00000010
00000000
00000010
00000000
,
00000100
00000000
00000000
00000000
00000001
00000000
00000000
00000010
00000001
00000010
00000001
00000000
00001000
00000000
00001000
00000000
,
00000100
00000000
00000000
00000000
00011000
00000000
00000000
00010000
00001000
00010000
00001000
00000000
00100000
00000000
00100000
00000000
,
00020000
00000000
20030000
00000000
31000000
00010000
00001000
00001000
,
00100000
00000000
00000000
00000000
00120000
00000000
00000000
01030000
00010000
01000000
00010000
00000000
10000000
00000000
00100000
00000000
,
10000000
00000000
00000000
00000000
20100000
00000000
00000000
31000000
10000000
01000000
10000000
00000000
00100000
00000000
10000000
00000000
,
00010000
00000000
00000000
00000000
10010000
00000000
00000000
10000000
00010000
10000000
00010000
00000000
01000000
00000000
00001000
00000000
,
00020000
00000000
00001000
00000000
00100000
00001000
00031000
00010000
,
00000100
00001000
00000010
00001000
00000100
00001000
00000001
00000010
,
00000001
00000010
00000200
00000000
00001300
00000001
00000200
00000000
,
00000310
00001000
00001010
00000000
00000100
00000001
00000101
00000000
,
00001000
00000100
00010000
00000000
00022000
00000000
00033000
00000000
,
00100000
00110000
00000000
00110000
00010000
10000000
01000000
10000000
,
00100000
10100000
00000000
10100000
01000000
00010000
00100000
00001000
,
00010000
00011000
00000000
00011000
00001000
00000100
00000001
00000100
,
00000001
00000000
00001000
00000000
00001001
00000000
00000000
00000000
00000110
00000000
00000000
00001000
00000010
00000000
00001000
00000000
,
00000100
00020100
00000000
00031000
00100000
00001000
01000000
00001000
,
01000000
01002000
00000000
00013000
00000100
00001000
00000001
00000100
,
00000010
00000220
00000330
00000110
00000100
00001000
00010000
00001000
,
00100000
01000000
20000000
00000000
00020000
00000000
30030000
00000000
,
01000000
00010000
01000000
00010000
00100000
00010000
00100000
00010000
,
00200000
00302000
00013000
00011000
,
00000100
00001000
00000100
00001000
00000010
00001000
00000010
00001000
,
00000200
00020300
00002000
00033000
,
01000000
00010000
01000000
00100000
10000000
00010000
10000000
00100000
,
02000000
03010000
10010000
11000000
,
00100000
00001000
00010000
00001000
00010000
00000100
00001000
00000100
,
00000020
00000130
00001002
00000103
,
00001010
00001000
00000100
00010000
00001000
00100000
00010000
00000000
,
00110000
00010000
01000000
00001000
00100000
00010000
10000000
00010000
,
01000000
00010000
01010000
00000000
00100000
10000000
10100000
00000000
,
01000000
00100000
02200000
00000000
03300000
01000000
00010000
00010000
,
00100000
00001000
00102000
00000000
00013000
00001000
00021000
00000000
,
00030100
00010000
00010200
00000000
00001300
00000010
00001020
00000000
,
00000130
00000001
00000101
00000100
00001000
00010000
00011000
00100000
,
00010000
00000000
10000000
00000000
22000000
00000000
00000000
00000000
33000000
00000000
00010000
10000000
00010000
00000000
01000000
00000000
,
01010000
00000000
00000000
00000000
20100000
00000000
00000000
00000000
01000000
00000000
00000000
00000000
00010000
30000000
00100000
00000000
,
00101000
00000000
00021000
00000000
00000100
00030100
00001000
00000100
,
00001000
00000010
00000100
00000001
00000010
00000010
00000011
00000000
,
00001010
00000000
00002002
00000000
00003003
00000001
00000100
00000000
,
00000101
00001001
00001001
00000000
00001100
00010100
00011000
00000000
,
01001000
01010000
10010000
00000000
11000000
10010000
10010000
00000000
,
00100000
00010000
00110000
00000000
10100000
00000000
10010000
00000000
,
01000000
00001000
00010000
00000100
00002000
00000010
00000010
00003010
,
00000100
00000001
00000100
00001000
00000100
00000001
00000100
00001000
,
00010000
00001000
00010000
00000000
00012000
00000000
01003000
00000000
,
00010000
01000000
10000000
01000000
00010000
01000000
00100000
10000000
,
01000000
00100000
01000000
00000000
01100000
00000000
10010000
00000000
,
00200000
00000000
00301000
00000000
00010000
00000100
00010000
00001000
,
00000000
00000000
00011000
00000000
;
