#TITLE:THE FAB FAIRIES DANCE;
#SUBTITLE:;
#ARTIST:NINTENDO;
#TITLETRANSLIT:;
#SUBTITLETRANSLIT:;
#ARTISTTRANSLIT:;
#GENRE:;
#CREDIT:;
#MUSIC:The Fab Fairies Dance.mp3;
#BANNER:The Fab Fairies Dance-bn.png;
#BACKGROUND:The Fab Fairies Dance-bg.png;
#CDTITLE:;
#SAMPLESTART:3.100;
#SAMPLELENGTH:12.000;
#SELECTABLE:YES;
#OFFSET:-0.108;
#BPMS:0.000=160.000;
#STOPS:;
#BGCHANGES:;
#FGCHANGES:;

//--------------- dance-single - ----------------
#NOTES:
     dance-single:
     :
     Beginner:
     1:
     0,0,0,0,0:
0000
0000
0000
0000
,
0000
0000
0000
0000
,
0001
0000
0001
0000
,
0001
0000
0000
0000
,
1000
0000
1000
0000
,
1000
0000
0000
0000
,
0010
0000
0010
0000
,
0010
0000
0000
0000
,
0100
0000
0100
0000
,
0100
0000
0000
0000
,
0001
0000
0000
0000
,
0001
0001
0001
0000
,
1000
0000
0000
0000
,
1000
1000
1000
0000
,
1001
0000
1001
0000
,
0010
0010
0010
0000
,
1000
0000
1000
0000
,
1000
0000
0000
0000
,
0001
0000
0001
0000
,
0001
0000
0000
0000
,
0100
0000
0100
0000
,
0100
0000
0000
0000
,
0010
0000
0010
0000
,
0010
0000
0000
0000
,
1000
0000
0000
0000
,
1000
1000
1000
0000
,
0001
0000
0000
0000
,
0001
0001
0001
0000
,
0110
0000
0110
0000
,
0100
0100
0100
0000
,
1001
0000
0000
0000
,
0010
0010
0010
0010
;

//--------------- dance-single - ----------------
#NOTES:
     dance-single:
     :
     Easy:
     3:
     0,0,0,0,0:
0000
0000
0000
0000
,
0000
0000
0000
0000
,
0001
1000
0001
0000
,
1000
0001
1000
0000
,
0100
0000
1100
0000
,
0100
0000
0101
0000
,
1000
0010
0100
0000
,
0001
0010
0100
0000
,
1000
0000
1010
0000
,
0001
0000
0011
0000
,
1000
1000
0100
0000
,
0010
0100
0010
0100
,
0001
0001
0100
0000
,
0010
0100
0010
0100
,
1010
0000
0011
0000
,
1000
0001
1000
0001
,
0010
0001
0100
0100
,
0010
1000
0100
0100
,
1000
0000
1010
0000
,
0001
0000
0011
0000
,
0010
0001
0100
0100
,
0010
1000
0100
0100
,
1010
0000
1001
0000
,
0011
0000
0110
0000
,
0100
1000
0100
1000
,
0010
1000
0010
0000
,
0100
0001
0100
0001
,
0010
0001
0010
0000
,
1100
0000
0101
0000
,
1010
0011
1001
0000
,
1000
0000
0001
0000
,
0010
0001
1000
0010
;

//--------------- dance-single - ----------------
#NOTES:
     dance-single:
     :
     Medium:
     5:
     0,0,0,0,0:
0000
0000
0000
0000
,
0001
0000
0010
0000
0001
1000
0100
0000
,
1000
0000
0010
0000
1000
0001
0100
0000
,
0010
1000
0100
0000
0010
0001
0100
0000
,
0001
0001
0010
0100
,
1000
1000
0010
0100
,
0001
0100
0010
0000
1000
0100
0010
0000
,
0001
0010
1000
0100
,
1000
0010
1000
0000
0100
0000
0010
0000
,
0001
0010
0001
0000
0100
0000
0110
0000
,
1000
0000
0000
0000
1000
0100
1000
0000
,
0010
0100
0001
0000
0010
0000
0001
0000
,
0100
0000
0000
0000
0001
0100
0001
0000
,
1000
0100
0010
0000
1000
0010
0001
0100
,
0010
1000
0000
0000
0010
0001
0000
0000
,
0010
1100
0101
1001
,
1000
0100
1000
0000
0010
0000
0001
0100
,
0001
0010
0100
0100
,
1000
0010
0001
0100
,
0001
0010
1000
0100
,
1000
0010
1000
0000
0100
0000
1000
0000
,
0001
0010
0001
0000
0100
0000
0001
0000
,
1000
0000
1100
0010
,
0101
0000
0001
0000
,
1000
0100
1000
0000
0010
0000
0000
0000
,
1000
0100
0010
0000
0100
0000
0010
0000
,
0001
0100
0001
0000
0010
0000
0000
0000
,
0001
0100
0010
0000
0100
0000
0010
0000
,
1000
0100
0000
0000
0001
0010
0000
0000
,
0001
0010
1000
0010
,
1001
0001
1000
0001
,
1010
0011
0100
0010
;

//--------------- dance-single - ----------------
#NOTES:
     dance-single:
     :
     Hard:
     8:
     0,0,0,0,0:
0000
0000
0000
0000
,
0001
0001
0010
0010
0001
1000
0010
1000
,
0100
0000
1010
0000
1000
0001
0010
0000
,
0011
0000
0100
0010
0001
1000
0010
0000
,
0100
0010
1000
0100
0010
0000
1100
0000
,
1000
0001
0010
0001
0100
0000
0101
0000
,
1000
1000
0010
1000
0001
0010
0100
0000
,
0010
0001
1000
0100
0010
0000
0110
0000
,
0100
0010
0001
0100
0101
0000
1010
0000
,
1000
0001
0010
0100
1100
0000
0011
0000
,
0010
0000
0001
1000
0100
0000
0100
0000
,
1000
0010
0100
0001
0100
0001
1000
0100
,
0010
0000
0010
0001
1000
0000
0001
0000
,
1000
0100
1000
0010
0100
0001
0010
0001
,
0010
0011
0000
0000
0100
1100
0000
0000
,
1000
0001
0010
0100
1000
0010
1000
0001
,
0001
0010
0110
0000
0100
1000
0010
0000
,
1000
0010
1000
0001
0100
0001
0010
0000
,
0011
0010
0001
0010
0100
1000
0010
0000
,
1010
1000
0001
1000
0100
0010
0100
0000
,
0100
0100
0010
0000
0100
0010
0001
0000
,
1000
0001
1000
0100
0001
0000
0110
0000
,
0100
0010
0100
1000
0010
0000
1010
0000
,
1000
0001
0100
0001
0010
0000
0011
0000
,
0010
0001
0010
0000
0100
0010
0001
0000
,
1000
0010
1000
0001
0100
0010
0100
0001
,
1000
0100
0010
0000
1000
0010
0001
0000
,
0100
0010
0100
0001
1000
0100
0010
0100
,
0010
0101
0000
0000
0100
1010
0000
0000
,
0001
0010
0001
1000
0100
0010
0100
1000
,
0001
0001
0010
0010
0100
0100
1000
1000
,
0101
1100
1001
0100
;

//--------------- dance-single - ----------------
#NOTES:
     dance-single:
     :
     Challenge:
     10:
     0,0,0,0,0:
0000
0000
0000
0000
,
0000
0000
0000
0000
0000
0000
0000
0000
0001
0010
0001
0100
0010
1000
0100
0010
,
0100
0000
1000
0000
1001
0000
0000
1000
0010
0000
0010
0000
0100
0000
0000
0001
,
0010
0000
0001
0000
1000
0100
0010
0000
0100
0000
1000
0000
0001
0000
0100
0000
,
0001
0010
0001
1000
0010
1000
0100
0010
0100
0000
0100
0000
1000
0000
0000
0000
,
0100
1000
0010
1000
0001
0100
0001
0010
0100
0000
0010
0000
0001
0000
0001
0000
,
1000
0000
0100
1000
0010
0000
1000
0001
0100
0000
0001
0000
0010
0000
0100
0010
,
0001
0100
0001
0000
1000
0000
0001
1000
0100
0000
1000
0010
0100
0000
0001
0000
,
0010
0001
0100
0010
1000
0001
1000
0100
0010
0000
0100
0000
1000
0001
1000
0000
,
0001
1000
0100
1000
0010
0100
0001
0010
0100
0000
0010
0000
0011
0000
0000
0001
,
1000
0100
0000
0000
1000
0010
0100
0000
0001
0010
0000
0000
0100
0000
0010
0000
,
0001
0000
0010
0001
0010
0001
1000
0010
0100
1000
0100
0001
1000
0100
0010
0100
,
0010
0000
0001
0010
0001
0000
1000
0000
0100
0000
1000
0010
1000
0000
0001
0000
,
0100
0000
0010
1000
0100
0010
0100
1000
0010
0100
0001
1000
0100
1000
0010
0100
,
0001
0101
0000
0000
1000
1100
0000
0000
,
1000
0000
0100
1000
0001
0000
0010
0001
0100
0000
0010
1000
0100
0010
0100
1000
,
0100
0000
1000
0000
0001
0000
0010
0001
0100
0000
0001
0000
1001
0000
0000
1000
,
0100
1000
0010
0000
0100
0001
0010
0000
0001
0000
1000
0100
0010
0000
0100
0000
,
1000
0010
0100
0001
0010
0100
0010
0001
0100
0000
0010
0000
1010
0000
1000
0000
,
0100
0000
1000
0010
0100
0000
0010
1000
0001
0000
0010
0100
0010
0001
1000
0100
,
1000
0000
0010
0000
0101
0000
0000
0100
0001
0000
1000
0100
0010
0000
0100
1000
,
0010
0000
0110
0000
0100
0001
0010
0000
0001
1000
0100
0000
0100
0000
0010
0000
,
0100
1000
0010
0100
0010
1000
0001
0010
0100
0000
0010
0000
0011
0000
0001
0000
,
0100
0001
0010
0100
0010
0001
1000
0010
0100
0000
0010
0000
1010
0000
0100
0000
,
0001
1000
0000
0100
1000
0000
0010
0000
0100
0001
0000
0010
0100
0000
0010
0000
,
0001
0000
1000
0010
0100
1000
0100
0001
1000
0100
0010
0100
1000
0010
0100
0001
,
1000
0000
0000
0100
1000
0000
0010
1000
0001
0000
0010
0000
0100
0010
0001
0000
,
0010
0000
0001
1000
0010
0100
0010
1000
0100
0010
1000
0010
0001
0100
0010
1000
,
0100
0011
0000
0000
0001
1010
0000
0000
,
1000
0000
0100
1000
0010
0000
0100
0000
0001
0010
0001
0000
1000
0100
1000
0010
,
0100
0000
0001
0010
0100
0000
1000
0010
0100
0000
0001
1000
0001
0000
1000
0000
,
1100
0011
0110
1001
;

//--------------- dance-solo - ----------------
#NOTES:
     dance-solo:
     :
     Easy:
     2:
     0,0,0,0,0:
000000
000000
000000
000000
,
000000
000000
000000
000000
,
100000
000000
000000
000000
,
000100
000000
100000
000000
,
000010
010000
000010
000000
,
010000
000010
010000
000000
,
000001
000000
000000
000000
,
000100
000000
000001
000000
,
010000
000010
010000
000000
,
000010
010000
000010
000000
,
100001
000000
000000
000000
,
001000
000000
000100
000000
,
100001
000000
000000
000000
,
000100
000000
001000
000000
,
000110
000000
010100
000000
,
100001
000000
000000
000000
,
001000
000000
100000
000000
,
000100
100000
000100
000000
,
010000
000010
010000
000000
,
000010
010000
000010
000000
,
001000
000000
000001
000000
,
000100
000001
000100
000000
,
000010
010000
000010
000000
,
010000
000010
010000
000000
,
100001
000000
000000
000000
,
100000
000001
100000
000000
,
100001
000000
000000
000000
,
000010
010000
000010
000000
,
101000
000000
001001
000000
,
000100
100000
000001
000100
,
000010
000000
010000
000000
,
100001
100001
100001
001000
;
