#TITLE:The Disappearance of Hatsune Miku;
#SUBTITLE:;
#ARTIST:cosMo@暴走P feat. 初音ミク;
#TITLETRANSLIT:;
#SUBTITLETRANSLIT:;
#ARTISTTRANSLIT:cosmo@BousouP feat. Hatsune Miku;
#GENRE:;
#CREDIT:;
#MUSIC:The Disappearance of Hatsune Miku.ogg;
#BANNER:;
#BACKGROUND:;
#CDTITLE:;
#SAMPLESTART:69.420;
#SAMPLELENGTH:12.000;
#SELECTABLE:YES;
#OFFSET:-1.420;
#BPMS:0.000=120.000
,8.000=240.000
,200.000=480.000
,202.000=240.000
,241.000=120.000
,245.000=240.000
,451.000=120.000
,459.000=240.000
,475.000=480.000
,539.000=960.000
,611.000=60.000
;
#STOPS:258.000=0.500;
#DISPLAYBPM:*;
#BGCHANGES:;
#FGCHANGES:;

//--------------- dance-single - ----------------
#NOTES:
     dance-single:
     :
     Beginner:
     4:
     0,0,0,0,0:
0000
0000
0000
0000
,
0000
0000
0000
0000
,
2002
0000
0000
3003
,
0220
0000
0000
0330
,
2002
0000
0000
3003
,
0001
0000
1000
0000
,
0220
0000
0000
0330
,
2002
0000
0000
3003
,
0220
0000
0000
0330
,
0100
0000
0010
0000
,
1000
0000
0010
0000
,
0001
0000
0010
0000
,
0100
0000
0110
0000
,
0010
0000
1001
0000
,
1000
0000
0010
0000
,
0001
0000
0100
0000
,
0001
0001
0001
0000
,
1000
1000
1000
0000
,
0010
0000
0110
0000
,
0100
0000
1001
0000
,
1000
1000
1000
0000
,
0001
0001
0001
0000
,
0200
0000
0310
0000
,
0110
0000
1001
0000
,
0020
0000
0130
0000
,
0001
0001
1000
1000
,
0010
0000
1000
0000
,
0001
0000
0100
0000
,
1001
0000
0110
0000
,
0110
0000
0100
0000
,
0001
0001
1000
1000
,
0000
0000
0110
0000
,
1001
0000
1001
0000
,
0100
0100
0100
0100
,
0020
0000
0000
0030
,
1000
0000
0001
0000
,
0100
0000
0000
1001
,
0000
0000
0000
1000
,
0001
0000
0000
0001
,
1000
0000
0010
0000
,
0110
0000
0100
0000
,
0110
0000
0000
0000
,
0001
1000
0001
0000
,
1000
0001
1000
0000
,
0010
0000
0010
0000
,
1000
0000
0001
0000
,
0100
0000
0000
0000
,
0001
1000
0001
0000
,
1000
0001
1000
0000
,
0010
0000
0010
0000
,
0000
0000
0110
0000
,
0000
1000
0000
1000
,
0000
0000
0000
1001
,
0000
0001
0000
0001
,
0000
0000
0100
0100
,
0000
0000
0010
0010
,
0000
2000
0000
3002
,
0000
2003
0000
3002
,
0000
0103
0000
0000
,
1001
0000
0000
0110
,
0000
1000
0001
1000
,
0001
0100
0000
0000
,
0110
0000
1000
0001
,
0000
2002
0000
0000
,
0000
0000
3003
1000
,
0000
1000
0000
1000
,
1000
1000
0000
0001
,
0000
0001
0000
0001
,
0001
0001
0000
0100
,
0000
0000
0000
0010
,
0000
0110
0000
0100
,
0000
1001
0000
1000
,
0001
1000
0001
1000
,
0000
0010
0000
1000
,
0000
0001
0000
0100
,
0000
0000
1001
0000
,
0000
0110
0000
1001
,
0000
0000
0000
0010
,
0000
0100
0000
0001
,
0000
1000
0000
0001
,
1000
0001
1000
0002
,
0000
0000
0000
2003
,
0000
0000
0000
3002
,
0000
0000
0000
2003
,
0000
0000
0000
3020
,
0000
0000
0000
0230
,
0000
0000
0000
0320
,
0000
0000
0000
0230
,
0000
0000
0000
0301
,
0000
1001
0000
1000
,
0000
1001
0000
0001
,
0000
1001
0000
1000
,
0000
1001
0000
0110
,
0000
1001
0000
0100
,
0000
1001
0000
1000
,
0000
0010
0000
0001
,
0000
0100
0000
0010
,
0010
0010
0000
0100
,
0100
0100
0000
0010
,
0010
0010
0000
0100
,
0100
0100
0000
0001
,
1000
0001
0000
1000
,
0001
1000
0000
0010
,
0000
0110
0000
1001
,
0000
1001
0000
1000
,
1000
1000
0000
0001
,
0001
0001
0000
0010
,
0100
0010
0000
0100
,
0010
0100
0000
1000
,
0000
1000
0000
1000
,
0000
0001
0000
0001
,
0000
0001
0000
1001
,
0000
1001
0000
1000
,
0001
1000
0001
0001
,
1000
0001
1000
0010
,
0100
0010
0000
0100
,
0010
0100
0000
0001
,
1000
0001
0000
1000
,
0001
1000
0000
0002
,
0000
0000
0000
0000
,
0000
0000
0000
0000
,
0000
0000
0000
0000
,
0000
0003
0000
2000
,
0000
0000
0000
0000
,
0000
0000
0000
0000
,
0000
0000
0000
0000
,
0000
3000
0000
0020
,
0000
0000
0000
0000
,
0000
0000
0000
0000
,
0000
0000
0000
0000
,
0000
0030
0000
0200
,
0000
0000
0000
0000
,
0000
0000
0000
0000
,
0000
0000
0000
0000
,
0000
0300
0000
1001
;

//--------------- dance-single - ----------------
#NOTES:
     dance-single:
     :
     Easy:
     7:
     0,0,0,0,0:
0000
0000
0000
0000
,
0000
0000
0000
0000
,
0002
1000
0000
0000
,
2003
0001
0000
0000
,
3020
0000
0000
0030
,
1001
0000
0110
0000
,
0200
0010
0000
0000
,
0320
0100
0000
0000
,
0130
0000
0010
0000
,
1001
0110
1001
0000
,
1000
0100
0010
0100
,
0010
0001
1000
0000
,
0001
0100
0010
1000
,
0001
0010
0100
0000
,
0010
0001
1000
0010
,
0100
0001
1000
0000
,
0100
0010
0001
1000
,
0010
0100
1001
0000
,
0002
0000
0000
0100
0000
0000
0103
0000
,
0010
1000
0001
0000
,
2000
0000
0000
0100
0000
0000
3100
0000
,
0000
0000
1100
0000
,
0101
0000
0000
0000
,
0010
0100
0010
0000
,
0200
0000
0020
0330
,
0110
0000
0000
0110
0000
0000
0100
0000
,
0000
0001
0010
0001
,
1000
0100
1000
0010
,
0020
0000
2030
0000
,
3002
0000
0203
0000
,
0301
0010
0001
0010
,
0000
1000
0010
1000
,
0010
0000
1001
0000
,
0100
0001
1000
0010
,
1000
0000
0000
1001
0000
0000
0000
0000
,
0000
0001
0010
1000
,
0100
0000
0000
0001
0000
0000
1001
0000
,
0000
0000
0000
0010
,
1000
0000
0001
0000
,
0100
0001
0010
0000
,
0100
0000
0000
1000
0000
0000
0010
0000
,
1001
0000
0000
0000
,
0001
0000
0000
1001
0000
0000
0000
0000
,
0000
1000
0001
0100
,
0010
0000
0000
0010
0000
0000
1000
0000
,
0001
0000
0001
1000
,
0100
0000
0010
0001
,
0100
0000
0010
1000
,
0200
0000
2300
0000
,
3002
0000
0203
0000
,
0310
0000
0110
0000
,
1000
0100
0001
0010
,
0000
0000
0001
0100
,
0001
1000
0100
1000
,
0000
0000
0010
1001
,
0000
1000
0010
0001
,
0000
2000
0000
3200
,
0000
0320
0000
0032
,
0000
0000
0103
0000
0000
1100
0000
0000
,
0101
0000
0100
0010
,
0100
0000
0000
0000
0001
0000
0000
0001
0000
0000
0001
0000
1000
0000
0000
1000
,
0000
1000
0100
0000
0000
0000
0011
0000
,
0000
1010
0000
0100
,
0000
0000
0020
0000
0000
0100
0000
0000
,
0200
0030
0000
0310
,
0000
0001
0000
0000
1000
0000
0100
0000
,
0010
0100
0010
0001
,
0100
1000
0110
0000
,
1000
0100
0001
1001
,
0000
0000
1000
0100
1000
0000
0010
0000
,
0000
0110
0000
0000
0100
0000
0001
0100
,
0001
1000
0100
0010
,
0001
0100
1001
0100
,
0000
0100
0000
0000
0100
0000
0010
0000
,
1000
0001
0100
1001
,
0000
0010
0000
0000
1001
0000
0000
0000
,
0100
0100
0100
0110
,
0000
1000
0100
1000
,
0001
0010
0001
0100
,
0100
0100
0100
0010
,
0110
0100
0010
2000
,
0100
0100
3100
0002
,
0100
0100
0103
2000
,
0100
0100
3100
0002
,
0100
0100
0103
2000
,
0010
0010
3010
0002
,
0010
0010
0013
2000
,
0010
0010
3010
0002
,
0010
0010
0013
1000
,
0100
0001
0100
1000
,
0100
0001
0000
1000
,
0100
0001
0100
1000
,
0100
0001
0000
0010
,
0001
1000
0010
0100
,
0001
1000
0100
0110
,
0000
0011
0000
1010
,
0000
1001
0000
1000
,
0100
1000
0100
0001
,
0100
0001
0100
1000
,
0010
1000
0010
0001
,
0010
0001
0010
0110
,
0000
0011
0000
0110
,
0000
1100
0000
1010
,
0000
0101
0000
1000
,
0100
0001
0000
0010
,
0010
0001
0001
1000
,
1000
0100
0100
0010
,
0001
1000
0010
0100
,
0010
0100
0001
1001
,
1000
0010
0000
0110
,
1000
0100
0000
0110
,
0010
0001
0000
0001
,
0001
0000
1000
0000
1000
0000
0001
0100
,
0001
0000
1000
0100
1000
0000
0001
0010
,
0001
0000
1000
0010
1000
0000
0001
0000
,
0000
0101
0000
1100
,
0000
1000
0000
0010
,
0000
1010
0000
0011
,
0000
0010
0000
0200
,
0000
0000
0000
0000
,
0000
0000
0000
0020
,
0000
0000
0000
0330
,
0000
0000
0000
0002
,
0000
0000
0000
0000
,
0000
0000
0000
2000
,
0000
0000
0000
3003
,
0000
0000
0000
2000
,
0000
0000
0000
0000
,
0000
0000
0000
0002
,
0000
0000
0000
3003
,
0000
0000
0000
0020
,
0000
0000
0000
0000
,
0000
0000
0000
0200
,
0000
0000
0000
0330
,
0000
0000
0000
2002
,
0000
0000
0000
0000
,
0000
0000
0000
0000
,
0000
0000
0000
0000
,
0000
0000
0000
0000
,
0000
0000
0000
0000
,
0000
0000
0000
0000
,
0000
0000
0000
0000
,
0000
0000
0000
0000
,
0000
0000
0000
0000
,
0000
0000
0000
0000
,
0000
0000
0000
0000
,
0000
0000
0000
0000
,
0000
0000
0000
0000
,
0000
0000
0000
0000
,
0000
0000
0000
0000
,
0000
0000
0000
0000
,
0000
0000
0000
0000
,
0000
0000
0000
3003
;

//--------------- dance-single - 2026 chart - based on FUNNY MIX 2 Expert ----------------
#NOTES:
     dance-single:
     2026 chart - based on FUNNY MIX 2 Expert:
     Medium:
     9:
     0,0,0,0,0:
0000
0000
0000
0000
,
0000
0000
0000
0000
,
0000
0000
0000
0000
,
0000
0000
0000
0000
,
0000
0000
0000
0000
,
0000
0000
0000
0000
,
0001
0010
0001
1001
,
1000
0000
0100
0000
0010
0000
0100
0010
,
0100
0000
0010
0001
1000
0000
0001
0000
,
1000
0100
0010
0011
,
0001
0000
0100
0000
0001
0010
0001
0000
,
1000
0000
0100
0000
1000
0010
0100
0000
,
0010
0100
0001
0011
,
1010
0100
0010
1010
,
1000
0000
0100
0000
1000
0010
1000
0000
,
0001
0000
0100
0000
0001
0010
0001
0000
,
0010
0100
0010
0001
,
1000
0010
0100
0001
1000
0000
0100
0000
,
0010
0000
0000
0101
0000
0000
1100
0000
,
1000
0000
0010
0000
0100
0001
0010
0001
,
1000
0000
0000
0100
0000
1000
0010
0000
,
0001
0100
1000
0000
0001
0100
0001
1000
,
0100
0000
1000
0010
0000
0010
1000
0000
,
0001
0010
0100
0010
,
0011
0001
1010
1000
,
0100
1000
0001
0010
0000
0000
0100
0000
,
0010
0001
1000
0000
0100
0000
1000
0000
,
1000
0000
0001
0010
0001
0000
0100
0000
,
0010
0010
1000
1000
,
0001
0010
0001
0000
0100
0000
0000
0000
,
0010
1100
0001
0101
,
1000
0000
0001
0010
0100
0000
0010
0000
,
0001
1000
0100
0000
1000
0000
0001
0000
,
0010
0001
0000
1000
0000
0100
0010
0000
,
0011
0000
0000
0011
0000
0000
0011
0000
,
0000
0000
0001
0100
0001
0000
1000
0000
,
1010
0000
0000
1010
0000
0000
1010
0000
,
0000
0000
0100
0000
0001
1000
0100
0000
,
0010
0000
0100
0010
0001
0000
1000
0001
,
1000
0100
0010
0001
,
1001
0000
0000
0110
0000
0000
1000
0000
,
0001
0000
0010
0000
0001
0010
0001
1000
,
0100
0000
0000
1100
0000
0000
1000
0000
,
0001
0100
0101
0010
,
0001
0000
0100
0001
0000
1000
0100
0000
,
0010
0000
0100
1000
0010
0000
1000
0000
,
0001
0010
0000
0000
0001
0000
1000
0000
,
1100
0010
0101
0000
,
0001
0010
1000
0010
,
0001
0100
1000
0100
,
0000
0000
1001
0010
,
0000
0010
0001
0000
1000
0000
0100
1000
,
0001
0000
0110
0100
,
0010
1000
0000
0010
0000
0100
0000
0001
,
0100
0001
0010
0001
,
1000
1000
0010
1000
,
0001
0101
0000
1100
,
0000
0110
0010
0001
,
1000
0000
0100
0000
0000
1000
0000
0100
,
0010
0000
0100
0000
0000
0001
0000
0100
,
0010
0000
0000
0000
0001
0000
0000
1000
0000
0000
1001
0000
0000
0000
0100
0000
,
0100
0100
0001
0010
0100
0010
0000
0100
,
0000
1000
0000
0001
1000
0000
0010
0000
,
0100
0000
0011
0000
0000
1010
0000
0000
,
1001
1000
0001
0010
,
0001
0010
0000
0100
0010
0001
1000
0000
,
0100
1000
0001
0000
0100
0000
0110
0000
,
0000
0110
0000
0000
0110
0000
0100
0000
,
0001
1000
0100
0000
1100
0000
0101
0000
,
0000
0000
1000
0001
0010
0000
0001
0000
,
0000
0010
0001
0010
0100
0010
0001
0000
,
1000
0000
0100
0000
1000
0010
0100
0000
,
0101
1100
0010
1000
,
0010
0000
0100
0010
0100
0000
0001
0010
,
0001
1000
0100
0000
1000
0000
0010
0000
,
0010
1000
0000
1000
0001
0000
0001
0000
,
0110
1000
0100
0110
,
0000
0000
1000
0000
0001
0010
0001
0000
,
0001
1000
0000
1000
0100
0000
0100
0000
,
0010
0001
1000
0000
0100
0000
1000
0010
,
0100
0001
0010
0000
0010
0000
0011
0000
,
0001
0010
0001
0100
0010
0000
1010
0000
,
0100
0010
1000
0100
0010
0000
0110
0000
,
0010
0001
0100
0010
1000
0000
1001
0000
,
1000
0000
1100
0000
0101
0000
0010
0001
,
0100
0010
1000
0100
1000
0000
0001
1000
,
0100
0010
0100
1000
0010
0000
0110
0000
,
0101
0000
0110
0000
1100
0000
1000
0010
,
1000
0010
0001
0010
0001
0010
0100
0000
,
0001
0010
0001
0100
0010
0000
0010
0000
,
1000
0010
1000
0100
0010
0000
1000
0100
,
0010
0000
1000
0010
0001
0000
0001
0100
,
0010
0000
0001
0010
1000
0000
0100
0000
,
0010
0001
0010
0100
1000
0000
0010
0000
,
1000
0001
0100
0010
1000
0000
1010
0000
,
0010
0000
0101
0000
0100
0000
0010
1000
,
0001
0010
0100
0000
0010
0000
0011
0000
,
0011
1001
1001
0011
,
0011
1001
1001
1010
,
1010
1001
1001
1010
,
1010
1001
1001
0101
,
0101
1001
1001
0101
,
0101
1001
1001
1100
,
1100
1001
1001
1100
,
1100
1001
1001
0011
,
1001
0011
1001
1010
,
1001
1010
1001
0101
,
1001
0101
1001
1100
,
1001
1100
1001
0011
,
0011
1010
1010
0101
,
0101
1100
1100
0011
,
1010
0101
1100
0110
,
0110
0000
0000
0000
1001
0000
0000
0000
0000
0000
0000
0000
0010
0001
0010
0001
,
1000
0010
0100
0000
0010
1000
0100
1000
0001
0000
0100
0000
0010
1000
0100
0010
,
0100
1000
0001
0000
0100
0001
1000
0010
0100
0000
0001
0000
1000
0000
0010
0000
,
0100
0000
0100
0010
1000
0000
0001
0000
,
1000
0000
0010
0000
0001
0000
0010
0100
,
0001
0000
1000
0100
0010
0000
0100
0000
,
0100
0000
0010
0001
1000
0000
0001
0000
,
0100
0001
0100
0010
,
1000
0010
1000
0001
,
0100
0001
0100
0010
,
1000
0010
0000
1000
,
0100
1000
0100
0010
,
0001
0010
0001
1000
,
0100
1000
0100
0010
,
0001
0010
0000
1000
,
0100
0010
0001
0100
,
0010
1000
0100
0010
,
0001
0100
0010
0100
,
0010
0100
0000
0001
,
0100
0010
1000
0100
,
0010
0001
0100
0010
,
1000
0100
0010
0100
,
0010
0100
0000
1001
;

//--------------- dance-single - ----------------
#NOTES:
     dance-single:
     :
     Hard:
     10:
     0,0,0,0,0:
0000
0000
0000
0000
,
0000
0000
0000
0000
,
1002
0010
1000
0013
,
2001
0100
0001
3100
,
1020
0001
1000
0031
,
0201
1000
0001
1300
,
0001
0010
0001
0000
0010
0100
1000
0000
,
0010
1000
0001
0000
0100
0010
1000
0000
,
0001
0100
0001
0000
1000
0100
1000
0000
,
0010
1000
0100
1000
0001
0100
0010
1000
,
0001
0000
1100
0000
0010
1000
0001
0000
,
0100
0000
0101
0000
1000
0001
0010
0000
,
0100
0010
0001
0000
1000
0001
1000
0000
,
0010
0100
0001
0010
0001
1000
0100
0010
,
0100
0000
1100
0000
1000
0010
0101
0000
,
0001
0000
1000
0000
0001
0010
1100
0000
,
0101
0000
0010
0100
0001
0010
0001
1000
,
0010
0100
0001
0010
0100
2000
0010
0000
,
3001
0000
0001
0020
0001
0000
0031
0100
,
0010
0000
2100
0000
0001
0000
3010
0100
,
0001
1000
0001
0020
0000
0031
0100
0001
,
1000
1100
0110
0011
,
1001
0000
0010
0002
0000
0000
0103
0000
,
0010
1000
0001
0200
0000
0000
0310
0000
,
2010
0100
3002
0010
,
0013
0100
0010
0001
0000
1000
0010
0100
,
0001
0000
1001
0000
1100
0000
0010
0100
,
1000
0010
0100
0001
0010
0000
0011
0000
,
1000
0020
0100
0000
0200
0030
1000
0000
,
0301
2000
0010
0000
0010
0000
0100
3000
,
1100
1000
0001
0000
0010
0001
0200
0000
,
0001
0000
0310
1000
0010
0001
0010
0200
,
0001
1000
0320
0100
,
1030
0100
0010
0002
1000
0000
0103
0000
,
1010
0000
0100
0002
0000
0000
0010
0000
,
1000
0023
0100
0130
,
1000
0000
0010
0100
0000
0001
2000
0000
,
0100
0000
3010
0000
0100
0001
0010
0100
,
0020
0031
0010
0000
0001
1000
0100
0010
,
0100
1000
0020
0000
0100
0000
2030
0000
,
3100
0000
0010
0002
0000
0103
0020
0000
,
1030
1010
0101
1001
,
0010
0000
0100
0002
0010
0000
1000
0000
,
0023
0000
0100
0000
0130
1000
0010
0000
,
1010
0000
0100
0001
0000
0001
0010
0000
,
0011
0000
0110
0000
1000
0010
0001
0000
,
2000
0100
0001
3002
,
0013
0100
0010
0001
1000
0000
0010
0000
,
0100
0001
2000
0000
3010
0100
0002
0000
,
0013
0100
0020
0000
0031
1000
0200
0000
,
1300
0001
1001
1000
,
0001
0010
0000
0001
0010
0100
0010
0002
,
1000
0000
0103
0010
1000
0100
0010
0000
,
0110
0010
0000
0001
1000
0010
0000
0101
,
0000
1100
0000
1000
0010
0000
0001
0010
,
0100
1000
0000
0001
0010
0000
1000
0100
,
0010
0001
0200
0000
0001
0000
0320
0000
,
0100
2030
0010
3002
,
1000
0000
0103
0000
0010
1000
0000
0100
,
0010
0000
0001
0010
0100
0010
0001
1000
,
0010
0000
0100
0000
0001
0010
0001
0010
0100
1000
0010
0000
1000
0010
1000
0010
,
0100
0001
0010
0000
0110
0000
0000
0000
1000
0000
0010
0000
0000
0000
0101
0000
,
0000
1100
0000
0010
0001
1000
0100
0010
,
0001
1000
0001
0010
0100
1000
0440
0000
,
0000
0000
0330
0001
,
0010
0001
0000
1000
0100
0010
1000
0000
,
0010
0011
1010
0100
,
0001
1000
0000
0100
0010
0000
0002
0000
,
0100
0000
0013
0200
1000
0000
0320
0000
,
0130
0000
0100
1000
0010
0100
0001
0000
,
0010
1000
0010
0000
1010
0000
0101
0000
,
0001
1000
0100
0010
0000
0010
0001
1000
,
0010
0000
0100
0010
1000
0000
0101
0000
,
0001
1000
0000
0001
0010
0100
0001
0100
,
1000
0000
0010
0100
0001
0000
1010
0000
,
1000
0010
0000
0100
0001
0010
0011
0000
,
0110
1100
1001
0101
,
1000
0010
0100
0000
0001
0010
0002
0000
,
1003
0020
0000
0000
2030
0000
3100
0010
,
0001
1000
0010
0100
0001
0010
0000
0000
,
1010
0100
0001
0010
0011
0000
1000
0010
,
0100
0001
1000
0010
0100
0001
0001
0010
,
0100
1000
0001
0010
0100
1000
0010
1000
,
0100
0001
1000
0010
0001
0100
0010
1000
,
0001
0100
0010
1000
0001
0000
0010
0100
,
0010
0001
0010
0100
1000
0001
0100
0010
,
0100
0001
0010
0100
1000
0010
1000
0100
,
0010
0001
1000
0010
0100
0001
1000
0100
,
0001
1000
0010
0001
0100
0010
0011
0000
,
1001
0101
0110
1010
,
1001
1100
0110
0011
,
1010
0000
1100
0000
0101
0000
1000
0010
,
0100
0001
0020
0000
0100
0000
0031
0000
,
0011
0101
1001
1000
,
1100
0000
1010
0000
1001
0000
0010
2000
,
0100
0000
3002
0000
0010
0003
0101
0000
,
1010
0000
0220
0000
0330
0000
0001
0010
,
0001
1000
0010
0100
1000
0100
0001
1000
,
0100
0010
0001
1000
0001
0100
0010
1000
,
0100
0010
1000
0010
0100
1000
0010
0100
,
0001
0100
0010
1000
0100
0010
1000
0010
,
0001
0100
0010
1000
0100
0010
1000
0010
,
0100
1000
0010
0100
0001
0000
0101
0000
,
1010
1000
1001
0110
,
0001
0010
1000
0010
0100
0000
1000
0010
,
0100
0001
0010
0100
0001
0100
1000
0001
,
0100
0010
1000
0100
0001
0100
0010
0000
,
0001
1000
0010
1000
0100
0010
0001
0010
,
1000
0010
0100
0000
0110
0000
1001
0000
,
1000
0010
0100
0001
0010
0100
1000
0010
,
0100
0001
1000
0100
0001
0100
0010
0001
,
1000
0010
0100
0001
1000
0100
0010
0000
,
0011
0000
0000
0000
1010
0000
0000
0000
1001
0000
0000
0000
1000
0010
0100
0000
,
0001
1000
0100
0000
0010
0001
1000
0100
0001
0100
1000
0000
0001
0010
0001
0000
,
1000
0100
1000
0000
0010
0100
0001
1000
0100
0010
0100
0000
0001
0000
0100
0000
,
0001
1000
0100
0010
0100
0000
1000
0100
,
1000
0001
0100
0010
0100
0000
0010
1000
,
0100
0010
0001
0100
1000
0000
0100
0010
,
1000
0100
0010
0000
0001
0000
0001
0000
,
1000
0001
1000
0001
,
1000
0010
0100
0001
,
1000
0001
1000
0010
,
0100
0001
0010
0100
,
1000
0010
0100
0001
,
1000
0100
0010
0001
,
1000
0001
0100
0001
,
1000
0100
0001
0100
,
1000
0010
0100
0001
,
1000
0100
0010
0100
,
1000
0001
0100
0010
,
1000
0010
0100
0001
,
0010
0100
1000
0010
,
0100
0001
1000
0001
,
0010
0001
1000
0100
,
0010
0100
1000
0020
,
0000
0000
0000
0000
,
0000
0000
0000
0000
,
0000
0000
0000
0000
,
0000
0000
0000
0000
,
0000
0000
0000
0000
,
0000
0000
0000
0000
,
0000
0000
0000
0000
,
0000
0000
0000
0000
,
0000
0000
0000
0000
,
0000
0000
0000
0000
,
0000
0000
0000
0000
,
0000
0000
0000
0000
,
0000
0000
0000
0000
,
0000
0000
0000
0000
,
0000
0000
0000
0000
,
0000
0000
0000
0000
,
0000
0000
0000
0000
,
0000
0000
0000
0200
,
0000
0000
0000
0000
,
0000
0330
0000
0000
;

//--------------- dance-single - CHALLENGE - Difficulty 19 ----------------
#NOTES:
     dance-single:
     CHALLENGE - Difficulty 19:
     Challenge:
     15:
     0,0,0,0,0:
0000
0000
0000
0000
,
0000
0000
0000
0000
,
1000
0010
0100
0001
1000
0001
0010
0001
0010
0100
0010
0100
,
1000
0001
0100
0001
1000
0100
0010
0001
0100
0010
1000
0100
,
1000
0010
0100
0001
0010
0100
0010
0100
0010
0100
0010
0100
,
1000
0010
1000
0001
0010
0001
1000
0100
1000
0001
0100
0001
,
0010
0100
1000
0100
0010
0001
0100
0010
1000
0010
0100
0001
,
1000
0100
0010
0001
0010
0100
0010
0001
1000
0010
1000
0001
,
0100
0010
0001
0010
1000
0100
0010
0001
1000
0100
0010
0001
,
1000
0001
0010
0001
1000
0100
0010
0100
1000
0010
0100
0001
,
1000
0000
0010
0000
0100
0000
0001
0000
1000
0000
0001
0000
0010
0000
0100
0010
,
0001
0000
1000
0000
0001
0000
0100
0010
1000
0000
0001
0000
0100
0001
1000
0100
,
0010
0001
0010
1000
0010
0100
1000
0010
,
0100
0001
1000
0010
0100
0000
0001
0000
1000
0001
0010
0100
0010
0001
1000
0010
,
0100
0000
0010
0000
1000
0000
0010
0000
0100
0000
0001
0000
1000
0000
0100
0010
,
0001
0000
0010
0000
0001
1000
0010
0000
0100
0000
0010
0000
1000
0001
0010
0100
,
1000
0000
0100
0000
1000
0000
0001
0000
0100
0010
1000
0000
0010
0000
0100
0000
,
0010
1000
0100
0010
0100
0000
0010
0000
0001
0010
0100
0010
0001
1000
0010
0100
,
0001
0100
0010
2010
0000
3100
0010
0001
,
1000
0000
0010
0000
0110
0000
0100
0000
0001
0000
1000
0000
0100
0010
0001
0000
,
0011
0000
0010
0000
0001
0000
1200
0000
0000
0000
1300
0010
0100
0000
0001
0000
,
1000
0000
0001
0010
0001
0000
1000
0100
0010
0000
0100
1000
0010
0000
0100
0000
,
1002
0000
0000
0000
0103
0000
0001
0000
0010
0000
0001
0010
0100
0000
0010
0000
,
2100
0000
0000
0000
3010
0100
0002
0000
0000
0000
0013
0001
0100
0000
0010
0000
,
1000
0000
0010
0000
0011
0000
0100
0000
0001
1000
0100
1000
0010
0000
0100
0000
,
0101
0000
0001
0000
1000
0000
1010
0000
0000
0000
0010
0100
0010
0000
1000
0000
,
0100
0010
0011
0001
2000
0010
3020
0100
,
0230
0001
0302
0010
1003
0100
0010
0001
,
1001
1000
0010
0100
0110
0001
1000
0100
,
1100
0000
0010
0000
0001
0000
0100
0000
0101
0000
1000
0010
0100
0000
0001
1000
,
0100
0100
1000
0001
0010
0001
0201
0000
,
0010
0000
0010
0000
0310
0000
1000
0010
0100
0000
0001
1000
0001
0000
0010
0000
,
0001
0000
0010
0001
0010
0100
1000
0000
0010
0000
1000
0010
0100
0001
1000
0000
,
0010
0000
0101
0000
0010
0000
1100
0000
0000
0000
0010
0001
0010
0000
0100
0000
,
1100
0000
1000
0001
0010
0000
1002
0000
0000
0000
0010
0000
0013
0000
0100
0000
,
0010
0000
0100
1000
0010
0000
0100
0000
0001
0000
0010
0000
0011
0000
0000
0000
,
1100
0000
1000
0000
0010
0000
0100
0000
0001
0000
1000
0001
0020
0000
0000
0000
,
0001
0000
0000
0000
0100
0000
0100
0000
0130
0000
1000
0000
0010
0000
0100
0001
,
1000
0000
2000
0000
0010
0000
0000
0000
3001
0000
0010
0001
0100
0000
0010
0000
,
1010
1000
0001
0010
0011
0010
0100
1000
,
1100
1000
0001
0101
0100
0010
1000
0100
,
0110
0000
0000
0000
0000
0000
0010
0000
0001
0000
1000
0010
0100
0000
0100
0000
,
0010
0000
1000
0000
1010
0000
0200
0000
0000
0000
0301
0010
0001
0000
0010
0000
,
0001
0000
1000
0000
0010
0100
1000
0000
0100
0001
1000
0000
0001
0000
0010
0000
,
0011
0000
0010
0000
0001
0000
1000
0010
1000
0000
0010
0000
0100
0000
0001
0000
,
0101
0000
0000
0000
0001
1000
0100
0000
0010
0000
0001
0000
0011
0000
0010
0000
,
0110
0000
0000
0000
0100
0000
1000
0000
0010
0000
0100
0001
1000
0000
0010
0000
,
0100
0000
0001
0000
0010
0000
0001
0010
0100
0000
0100
0000
1000
0000
0001
1000
,
0010
0000
1000
0000
0010
0000
0101
0000
0000
0000
0001
1000
0100
0000
0010
0000
,
0100
0000
0010
0001
1000
0000
0010
0100
0010
0000
1000
0000
0101
0000
0000
0000
,
0001
1000
0100
0010
0100
0010
0110
0000
,
0010
0000
0001
0000
1000
0000
0010
0000
0100
0001
1000
0000
0000
0000
1000
0010
,
1000
0000
0100
0010
0100
0000
0000
0000
0110
0000
0010
0000
0001
0000
1000
0000
,
0010
0100
0001
0000
1100
0000
1000
0000
0010
0100
0001
0000
1000
0000
0110
0000
,
0000
0000
0001
0010
0001
0000
0010
0000
0110
0000
0000
0000
0011
0000
1000
0010
,
0100
0000
0010
0000
1000
0000
0001
0010
0001
0100
0010
0100
1000
0000
0100
0000
,
0001
0000
0100
0000
0010
0001
1000
0010
0200
0000
0000
0000
0301
1000
0100
0010
,
0002
0000
0000
0000
1003
0010
0100
0001
2000
0000
0000
0000
3100
1000
0001
0100
,
0020
0000
0000
0000
0130
0000
1000
0000
0010
0000
0100
0000
0100
0000
0001
0010
,
0001
0000
0100
0000
0010
0000
1000
0000
1100
0000
0000
0000
0010
0000
0001
1000
,
0001
0000
0010
0000
0100
0010
0001
1000
0010
0100
1000
0100
0001
1000
0100
0010
,
0001
0000
0010
0000
0100
1000
0010
0100
0001
0000
0000
0000
0000
0000
0000
0000
1100
0000
0000
0000
1000
0000
0000
0000
0100
0000
0000
0000
0010
0000
0000
0000
,
0001
0000
1000
0000
0001
0100
0010
0000
1000
0000
0010
0100
0010
0000
1000
0000
,
0002
0000
0023
0000
0032
0000
2003
0000
3020
0000
0230
0000
0301
0100
0001
0100
,
0001
0100
0001
0100
0001
0100
0001
0100
0020
0000
0000
0000
1030
0000
0100
0000
,
1000
0000
1001
0000
0000
0000
0001
0100
0010
0000
0100
0000
0010
0000
1000
0100
,
0010
0000
0001
1000
0001
0000
0100
0010
1000
0000
0010
0000
0100
0000
0001
0000
,
0010
0001
0010
0100
0010
0000
0100
0000
1000
0010
0100
0001
1000
0000
0010
0000
,
1010
0100
0001
0010
0011
0010
0110
0000
,
0100
1000
0001
0100
0010
0000
0100
0010
1000
0000
0100
0000
1100
0000
0010
0000
,
0001
0000
0101
0000
0000
0000
0001
0010
0100
0000
0010
0000
0100
0000
1000
0001
,
1000
0000
0010
0100
0001
0000
0010
0000
0100
1000
0001
0000
0000
0000
1000
0010
,
0100
0001
0101
0010
0110
0000
1100
0010
,
0001
0000
0100
0000
0001
0000
1000
0010
0100
0000
0010
0000
0100
0000
0001
1000
,
0100
0000
0010
0100
1000
0000
0010
0000
0100
0000
0001
0000
0101
0000
0001
0000
,
1000
0010
0100
0001
0010
0000
0100
1000
0010
0000
0100
0001
1000
0000
0001
0000
,
0011
0010
0110
0100
1100
1000
1001
0000
,
0100
0010
1000
0010
0100
0000
0001
0000
0010
0100
0010
0001
0100
0000
0010
0000
,
1000
0000
1010
0000
0000
0000
0100
0001
1000
0000
0010
0000
0100
0001
0010
0100
,
0010
0100
1000
0010
0100
0000
0001
0000
0010
0001
0100
0010
1000
0000
0100
0000
,
0010
0000
0000
0001
0000
0000
1000
0000
0000
0000
0000
0000
0010
0000
0000
0100
0000
0000
0010
0000
0000
1000
0000
0000
0100
0000
0000
0010
0000
0000
0100
0000
0000
0010
0000
0000
0001
0000
0000
0000
0010
0000
0000
0000
0001
0000
0000
0000
,
1000
0010
1000
0100
0010
0001
0100
0010
1000
0010
0100
0010
,
1000
0001
1000
0001
1000
0001
0100
0010
0100
0001
0010
0100
,
1000
0010
0100
0010
1000
0001
0100
0001
1000
0010
1000
0100
,
0010
0001
0100
0001
1000
0100
1000
0001
0100
0010
1000
0001
,
0010
0001
1000
0100
0010
0100
1000
0001
1000
0010
0100
0010
,
1000
0001
0100
0010
0100
0010
1000
0001
0100
0001
0010
0001
,
1000
0100
0010
0001
0010
0001
0100
0010
0100
0010
1000
0100
,
1000
0001
0100
0010
1000
0100
1000
0001
0100
0010
1000
0001
,
0010
0001
1000
0100
1000
0001
0100
0001
0010
0001
0010
0100
,
1000
0010
0100
0010
1000
0001
0100
0010
1000
0010
0100
0001
,
0010
0001
0010
0100
1000
0010
1000
0010
0100
0010
1000
0100
,
0010
0001
0100
0001
1000
0100
1000
0010
0100
0010
1000
0010
,
0100
0001
0100
0001
0010
0001
1000
0100
1000
0010
1000
0100
,
0010
0001
0100
0001
0010
0100
0010
0100
1000
0100
1000
0001
,
0100
0010
0100
0001
1000
0100
0010
0100
1000
0001
0100
1000
,
0100
0000
0001
0000
1000
0000
0100
0000
0010
0000
0001
0000
0010
0000
0000
0000
0000
0000
0011
0000
0000
0001
0000
0000
,
0101
0000
1100
0010
0101
0000
1010
1000
,
1001
0000
0101
0001
0110
0000
1100
0010
,
0001
1000
0101
0001
1000
0100
0011
0001
,
1000
0000
0010
0000
1010
0000
0100
0000
0001
1000
0001
0010
0100
0000
0010
0000
,
0001
0100
0110
1000
0100
0010
1001
0001
,
0010
0000
0100
0000
0010
0100
1000
0001
0100
0010
1000
0001
0100
0000
0010
0000
,
1000
0000
0100
0000
0011
0000
0010
0000
0001
0000
1000
0000
0010
0100
0010
1000
,
0100
0010
0100
1000
0001
0100
0010
1000
0001
0100
0001
0010
0100
0000
1000
0000
,
1100
0010
0101
0001
1001
1000
1010
0001
,
0011
0000
0100
0000
0110
0000
0010
0000
1001
0000
1000
0000
0010
0000
0100
0001
,
1000
0000
0010
0100
0010
0000
1000
0100
0010
0000
0001
0010
0100
0000
1000
0001
,
0100
0000
0000
0000
0000
0000
0001
0000
0000
0010
0000
0000
0100
0000
0000
0000
0000
0000
1000
0000
0000
0001
0000
0000
0010
0000
0000
0000
0000
0000
0001
0000
0000
0100
0000
0000
0010
0000
0000
0000
1000
0000
0000
0000
0010
0000
0000
0000
,
0100
0001
0100
0001
1000
0100
1001
0000
0000
0010
0001
0010
,
0100
1000
0100
1000
0001
0100
1001
0000
0000
0010
1000
0010
,
0100
0010
0100
0001
0010
0001
0010
0100
0010
0001
0010
0100
,
1000
0000
0000
0000
0010
0000
0000
0000
0100
0000
0000
0000
0001
0000
0000
0000
0010
0000
0000
0000
0100
0000
0000
0000
0110
0000
0000
0000
0000
0000
0000
0000
0000
0000
0000
0000
0001
0000
0000
1000
0000
0000
0001
0000
0000
1000
0000
0000
,
0100
0010
0100
1000
0010
0100
0001
1000
0100
0001
0100
1000
0010
0100
0001
0010
,
0100
1000
0001
0010
0001
1000
0010
0100
0010
1000
0010
0100
0001
0000
0010
0000
,
0100
0000
0010
0000
0001
0000
1000
0000
0010
0000
0100
0010
1000
0000
0100
0000
,
1000
0000
0001
0000
0010
0000
0100
0000
0010
0000
0001
0010
0100
0000
1000
0000
,
0010
0000
0100
0010
1000
0000
0100
0000
0010
0000
0001
1000
0010
0000
0100
0000
,
0001
0000
1000
0010
0100
0000
0010
1000
0100
0000
0010
0000
0001
0000
0100
0000
,
0001
0100
0001
0100
0001
0100
0010
1000
,
0010
1000
0010
1000
0010
1000
0100
1000
,
0100
1000
0100
1000
0100
1000
0001
0010
,
0001
0010
0001
0010
0001
0010
0100
1000
,
0100
1000
0010
0100
0010
0100
0001
0010
,
0001
0010
0001
1000
0001
1000
0010
0100
,
0001
1000
0100
0010
0001
1000
0001
0100
,
0010
1000
0100
0010
0001
0000
0001
1000
,
0001
0010
0100
0010
0100
1000
0010
0100
,
0001
1000
0100
0001
0100
1000
0010
0100
,
0001
1000
0010
0100
0001
0010
0100
0010
,
0001
1000
0010
0100
0001
1000
0001
1000
,
0010
0100
0001
0010
0100
0010
0001
1000
,
0010
0100
1000
0100
0001
1000
0010
0100
,
0001
1000
0100
0010
0100
1000
0001
0100
,
0001
1000
0010
0100
0001
0000
2002
0000
,
0000
0000
0000
0000
,
0000
0000
0000
0000
,
0000
0000
0000
0000
,
0000
0000
0000
0000
,
0000
0000
0000
0000
,
0000
0000
0000
0000
,
0000
0000
0000
0000
,
0000
0000
0000
0000
,
0000
0000
0000
0000
,
0000
0000
0000
0000
,
0000
0000
0000
0000
,
0000
0000
0000
0000
,
0000
0000
0000
0000
,
0000
0000
0000
0000
,
0000
0000
0000
0000
,
0000
0000
0000
0000
,
0000
0000
0000
0000
,
0000
0000
3003
0200
,
0000
0000
0000
0000
,
0000
0300
0000
0000
;
