#TITLE:THE DISAPPEARANCE OF HATSUNE MIKU;
#SUBTITLE:(FUNNY MIX 2 CHART);
#ARTIST:HATSUNE MIKU;
#TITLETRANSLIT:;
#SUBTITLETRANSLIT:;
#ARTISTTRANSLIT:;
#GENRE:;
#CREDIT:8Chasey 2024/Funny Mix 2;
#MUSIC:THE DISAPPEARANCE OF HATSUNE MIKU.mp3;
#BANNER:;
#BACKGROUND:;
#CDTITLE:;
#SAMPLESTART:64.000;
#SAMPLELENGTH:12.000;
#SELECTABLE:YES;
#OFFSET:-0.040;
#BPMS:0.000=240.000;
#STOPS:;
#BGCHANGES:;
#FGCHANGES:;

//--------------- dance-single - ----------------
#NOTES:
     dance-single:
     :
     Beginner:
     2:
     0,0,0,0,0:
0000
0000
0000
0000
,
0000
0000
0000
0000
,
0000
0000
0000
0000
,
0000
0000
0000
0000
,
0000
0000
0000
0000
,
0000
0000
0000
0000
,
0000
0000
0000
0000
,
0000
0000
0000
0000
,
0001
0000
0000
0000
,
0010
0000
0000
0000
,
0001
0000
0001
0000
,
0001
0000
0000
0000
,
1000
0000
0000
0000
,
0100
0000
0000
0000
,
1000
0000
1000
0000
,
1000
0000
0000
0000
,
1001
0000
0000
0000
,
0000
0000
0000
0000
,
0001
0000
0000
0000
,
1000
0000
0000
0000
,
0010
0000
0000
0000
,
0010
0000
0000
0000
,
1000
0000
0000
0000
,
0001
0000
0000
0000
,
0110
0000
0000
0000
,
0000
0000
0000
0000
,
0100
0000
0000
0000
,
0100
0000
0100
0000
,
0100
0000
0000
0000
,
0010
0000
0010
0000
,
0010
0000
0000
0000
,
0001
0000
0000
0000
,
1000
0000
0000
0000
,
0000
0000
0001
0000
,
0001
0000
0000
0000
,
0001
0000
0000
0000
,
1000
0000
0000
0000
,
0000
0000
1000
0000
,
1000
0000
0000
0000
,
1000
0000
0000
0000
,
1001
0000
0000
0000
,
0010
0000
0000
0000
,
1000
0000
0000
0000
,
0001
0000
0000
0000
,
0100
0000
0100
0000
,
0100
0000
0000
0000
,
0100
0000
0000
0000
,
1001
0000
0000
0000
,
0001
0001
0000
0000
,
1000
0000
0001
0000
,
1000
1000
0000
0000
,
0001
0000
1000
0000
,
0010
0000
0000
0000
,
0100
0000
0000
0000
,
0010
0000
0010
0000
,
0100
0000
0100
0000
,
0001
0000
0000
0000
,
1000
0000
0000
0000
,
1001
0000
0001
0000
,
1001
0000
1000
0000
,
0110
0000
0000
0000
,
0100
0000
0000
0000
,
0010
0010
0010
0010
,
0000
0000
0000
0000
,
0001
0000
0000
0000
,
0010
0000
0000
0000
,
0001
0000
0001
0000
,
0001
0000
0000
0000
,
1000
0000
0000
0000
,
0100
0000
0000
0000
,
1000
0000
1000
0000
,
1000
0000
0000
0000
,
0010
0000
0000
0000
,
1000
0000
0000
0000
,
0010
0000
0000
0000
,
0001
0000
0000
0000
,
0100
0000
0001
0000
,
1000
0000
0000
0000
,
0100
0000
1000
0000
,
0001
0000
0000
0000
,
1000
1000
1000
0000
,
1000
0000
0000
0000
,
0100
0100
0100
0000
,
0100
0000
0000
0000
,
0001
0001
0001
0000
,
0001
0000
0000
0000
,
0010
0010
0010
0000
,
0010
0000
0000
0000
,
1001
0000
0000
0000
,
0001
0000
0000
0000
,
0110
0000
0000
0000
,
0100
0000
0000
0000
,
1001
0000
0000
0000
,
1000
0000
0000
0000
,
0110
0000
0000
0000
,
0010
0000
0000
0000
,
0001
0001
0001
0000
,
0001
0001
0001
0000
,
1000
1000
1000
0000
,
1000
1000
1000
0000
,
0001
0000
1000
0000
,
0001
0000
1000
0000
,
0010
0000
0100
0000
,
0010
0000
0100
0000
,
0010
0010
0010
0000
,
0100
0100
0100
0000
,
0010
0010
0010
0000
,
0100
0100
0100
0000
,
0010
0000
0100
0000
,
0010
0000
0100
0000
,
0110
0000
0110
0000
,
1001
0000
1001
0000
,
0001
0000
0000
0000
,
0010
0000
0000
0000
,
0001
0000
0000
0000
,
0010
0000
0000
0000
,
1000
0000
0000
0000
,
0010
0000
0000
0000
,
1000
0000
0000
0000
,
0010
0000
0000
0000
,
1001
0000
0000
0000
,
0000
0000
0000
0000
,
0000
0000
0000
0000
,
0000
0000
0000
0000
,
1001
0000
0000
0000
,
0000
0000
0000
0000
,
0000
0000
0000
0000
,
0000
0000
0000
0000
,
1001
0000
0000
0000
;

//--------------- dance-single - ----------------
#NOTES:
     dance-single:
     :
     Easy:
     4:
     0,0,0,0,0:
0000
0000
0000
0000
,
0000
0000
0000
0000
,
0000
0000
0000
0000
,
0000
0000
0000
0000
,
0220
0000
0000
0330
,
2002
0000
0000
3003
,
0220
0000
0000
0330
,
0100
0000
0010
0000
,
1000
0000
0010
0000
,
0001
0000
0010
0000
,
0100
0000
0110
0000
,
0010
0000
1001
0000
,
1000
0000
0010
0000
,
0001
0000
0100
0000
,
0001
0001
0001
0000
,
1000
1000
1000
0000
,
0010
0000
0110
0000
,
0100
0000
1001
0000
,
1000
1000
1000
0000
,
0001
0001
0001
0000
,
0200
0000
0310
0000
,
0110
0000
1001
0000
,
0020
0000
0130
0000
,
0001
0001
1000
1000
,
0010
0000
1000
0000
,
0001
0000
0100
0000
,
1001
0000
0110
0000
,
0110
0000
0100
0000
,
0001
0001
1000
1000
,
0000
0000
0110
0000
,
1001
0000
1001
0000
,
0100
0100
0100
0100
,
0020
0000
0000
0030
,
1000
0000
0001
0000
,
0100
0000
0000
1001
,
0000
0000
0000
1000
,
0001
0000
0000
0001
,
1000
0000
0010
0000
,
0110
0000
0100
0000
,
0110
0000
0000
0000
,
0001
1000
0001
0000
,
1000
0001
1000
0000
,
0010
0000
0010
0000
,
1000
0000
0001
0000
,
0100
0000
0000
0000
,
0001
1000
0001
0000
,
1000
0001
1000
0000
,
0010
0000
0010
0000
,
0000
0110
0000
0000
,
1000
0000
1000
0000
,
0000
0000
1001
0000
,
0001
0000
0001
0000
,
0000
0100
0100
0000
,
0000
0010
0010
0000
,
2000
0000
3002
0000
,
2003
0000
3002
0000
,
0103
0000
0000
1001
,
0000
0000
0110
0000
,
1000
0000
0001
0000
,
1000
0000
0001
0000
,
0100
0000
0000
0110
,
0000
1000
0001
0000
,
1001
0000
0000
0000
,
0000
0000
0000
0000
,
1000
0000
1000
0000
,
1000
1000
1000
0000
,
0001
0000
0001
0000
,
0001
0001
0001
0000
,
0100
0000
0000
0000
,
0010
0000
0110
0000
,
0100
0000
1001
0000
,
1000
0001
1000
0001
,
1000
0000
0010
0000
,
1000
0000
0001
0000
,
0100
0000
0000
1001
,
0000
0000
0110
0000
,
1001
0000
0000
0000
,
0010
0000
0100
0000
,
0001
0000
1000
0000
,
0001
1000
0001
1000
,
0002
0000
0000
0000
,
2003
0000
0000
0000
,
3002
0000
0000
0000
,
2003
0000
0000
0000
,
3020
0000
0000
0000
,
0230
0000
0000
0000
,
0320
0000
0000
0000
,
0230
0000
0000
0000
,
0301
0000
1001
0000
,
1000
0000
1001
0000
,
0001
0000
1001
0000
,
1000
0000
1001
0000
,
0110
0000
1001
0000
,
0100
0000
1001
0000
,
1000
0000
0010
0000
,
0001
0000
0100
0000
,
0010
0010
0010
0000
,
0100
0100
0100
0000
,
0010
0010
0010
0000
,
0100
0100
0100
0000
,
0001
1000
0001
0000
,
1000
0001
1000
0000
,
0010
0000
0110
0000
,
1001
0000
1001
0000
,
1000
1000
1000
0000
,
0001
0001
0001
0000
,
0010
0100
0010
0000
,
0100
0010
0100
0000
,
1000
0000
1000
0000
,
1000
0000
0001
0000
,
0001
0000
0001
0000
,
1001
0000
1001
0000
,
1000
0000
0001
0000
,
1000
0000
0001
0000
,
0001
0000
1000
0000
,
0001
0000
1000
0000
,
0010
0100
0010
0000
,
0100
0010
0100
0000
,
0001
1000
0001
0000
,
1000
0001
1000
0000
,
0001
0000
0000
0000
,
0000
0000
0000
0000
,
1000
0000
0000
0000
,
0000
0000
0000
0000
,
0010
0000
0000
0000
,
0000
0000
0000
0000
,
0100
0000
0000
0000
,
0000
0000
0000
0000
,
1001
0000
0000
0000
;

//--------------- dance-single - ----------------
#NOTES:
     dance-single:
     :
     Medium:
     7:
     0,0,0,0,0:
0000
0000
0000
0000
,
0000
0000
0000
0000
,
0000
0000
0000
0000
,
0000
0000
0000
0000
,
0100
0010
0000
0000
,
0010
0100
0000
0000
,
0100
0000
0010
0000
,
1001
0110
1001
0000
,
1000
0100
0010
0100
,
0010
0001
1000
0000
,
0001
0100
0010
1000
,
0001
0010
0100
0000
,
0010
0001
1000
0010
,
0100
0001
1000
0000
,
0100
0010
0001
1000
,
0010
0100
1001
0000
,
0001
0000
0000
0100
0000
0000
0100
0000
,
0010
1000
0001
0000
,
1000
0000
0000
0100
0000
0000
0100
0000
,
0000
0000
1100
0000
,
0101
0000
0000
0000
,
0010
0100
0010
0000
,
0100
0000
0010
0000
,
0110
0000
0000
0110
0000
0000
0100
0000
,
0000
0001
0010
0001
,
1000
0100
1000
0010
,
0010
0000
1000
0000
,
0001
0000
0100
0000
,
0001
0010
0001
0010
,
0000
1000
0010
1000
,
0010
0000
1001
0000
,
0100
0001
1000
0010
,
1000
0000
0000
1001
0000
0000
0000
0000
,
0000
0001
0010
1000
,
0100
0000
0000
0001
0000
0000
1001
0000
,
0000
0000
0000
0010
,
1000
0000
0001
0000
,
0100
0001
0010
0000
,
0100
0000
0000
1000
0000
0000
0010
0000
,
1001
0000
0000
0000
,
0001
0000
0000
1001
0000
0000
0000
0000
,
0000
1000
0001
0100
,
0010
0000
0000
0010
0000
0000
1000
0000
,
0001
0000
0001
1000
,
0100
0000
0010
0001
,
0100
0000
0010
1000
,
0100
0000
1000
0000
,
0001
0000
0100
0000
,
0010
0110
0000
1000
,
0100
0001
0010
0000
,
0000
0001
0100
0001
,
1000
0100
1000
0000
,
0000
0010
1001
0000
,
1000
0010
0001
0000
,
1000
0000
0100
0000
,
0010
0000
0001
0000
,
0100
0000
0000
1100
0000
0000
0101
0000
,
0000
0100
0010
0100
,
0001
0000
0000
0001
0000
0000
0001
0000
,
1000
0000
0000
1000
0000
0000
1000
0000
,
0100
0000
0011
0000
,
1010
0000
0100
0000
,
0010
0000
0000
0100
0000
0000
0100
0000
,
0000
0000
0000
0000
,
0010
0000
0000
0001
0000
0000
1000
0000
,
0100
0010
0100
0010
,
0001
0100
1000
0110
,
0000
1000
0100
0001
,
1001
0000
0000
0000
1000
0100
1000
0000
,
0010
0000
0000
0110
0000
0000
0100
0000
,
0001
0100
0001
0000
1000
0000
0100
0000
,
0010
0001
0100
1001
,
0100
0000
0000
0100
0000
0000
0100
0000
,
0010
1000
0001
0100
,
1001
0000
0000
0010
0000
0000
1001
0000
,
0000
0100
0100
0100
,
0110
0000
1000
0100
,
1000
0001
0010
0001
,
0100
0100
0100
0100
,
0010
0110
0100
0010
,
1000
0100
0100
0100
,
0001
0100
0100
0100
,
1000
0100
0100
0100
,
0001
0100
0100
0100
,
1000
0010
0010
0010
,
0001
0010
0010
0010
,
1000
0010
0010
0010
,
0001
0010
0010
0010
,
1000
0100
0001
0100
,
1000
0100
0001
0000
,
1000
0100
0001
0100
,
1000
0100
0001
0000
,
0010
0001
1000
0010
,
0100
0001
1000
0100
,
0110
0000
0011
0000
,
1010
0000
1001
0000
,
1000
0100
1000
0100
,
0001
0100
0001
0100
,
1000
0010
1000
0010
,
0001
0010
0001
0010
,
0110
0000
0011
0000
,
0110
0000
1100
0000
,
1010
0000
0101
0000
,
1000
0100
0001
0000
,
0010
0010
0001
0001
,
1000
1000
0100
0100
,
0010
0001
1000
0010
,
0100
0010
0100
0001
,
1001
1000
0010
0000
,
0110
1000
0100
0000
,
0110
0010
0001
0000
,
0001
0001
1000
1000
,
0001
0100
0001
0000
,
1000
0100
1000
0000
,
0001
0010
0001
0000
,
1000
0010
1000
0000
,
0001
0000
0101
0000
,
1100
0000
1000
0000
,
0010
0000
1010
0000
,
0011
0000
0010
0000
,
0100
0000
0000
0000
,
0010
0000
0000
0000
,
0001
0000
0000
0000
,
1000
0000
0000
0000
,
1000
0000
0000
0000
,
0001
0000
0000
0000
,
0010
0000
0000
0000
,
0100
0000
0000
0000
,
1001
0000
0000
0000
;

//--------------- dance-single - ----------------
#NOTES:
     dance-single:
     :
     Hard:
     9:
     0,0,0,0,0:
0000
0000
0000
0000
,
0000
0000
0000
0000
,
0000
0000
0000
0000
,
0000
0000
0000
0000
,
0001
0010
0001
1001
,
1000
0000
0100
0000
0010
0000
0100
0010
,
0100
0000
0010
0001
1000
0000
0001
0000
,
1000
0100
0010
0011
,
0001
0000
0100
0000
0001
0010
0001
0000
,
1000
0000
0100
0000
1000
0010
0100
0000
,
0010
0100
0001
0011
,
1010
0100
0010
1010
,
1000
0000
0100
0000
1000
0010
1000
0000
,
0001
0000
0100
0000
0001
0010
0001
0000
,
0010
0100
0010
0001
,
1000
0010
0100
0001
1000
0000
0100
0000
,
0010
0000
0000
0101
0000
0000
1100
0000
,
1000
0000
0010
0000
0100
0001
0010
0001
,
1000
0000
0000
0100
0000
1000
0010
0000
,
0001
0100
1000
0000
0001
0100
0001
1000
,
0100
0000
1000
0010
0000
0010
1000
0000
,
0001
0010
0100
0010
,
0011
0001
1010
1000
,
0100
1000
0001
0010
0000
0000
0100
0000
,
0010
0001
1000
0000
0100
0000
1000
0000
,
1000
0000
0001
0010
0001
0000
0100
0000
,
0010
0010
1000
1000
,
0001
0010
0001
0000
0100
0000
0000
0000
,
0010
1100
0001
0101
,
1000
0000
0001
0010
0100
0000
0010
0000
,
0001
1000
0100
0000
1000
0000
0001
0000
,
0010
0001
0000
1000
0000
0100
0010
0000
,
0011
0000
0000
0011
0000
0000
0011
0000
,
0000
0000
0001
0100
0001
0000
1000
0000
,
1010
0000
0000
1010
0000
0000
1010
0000
,
0000
0000
0100
0000
0001
1000
0100
0000
,
0010
0000
0100
0010
0001
0000
1000
0001
,
1000
0100
0010
0001
,
1001
0000
0000
0110
0000
0000
1000
0000
,
0001
0000
0010
0000
0001
0010
0001
1000
,
0100
0000
0000
1100
0000
0000
1000
0000
,
0001
0100
0101
0010
,
0001
0000
0100
0001
0000
1000
0100
0000
,
0010
0000
0100
1000
0010
0000
1000
0000
,
0001
0010
0000
0000
0001
0000
1000
0000
,
1100
0010
0101
0000
,
0001
0010
1000
0010
,
0001
0100
1000
0100
,
0000
0000
1001
0000
0010
0000
0000
0010
,
0001
0000
1000
0000
0100
1000
0001
0000
,
0000
0000
0110
0000
0100
0000
0010
1000
,
0000
0010
0000
0100
0000
0001
0100
0000
,
0001
0010
0001
1000
,
1000
0010
1000
0001
,
0101
0000
1100
0000
,
0110
0010
0001
1000
,
0100
0000
0000
1000
0000
0100
0010
0000
,
0100
0000
0000
0001
0000
0100
0010
0000
,
0001
0000
0000
1000
0000
0000
1001
0000
,
0000
0100
0100
0100
,
0001
0010
0100
0010
0000
0100
0000
1000
,
0000
0001
1000
0000
0010
0000
0100
0000
,
0011
0000
0000
1010
0000
0000
1001
0000
,
0000
1000
0001
0000
,
0010
0000
0001
0010
0000
0100
0010
0001
,
1000
0000
0100
1000
0001
0000
0100
0000
,
0110
0000
0000
0110
0000
0000
0110
0000
,
0100
0000
0001
1000
0100
0000
1100
0000
,
0101
0000
0000
0000
1000
0001
0010
0000
,
0001
0000
0000
0010
0001
0010
0100
0010
,
0001
0000
1000
0000
0100
0000
1000
0010
,
0100
0101
1100
0010
,
1000
0000
0010
0000
0100
0010
0100
0000
,
0001
0010
0001
1000
0100
0000
1000
0000
,
0010
0000
0010
1000
0000
1000
0001
0000
,
0001
0110
1000
0100
,
0110
0000
0000
0000
1000
0000
0001
0010
,
0001
0000
0001
1000
0000
1000
0100
0000
,
0100
0000
0010
0001
1000
0000
0100
0000
,
1000
0010
0100
0001
0010
0000
0010
0000
,
0011
0000
0001
0010
0001
0100
0010
0000
,
1010
0000
0100
0010
1000
0100
0010
0000
,
0110
0000
0010
0001
0100
0010
1000
0000
,
1001
1000
1100
0101
,
0010
0001
0100
0010
1000
0100
1000
0000
,
0001
1000
0100
0010
0100
1000
0010
0000
,
0110
0101
0110
1100
,
1000
0010
1000
0010
0001
0010
0001
0010
,
0100
0000
0001
0010
0001
0100
0010
0000
,
0010
0000
1000
0010
1000
0100
0010
0000
,
1000
0100
0010
0000
1000
0010
0001
0000
,
0001
0100
0010
0000
0001
0010
1000
0000
,
0100
0000
0010
0001
0010
0100
1000
0000
,
0010
0000
1000
0001
0100
0010
1000
0000
,
1010
0010
0101
0100
,
0010
1000
0001
0010
0100
0000
0010
0000
,
0011
0011
1001
1001
,
0011
0011
1001
1001
,
1010
1010
1001
1001
,
1010
1010
1001
1001
,
0101
0101
1001
1001
,
0101
0101
1001
1001
,
1100
1100
1001
1001
,
1100
1100
1001
1001
,
0011
1001
0011
1001
,
1010
1001
1010
1001
,
0101
1001
0101
1001
,
1100
1001
1100
1001
,
0011
0011
1010
1010
,
0101
0101
1100
1100
,
0011
1010
0101
1100
,
0110
0110
1001
0000
,
0010
0001
0010
0001
1000
0010
0100
0000
,
0010
1000
0100
1000
0001
0000
0100
0000
,
0010
1000
0100
0010
0100
1000
0001
0000
,
0100
0001
1000
0010
0100
0000
0001
0000
,
1000
0010
0100
0000
0100
0010
1000
0000
,
0001
1000
0010
0001
,
0010
0100
0001
0000
1000
0100
0010
0000
,
0100
0000
0100
0000
0010
0001
1000
0000
,
0001
0100
0001
0100
0010
1000
0010
1000
,
0001
0100
0001
0100
0010
1000
0010
0000
,
1000
0100
1000
0100
0010
0001
0010
0001
,
1000
0100
1000
0100
0010
0001
0010
0000
,
1000
0100
0010
0001
0100
0010
1000
0100
,
0010
0001
0100
0010
0100
0010
0100
0000
,
0001
0100
0010
1000
0100
0010
0001
0100
,
0010
1000
0100
0010
0100
0010
0100
0000
,
1001
0000
0000
0000
;

//--------------- dance-single - ----------------
#NOTES:
     dance-single:
     :
     Challenge:
     15:
     0,0,0,0,0:
0000
0000
0000
0000
,
0000
0000
0000
0000
,
0000
0000
0000
0000
,
0000
0000
0000
0000
,
0001
0010
0000
0001
1000
0000
0100
1000
0000
0010
0100
0000
,
1000
0100
0000
0001
1000
0000
0100
0010
0000
0001
1000
0000
,
0010
0100
0001
0010
0100
1000
0100
1000
0010
0100
0001
0010
,
0001
1000
0001
1000
0100
1000
0001
0100
0010
1000
0000
0000
,
0010
1000
0010
0000
1000
0000
0101
0000
,
0010
0001
1000
0100
0010
0100
1100
0000
,
0010
0001
1000
0100
1000
0010
0100
0001
,
1000
0000
0000
0000
0001
0000
0000
0000
0010
0000
0001
0000
1000
0000
0010
1000
,
0010
1000
0100
1000
0001
0010
0100
0010
,
0001
0100
1000
0100
0010
1000
0100
0010
,
0011
0001
1000
0000
1100
1000
0010
0000
,
1000
0000
0000
0000
0000
0000
0001
0000
0000
0000
0000
0000
0010
0000
0000
0100
0000
0000
0010
0000
0000
0000
0000
0000
0010
0000
0000
0000
0001
0000
0000
0000
0100
0000
0000
0000
0010
0000
0000
0000
1000
0000
0000
0000
0100
0000
0000
0000
,
0001
0100
1000
0010
0000
0010
1000
0010
,
1000
0001
0101
0000
0001
1000
0100
0010
,
0110
0000
0100
1000
0000
0001
1000
0010
,
0100
0001
0010
0000
0001
1000
0100
0010
,
0100
0000
1000
1001
0000
0001
0010
0001
,
0100
0010
1000
0100
0000
0100
1000
0010
,
1000
0010
0000
0000
0100
0000
0000
0000
0001
0010
0000
0000
0100
0000
0000
0000
,
0100
0000
1000
0000
0001
0000
0011
0000
0000
0000
0001
1000
0001
0000
1000
0000
,
0100
1000
0001
0010
0001
0100
0010
0000
,
1010
0000
1000
0001
0010
0100
0010
0000
,
0001
0010
0000
0000
0100
0000
0000
0000
1000
0010
0000
0000
0100
0000
0000
0000
,
0001
0100
0000
0000
0010
0000
0000
0000
1000
0100
0000
0000
0010
0000
0000
0000
,
0001
0010
0011
0000
1010
0000
1001
0000
,
1000
0010
0100
0001
1000
0100
0010
0000
,
0100
1000
0000
0000
0001
0000
0000
0000
0100
0001
0000
0000
1000
0000
0000
0000
,
0010
0000
1000
0000
0001
0000
0010
0000
0000
0000
0100
0010
0100
0000
0010
0000
,
0001
1000
0100
1100
0000
0101
0001
0000
,
0010
0001
0010
0100
1000
0010
1000
0010
,
1010
1000
0001
0100
0001
0010
0011
0000
,
1000
0100
0001
0100
0010
0001
1000
0010
,
0100
0001
0000
0001
1000
0100
0010
0000
,
1100
0000
0010
0000
0101
0000
0001
1000
,
0010
0000
0010
1000
0100
0010
0100
0000
,
0011
0010
0001
1000
0010
0100
0010
0000
,
0110
0010
1000
0100
0000
1000
0100
1000
,
0001
0010
0001
0100
0010
0000
0110
0000
,
1000
0010
0100
0001
0010
0000
0011
0000
,
0010
0100
0010
0100
1000
0001
1000
0000
,
0010
1000
0000
1000
0001
0010
0100
0010
,
0011
0001
1100
1010
,
0100
0001
1000
0000
0100
0010
0100
0000
,
1000
0010
1000
0001
0010
0100
0010
0001
,
1000
0001
1000
0001
1000
0000
0000
0000
0100
0000
1000
0000
0010
0000
0000
0000
,
1010
0000
1000
0000
0001
0010
0001
0000
,
0100
0000
1000
0100
1000
0000
0100
0000
,
0011
0000
0010
0001
0000
0100
0010
0000
,
1000
0000
1010
0000
1000
0001
0010
0100
,
0000
0100
0010
0001
1000
0010
0100
0000
,
0001
0010
0000
0000
0001
0010
0000
0000
0100
1000
0000
0000
0100
1000
0000
0000
,
1000
0010
0000
0000
1000
0010
0000
0000
0100
0001
0000
0000
0100
0001
0000
0000
,
1000
0100
1000
0010
0000
0100
0001
0000
,
0001
0000
0010
0000
0001
0000
0000
0000
1000
0001
1000
0000
0100
0000
0000
0000
,
1001
1000
0001
0100
0010
1000
0100
0010
,
0110
0010
0001
0010
1000
0010
0100
1000
,
0010
0000
1010
1000
0001
0010
0000
0100
,
0010
0001
0100
0010
1000
0001
0100
0000
,
0001
0000
0000
1000
0000
0000
0001
0000
1000
0001
1000
0001
1000
0001
1000
0001
,
1000
0001
1000
0001
0000
0000
0000
0000
0000
0000
0000
0000
0000
0000
0000
0000
,
1000
1000
0001
0010
0100
0010
0001
0001
,
0100
0001
1000
0100
1000
0000
0010
0000
,
0100
0001
0010
0100
1000
0010
1000
0001
,
0011
0000
1100
0000
1000
0100
0010
0000
,
0011
0000
0000
0000
0000
0000
0001
0100
0001
0000
1000
0000
0100
0000
0000
0000
,
1000
0010
0100
0001
0010
0100
0010
0001
,
1000
0010
1000
0000
0101
0000
0001
1000
,
0001
0000
0000
0000
0011
0000
0000
0000
0100
0000
0010
0000
0001
0000
1000
0001
,
1000
0000
0100
0000
0010
0000
0100
0000
0000
0000
1000
0100
0010
0000
0001
0000
,
1000
0010
1000
0010
0100
1000
0100
0000
,
0101
0000
0100
0000
0001
0000
0010
0000
0000
0000
0100
0010
0100
0000
0000
0000
,
1000
0010
0100
0001
0001
1000
0100
0000
,
0110
0000
0000
0000
0000
0000
0001
1000
0100
0000
1000
0000
0100
0000
0000
0000
,
0010
0000
0001
0000
0010
0000
0100
0000
1000
0000
0001
0000
1000
0001
1000
0000
,
0010
0100
0001
0010
0001
1000
0010
0100
,
0000
0010
1000
0000
0101
0000
1100
0000
,
0001
1000
0001
0100
0010
1000
0100
1000
,
0010
0100
1000
0100
0010
1000
0100
0010
,
0010
0100
1000
0010
1000
0001
0100
0001
,
0010
0100
0010
0100
1000
0010
0100
0100
,
0001
0010
0001
1000
0100
0010
0001
0100
,
0001
0010
0001
1000
0010
0100
0010
0010
,
1000
0100
0010
1000
0010
0001
0100
0010
,
1000
0010
0100
0001
1000
0100
0010
0000
,
0001
0010
0001
0010
0000
0000
0100
1000
0100
1000
0000
0000
,
0010
1000
0001
0100
0000
0000
0001
0010
1000
0010
0000
0000
,
0100
1000
0010
0100
0000
0000
0010
1000
0001
0010
0000
0000
,
0001
0010
0100
0010
0000
0000
0100
0000
0000
1000
0001
1000
,
0001
0010
0100
0010
0000
0000
0001
0010
0001
1000
0000
0000
,
0010
0100
0010
1000
0000
0000
0100
1000
0001
0010
0000
0000
,
0001
0010
0001
1000
0000
0000
1000
0100
1000
0001
0000
0000
,
0010
0001
1000
0010
0100
0001
0010
0100
,
0110
0000
1100
0000
1010
1000
0001
0000
,
0101
0000
0011
0000
0110
0010
0001
0000
,
1010
0000
0101
0000
1001
1000
0100
0000
,
0110
0000
0000
0000
0101
0000
0000
0000
1001
0000
1000
0000
0001
0000
0010
0001
,
0100
0010
1010
0000
1001
1000
0001
0000
,
0110
0000
0010
0000
0001
0000
0000
0000
0011
0000
1000
0000
0010
0000
1000
0001
,
1000
1100
0110
0101
,
0010
0001
1000
0000
0001
1000
0100
0000
1000
0000
0001
0000
0100
0000
0001
0000
,
0010
0001
0010
0100
0000
0000
0010
0100
1000
0010
0000
0000
,
0100
0001
1000
0100
0000
0000
1000
0010
0100
0001
0000
0000
,
0010
0001
1000
0010
0000
0000
0100
0010
1000
0010
0000
0000
,
0100
0001
0010
0001
0000
0000
0010
0001
1000
0100
0000
0000
,
1000
0001
0100
0010
0000
0000
0010
0100
0001
1000
0000
0000
,
0100
1000
0010
0100
0000
0000
0001
1000
0100
0010
0000
0000
,
1000
0100
1000
0010
0100
0001
0010
0001
0100
0001
0000
0000
,
0001
0010
0001
0100
0010
1000
0100
1000
0010
1000
0000
0000
,
0001
1000
0001
1000
0100
0010
0100
1000
,
0010
0100
0001
1000
0100
0001
0100
1000
,
0010
0100
0001
0010
0100
1000
0001
0010
,
0001
1000
0010
0100
0010
1000
0010
0100
,
0001
0000
0010
0000
0100
0000
0010
0000
0001
0000
1000
0000
0010
0000
0100
0010
,
1000
0000
0100
0000
1000
0000
0001
0000
0010
0000
0100
0000
0010
0000
0001
0010
,
0100
0000
1000
0000
0010
0000
0100
0010
1000
0000
0100
0000
0010
0000
0001
1000
,
0010
0000
0100
0000
0001
0000
1000
0010
0100
0000
0010
1000
0100
0000
0010
0000
,
0001
1000
0001
1000
0001
1000
0001
1000
0001
1000
0001
1000
0001
1000
0001
1000
,
0001
1000
0001
1000
0001
1000
0001
1000
0001
1000
0001
1000
0001
0000
0000
0000
,
1000
0001
1000
0001
1000
0001
1000
0001
1000
0001
1000
0001
1000
0001
1000
0001
,
1000
0001
1000
0001
1000
0001
1000
0001
1000
0001
1000
0001
1000
0000
0000
0000
,
0010
0100
0010
0100
0010
0100
0010
0100
0010
0100
0010
0100
0010
0100
0010
0100
,
0010
0100
0010
0100
0010
0100
0010
0100
0010
0100
0010
0100
0010
0000
0000
0000
,
0100
0010
0100
0010
0100
0010
0100
0010
0100
0010
0100
0010
0100
0010
0100
0010
,
0100
0010
0100
0010
0100
0010
0100
0010
0100
0010
0100
0010
0100
0000
0000
0000
,
1001
0000
0000
0000
,
0000
0000
0000
0000
,
0000
0000
0000
0000
,
0000
0000
0000
0000
,
0000
0000
0100
0000
;
