#TITLE:The Claw And The Dragon;
#SUBTITLE:;
#ARTIST:Re Mongkoh;
#TITLETRANSLIT:;
#SUBTITLETRANSLIT:;
#ARTISTTRANSLIT:;
#GENRE:Kung Fu;
#CREDIT:Charts made by 8Chasey;
#MUSIC:the Claw & the Dragon - Re Mongkoh.mp3;
#BANNER:;
#BACKGROUND:;
#CDTITLE:;
#SAMPLESTART:7.05;
#SAMPLELENGTH:12;
#SELECTABLE:YES;
#OFFSET:-0.660;
#BPMS:0.000=299.980;
#STOPS:;
#BGCHANGES:;
#FGCHANGES:;

//--------------- dance-single - 8Chasey ----------------
#NOTES:
     dance-single:
     8Chasey:
     Beginner:
     3:
     0,0,0,0,0:
0000
0000
0000
0000
,
0000
0000
0000
0000
,
0000
0000
0000
0000
,
0000
0000
0000
0000
,
0000
0000
0000
0000
,
0000
0000
0000
0000
,
0000
0000
0000
0000
,
0000
0000
0000
0000
,
1001
0000
0000
0000
,
0001
0000
0000
0000
,
1000
0000
0000
0000
,
0010
0000
0100
0000
,
0010
0000
0010
0000
,
0000
0000
0000
0000
,
0010
0000
0000
0000
,
0010
0000
0010
0000
,
0100
0000
0000
0000
,
0001
0000
1000
0000
,
0001
0000
1000
0000
,
0000
0000
0001
0000
,
1000
0000
1001
0000
,
0000
0000
0000
0000
,
1000
0000
0010
0000
,
0100
0000
0001
0000
,
1000
0000
0000
0000
,
1000
0000
0000
0000
,
0001
0000
0001
0000
,
1000
0000
0000
0000
,
0010
0000
0000
0000
,
0000
0000
0100
0000
,
0001
0000
1000
0000
,
0010
0000
0000
0000
,
0110
0000
0000
0000
,
0000
0000
0000
0000
,
0100
0000
0001
0000
,
1000
0000
0001
0000
,
1001
0000
0000
0000
,
0000
0000
0000
0000
,
1000
0000
1000
0000
,
1000
0000
0000
0000
,
0010
0000
0000
0000
,
1000
0000
0000
0000
,
0001
0000
0001
0000
,
0001
0000
0000
0000
,
0100
0000
0000
0000
,
0010
0000
0100
0000
,
0010
0000
0000
0000
,
0000
0000
0100
0000
,
0010
0000
0100
0000
,
0000
0000
0001
0000
,
1000
0000
0000
0000
,
0000
0000
0001
0000
,
1000
0000
0010
0000
,
0000
0000
0000
0000
,
0010
0000
0000
0000
,
0100
0000
0010
0000
,
0100
0000
0110
0000
,
0000
0000
0000
0000
,
1000
0000
0001
0000
,
1000
0000
0000
0000
,
0000
0000
0010
0000
,
0000
0000
0000
0000
,
0010
0000
0000
0000
,
0100
0000
0010
0000
,
0100
0000
0110
0000
,
0000
0000
0000
0000
,
0001
0000
1000
0000
,
0001
0000
1000
0000
,
1001
0000
0000
0000
,
0000
0000
0000
0000
,
0001
0000
1000
0000
,
0001
0000
0000
0000
,
1000
1000
0000
0000
,
0000
0000
0001
0001
,
0000
0000
0000
0000
,
1000
0000
0001
0000
,
1001
0000
0000
0000
,
1000
0000
0001
0000
,
0000
0000
0010
0000
,
0001
0000
1000
0000
,
0100
0000
1000
0000
,
0000
0000
0000
0000
,
0001
0000
1000
0000
,
0001
0000
0000
0000
,
1001
0000
0000
0000
,
0000
0000
0100
0000
,
0001
0000
1000
0000
,
0000
0000
0010
0000
,
0010
0000
0110
0000
,
0000
0000
0000
0000
,
0100
0000
0010
0000
,
0100
0000
0000
0000
,
0001
0000
1000
0000
,
0010
0000
0000
0000
,
1000
0000
0000
0000
,
0001
0000
0010
0000
,
0010
0000
0000
0000
,
0100
0000
0000
0000
,
1000
0000
0001
0000
,
1000
0000
0001
0000
,
1001
0000
0000
0000
,
0000
0000
0000
0000
,
0001
0000
1000
0000
,
0001
0000
1000
0000
,
1001
0000
0000
0000
;

//--------------- dance-single - 8Chasey ----------------
#NOTES:
     dance-single:
     8Chasey:
     Easy:
     5:
     0,0,0,0,0:
0000
0000
0000
0000
,
0000
0000
0000
0000
,
0000
0000
0000
0000
,
0000
0000
0000
0000
,
0000
0000
0000
0000
,
0000
0000
0000
0000
,
0000
0000
0000
0000
,
0000
0000
0000
0000
,
0001
0000
1000
0000
,
0100
0000
1000
0000
,
0010
0000
0100
0000
,
0001
0000
1000
0001
,
1000
0001
0000
0000
,
1001
0000
1001
0000
,
0010
0000
1000
0000
,
0001
0000
0010
0000
,
0100
0000
0000
0000
,
1000
0000
0001
0000
,
1010
0000
0011
0000
,
0000
0000
0100
0000
,
0010
0000
1000
0000
,
0010
0000
0100
0000
,
0001
0000
0100
0000
,
0010
1000
0001
0000
,
1000
0000
0010
0000
,
0010
0000
1000
0000
,
0001
0000
0100
0000
,
0100
0000
0001
0000
,
1001
0000
0000
0000
,
0010
0000
0001
0000
,
0010
0000
0100
0000
,
1000
0000
0010
0000
,
0110
0000
0000
0000
,
0000
0000
0000
0000
,
0001
1000
0001
0000
,
1000
0001
1000
0000
,
1001
0000
0000
0000
,
0000
0000
0000
0000
,
1000
0000
0010
0000
,
0100
0000
0000
0000
,
0001
0000
0010
0000
,
0001
0000
0100
0000
,
1000
0000
0100
0000
,
0010
0000
0000
0000
,
0100
0000
0010
0000
,
1000
0010
1000
0000
,
0001
0000
0000
0000
,
0000
0000
0001
0010
,
0001
0000
1000
0000
,
0000
0000
1001
0000
,
0100
0000
0000
0000
,
0001
1000
0001
0000
,
0010
0000
0000
0000
,
0100
0000
1000
0000
,
0010
0000
0100
0000
,
0001
0000
0010
0000
,
0100
0000
0110
0000
,
0000
0000
0000
0000
,
0100
0000
1000
0000
,
0010
0000
0100
0000
,
0001
0000
0010
0000
,
0001
0000
1000
0000
,
0100
0000
0010
0000
,
0001
0000
0100
0000
,
0010
0000
1001
0000
,
0000
0000
0000
0000
,
0100
0000
0100
0000
,
0010
0000
0010
0000
,
0110
0000
0000
0000
,
0000
0000
0001
0000
,
0000
0000
1000
0000
,
0000
0000
0010
0000
,
1000
0000
0100
0000
,
1000
0000
0001
0000
,
0100
0000
0001
0000
,
0100
0100
0001
0000
,
1001
0000
0000
0000
,
1000
0000
0100
0000
,
1000
0000
0010
0000
,
0100
0000
0001
0010
,
0001
0000
0010
0000
,
0001
0000
1000
0000
,
0100
0000
0010
0000
,
0001
1000
0010
0000
,
0100
0000
0000
0000
,
0001
1000
0001
0000
,
1000
0000
0100
0000
,
1000
0010
0100
0000
,
0001
0000
0101
0000
,
0010
0000
0100
0000
,
1000
0010
1000
0001
,
1000
0000
0100
0000
,
1000
0000
0001
0000
,
0100
0000
0101
0000
,
0100
0000
0001
0000
,
1000
0000
1100
0000
,
1001
0000
0000
0000
,
0010
0001
1000
0000
,
0010
0000
0100
0000
,
0001
0000
1000
0000
,
1100
0000
0000
0000
,
1000
0000
0001
0000
,
0101
0000
0000
0000
,
0010
0000
0100
0000
,
1001
0000
0000
0000
;

//--------------- dance-single - 8Chasey ----------------
#NOTES:
     dance-single:
     8Chasey:
     Medium:
     8:
     0,0,0,0,0:
0000
0000
0000
0000
,
0000
0000
0000
0000
,
0000
0000
0000
0000
,
0000
0000
0000
0000
,
0000
0000
0000
0000
,
0000
0000
0000
0000
,
0000
0000
0000
0000
,
0000
0000
0000
0000
,
0010
0001
1000
0010
,
0000
0100
0001
0000
,
1000
0001
0001
1000
,
0100
0000
1000
0001
,
0100
0010
0100
0000
,
0100
0001
0010
0000
,
0001
1000
0100
1000
,
0010
0000
0000
0010
0000
0000
0100
0000
,
0001
1000
0001
0000
,
0010
0001
1000
0000
,
0100
0000
1000
0000
,
0001
1000
0010
0000
,
0100
0001
0010
0001
,
1000
0100
1000
0000
,
0010
1000
0001
0000
,
0100
0010
0100
0000
,
1001
0000
1000
0010
,
1000
0000
1100
0000
,
0001
0010
0001
0000
,
0101
0000
0110
0000
,
1001
0000
1000
0000
,
0001
0100
1000
0000
,
0100
0010
1000
0000
,
0001
1000
0001
1000
,
0100
0000
0011
0000
,
0010
0100
1000
0010
,
1000
0000
1010
0000
,
0100
0001
1000
0000
,
0010
0000
0000
0000
,
0100
0000
0001
0000
,
1000
0100
1000
0000
,
1010
0000
0000
0000
,
0001
0010
0100
0000
,
0001
0100
1000
0000
,
0001
0000
1000
0000
,
0001
1000
0100
0000
,
1000
0010
1000
0000
,
0001
0100
0001
0100
,
0101
0000
1000
0000
,
0001
0000
1000
0100
,
1000
0100
1100
0000
,
0010
0100
0010
0000
,
0001
0000
0001
0000
,
1000
0100
1000
0000
,
0010
0000
0100
0000
,
0010
1000
0100
1000
,
0010
0000
1001
0000
,
0010
0001
0100
0001
,
0010
0000
0110
0000
,
0000
0000
0100
0000
,
1000
0100
0010
0000
,
0100
0010
0001
0000
,
0100
0000
1001
0000
,
0010
0001
0100
0001
,
0010
0000
1001
0000
,
0010
1000
0100
1000
,
0010
0000
0110
0000
,
0000
0000
0000
0000
,
0100
0000
0001
0000
,
1000
0100
0010
0000
,
1001
0000
1010
0000
,
1000
0100
0010
0000
,
0011
0000
0110
0000
,
0100
0100
1000
0000
,
0001
0100
1000
0000
,
0100
0010
1000
0100
,
0001
0000
0100
0010
,
0001
1000
1001
0000
,
0010
0001
0010
0011
,
0000
0100
1000
0000
,
0001
1000
0001
0000
,
1000
0000
0010
1000
,
0100
1000
0001
0000
,
0100
0001
0000
1000
,
0100
0000
1000
0000
,
0010
1000
0000
0010
1000
0000
0010
0000
,
1000
0000
0001
0000
,
0000
0100
0001
1000
,
0000
1001
0000
1000
,
0100
0010
0100
0000
,
0110
0000
0010
0010
,
0001
0000
0010
0000
,
0001
1000
0010
0100
,
0001
1000
0100
0000
,
0110
0000
1000
0100
,
1000
0000
1100
0000
,
0001
0100
0001
0000
,
0101
0000
1001
0000
,
0110
0000
0100
0000
,
0001
0000
1000
0000
,
0010
1000
0100
1000
,
0000
0001
0001
1000
,
0001
0000
0010
0001
,
0100
1000
0000
0100
,
0010
1000
0100
0000
,
0010
0001
1000
0000
,
1001
0000
0000
0000
;

//--------------- dance-single - 8Chasey ----------------
#NOTES:
     dance-single:
     8Chasey:
     Hard:
     10:
     0,0,0,0,0:
0000
0000
0000
0000
,
0000
0000
0000
0000
,
0000
0000
0000
0000
,
0000
0000
0000
0000
,
0000
0000
0000
0000
,
0000
0000
0000
0000
,
0000
0000
0000
0000
,
0000
0000
0000
0000
,
1001
0000
0010
0100
0001
0000
2000
0000
,
0100
0000
0001
0000
3100
0000
0010
0001
,
0010
0000
0001
0000
1100
0000
1000
0010
,
1000
1001
0101
1010
,
0110
1001
0002
0010
,
0103
0010
0100
0000
0001
1000
0100
0000
,
1000
0000
0010
0000
1001
0000
0100
0001
,
0010
0000
0100
0010
0000
0001
0010
0001
,
2000
0000
0010
0000
3100
0000
0010
0100
,
0010
0000
0011
0000
1000
0010
0100
0000
,
0101
1000
1100
0010
,
0001
0100
0010
0000
1000
0000
1100
0000
,
0110
0000
0001
0010
0002
0000
0100
0000
,
0103
0000
1010
0000
1000
0100
1000
0000
,
0010
1000
0100
0000
0100
1000
0001
0000
,
0100
0001
0010
0100
1000
0010
0100
0000
,
0002
0000
0000
0000
0013
0001
1000
0000
,
1100
0010
0101
1000
,
0010
1000
0010
1000
0010
0000
0100
0001
,
0010
0100
1100
0010
,
2000
0000
0000
0000
3010
0000
1000
0001
,
0010
0000
0100
0010
0100
1000
0001
0000
,
0010
0001
0100
0000
0001
1000
0000
0100
,
1000
0010
1000
0000
1002
0000
0000
0000
,
0013
0000
0001
1000
0100
0000
0010
0000
,
0100
1000
0010
0100
0001
0000
0101
0000
,
0010
0000
0001
1000
0001
0000
1001
0000
,
0010
0100
1000
0001
1000
0000
1100
0000
,
0020
0000
0000
0000
0001
0000
0000
0100
,
0000
0001
0031
1000
,
0100
0010
0000
0010
0200
0000
0000
0000
,
2300
0010
0002
3003
,
0001
0010
0100
0000
0110
0000
0000
0010
,
0001
1000
0010
0000
1001
0000
0000
0000
,
0100
0001
1000
0100
1000
0000
0010
0000
,
1000
0001
0100
0000
0001
0000
0010
0000
,
0001
0000
0100
0010
0100
0000
0010
0000
,
1000
0100
1000
0100
1000
0100
1000
0000
,
0001
0000
1001
0000
0010
1000
0100
0000
,
1000
0000
0010
0000
0100
0001
1000
0000
,
0010
0000
1000
0100
0010
0100
1000
0001
,
0100
0001
0020
0100
,
0200
0000
0000
0000
0330
0000
1000
0010
,
1000
0001
0100
0002
,
0010
0000
2003
0000
,
3100
1000
0010
0000
1010
0000
0100
0001
,
1000
0000
0001
0000
0011
0000
0010
0100
,
0010
0100
0010
0000
0100
0000
1100
0000
,
0010
1000
0202
0000
,
0300
1000
0010
0013
,
0001
0010
0000
0010
0100
0000
0100
1000
,
0000
1000
0001
0000
1000
0010
0100
0000
,
0001
0000
1000
0000
1001
0000
0010
0001
,
0010
0100
0010
0001
,
1000
0100
0000
0100
0010
0000
0010
0001
,
0000
0001
1000
0000
0001
0010
0100
0000
,
0010
0001
2200
0000
,
0300
0010
0001
3010
,
0100
0001
0010
0000
1000
0000
0100
1000
,
0000
0001
0010
0000
0001
0000
1000
0000
,
2002
0000
3003
0000
0010
0001
0100
0000
,
1000
0100
0001
0010
0001
0000
0010
0000
,
0002
0100
0010
0103
,
0001
1000
0100
0000
1000
0000
0010
0000
,
0200
0002
0000
0000
0000
0000
0303
0000
,
0101
0000
1000
0000
0200
2000
0000
0000
,
0000
3300
1100
0001
,
1000
0010
0000
0000
0001
0010
0000
0000
,
0110
0000
0001
1000
0100
0000
1001
0000
,
2000
0010
0100
3001
,
0010
0001
0010
0000
0100
0000
0010
0001
,
2000
3010
0101
0110
,
1001
0000
1100
0000
0010
0100
1000
0000
,
0001
0100
0000
0100
0001
0000
0010
0000
,
0100
1000
0001
0000
0101
0000
1000
0000
,
0010
0000
1000
0100
1000
0010
0100
0000
,
0002
0000
1000
0000
1003
0000
0010
1000
,
0100
0000
1100
0000
1000
0001
0010
0000
,
0100
0000
1001
0000
1000
0000
0010
0100
,
1000
0000
0100
0000
0001
0010
0001
0000
,
0010
0000
0100
0000
1100
0000
1000
0001
,
0100
0000
0101
0000
0010
0100
0010
0000
,
1000
0001
0010
0000
0011
0000
0001
1000
,
0010
0000
1000
0010
0000
0100
0001
0100
,
0020
0000
1000
0000
0130
0000
0001
0010
,
0001
0000
1000
0000
1100
0000
1000
0001
,
0010
0000
0100
0000
0011
0000
0100
0001
,
1000
0000
0100
0000
0010
0001
0100
0000
,
0020
0000
1000
0000
0130
0000
0001
0100
,
0001
0000
1001
0000
0010
0100
0010
0000
,
0001
0010
0000
0010
0100
0000
0100
1000
,
0000
1000
0001
0000
0110
0000
0001
0000
,
0201
0000
0010
0000
0310
0000
1000
0100
,
1000
0000
1001
0000
0010
0001
0100
0000
,
0010
1000
0001
0010
0100
0000
0100
0010
,
0100
0000
1000
0001
0100
0010
0001
0000
,
2002
0000
0000
0000
,
0000
0000
0000
0000
,
0000
0000
0000
0000
,
0000
0000
0000
0000
,
0000
3003
0000
0000
;
