#TITLE:The B-I-B-L-E;
#SUBTITLE:;
#ARTIST:Sunday School Jamz;
#TITLETRANSLIT:;
#SUBTITLETRANSLIT:;
#ARTISTTRANSLIT:;
#GENRE:;
#CREDIT:8Chasey 2025;
#MUSIC:The B-I-B-L-E.ogg;
#BANNER:;
#BACKGROUND:;
#CDTITLE:;
#SAMPLESTART:68.081;
#SAMPLELENGTH:12.000;
#SELECTABLE:YES;
#OFFSET:-0.339;
#BPMS:0.000=155.000;
#STOPS:;
#BGCHANGES:;
#FGCHANGES:;

//--------------- dance-single - 8Chasey ----------------
#NOTES:
     dance-single:
     8Chasey:
     Beginner:
     1:
     0,0,0,0,0:
0000
0000
0000
0000
,
0000
0000
0000
0000
,
0001
0000
0000
0000
,
0001
0000
0000
0000
,
1000
0000
0000
0000
,
1000
0000
0000
0000
,
0001
0000
0000
0000
,
1000
0000
0000
0000
,
0001
0000
0000
0000
,
0000
0000
0000
0000
,
1000
0000
0000
0000
,
1000
0000
0000
0000
,
0001
0000
0000
0000
,
0001
0000
0000
0000
,
1000
0000
0000
0000
,
0001
0000
0000
0000
,
1000
0000
0000
0000
,
0000
0000
0000
0000
,
0010
0000
0010
0000
,
0010
0000
0000
0000
,
0010
0000
0010
0000
,
0010
0000
0000
0000
,
0100
0000
0100
0000
,
0100
0000
0000
0000
,
0100
0000
0100
0000
,
0100
0000
0000
0000
,
0001
0000
0000
0000
,
1000
0000
0000
0000
,
0001
0000
0000
0000
,
0001
0000
0000
0000
,
0100
0000
0000
0000
,
0010
0000
0000
0000
,
1000
0000
0000
0000
,
0010
0000
0000
0000
,
1000
0000
0000
0000
,
1000
0000
0000
0000
,
0001
0000
0000
0000
,
1000
0000
0000
0000
,
0001
0000
0000
0000
,
0001
0000
0000
0000
,
0010
0000
0010
0000
,
0010
0000
0010
0000
,
0010
0000
0000
0000
,
1001
0000
0000
0000
,
0001
0000
1000
0000
,
0001
0000
0000
0000
,
0100
0000
0010
0000
,
0100
0000
0000
0000
,
0010
0000
0000
0000
,
0100
0000
0000
0000
,
0001
0000
1000
0000
,
0001
0000
0000
0000
,
1000
0000
0001
0000
,
1000
0000
0000
0000
,
0010
0000
0100
0000
,
0010
0000
0000
0000
,
0100
0000
0000
0000
,
0010
0000
0000
0000
,
1000
0000
0001
0000
,
1000
0000
0000
0000
,
0010
0000
0100
0000
,
0010
0000
0000
0000
,
0100
0000
0010
0000
,
0100
0000
0000
0000
,
0001
0000
0000
0000
,
1000
0000
0000
0000
,
0010
0000
0100
0000
,
0010
0000
0000
0000
,
0001
0000
0001
0000
,
0001
0000
0000
0000
,
1000
0000
1000
0000
,
1000
0000
0000
0000
,
0010
0000
0000
0000
,
0100
0000
0000
0000
,
0010
0000
0000
0000
,
0000
0000
0000
0000
,
1001
0000
0000
0000
;

//--------------- dance-single - 8Chasey ----------------
#NOTES:
     dance-single:
     8Chasey:
     Easy:
     2:
     0,0,0,0,0:
0000
0000
0000
0000
,
0000
0000
0000
0000
,
0001
0000
1000
0000
,
0002
0000
0003
0000
,
1000
0000
0001
0000
,
2000
0000
3000
0000
,
0010
0000
0000
0100
,
0100
0000
0010
0000
,
0200
0000
0000
0000
,
0300
0000
0000
0000
,
0001
1000
0001
0000
,
2000
0000
3000
0000
,
0100
0010
0100
0000
,
0020
0000
0030
0000
,
0002
0000
0003
0000
,
0200
0000
0300
0000
,
2002
0000
0000
0000
,
3003
0000
0000
0000
,
0020
0030
0010
0000
,
0100
0100
0000
0000
,
0002
0003
2000
3000
,
0001
0001
0000
0000
,
0200
0300
0100
0000
,
0010
0010
0000
0000
,
2000
3000
0002
0003
,
1000
1000
0000
0000
,
0000
0010
0010
1000
,
2000
0000
3000
0000
,
0000
0100
0100
0001
,
0002
0000
0003
0000
,
0000
0100
0010
0100
,
0020
0000
0000
0000
0000
0000
0000
0000
0000
0000
0000
0000
0000
0000
0000
0000
0000
0000
0000
0000
0000
0000
0000
0000
0000
0000
0000
0000
0000
0000
0000
0000
0000
0000
0000
0000
0000
0000
0000
0000
0000
0000
0000
0000
0000
0000
0000
0000
0000
0000
0000
0000
0000
0000
0000
0000
0000
0000
0000
0000
0000
0000
0000
0000
0000
0000
0000
0000
0000
0000
0000
0000
0000
0000
0000
0000
0000
0000
0000
0000
0000
0000
0000
0000
0000
0000
0000
0000
0000
0000
0000
0000
0000
0000
0000
0000
0000
0000
0000
0000
0000
0030
0000
0000
0000
0000
0000
0000
0000
0000
0000
0000
0000
0000
0000
0000
0000
0000
0000
0000
0000
0000
0000
0000
0000
0000
0000
0000
0000
0000
0000
0000
0000
0000
0000
0000
0000
0000
0000
0000
0000
0000
0000
0000
0000
0000
0000
0000
0000
0000
0000
0000
0000
0000
0000
0000
0000
0000
0000
0000
0000
0000
0000
0000
0000
0000
0000
0000
0000
0000
0000
0000
0000
0000
0000
0000
0000
0000
0000
0000
0000
0000
0000
0000
0000
0000
0000
0000
0000
0000
0000
0000
,
0000
0010
0100
0010
,
0200
0000
0310
0000
,
2000
0000
0000
3000
,
0002
0003
0000
0000
,
0010
0000
0100
0000
,
1000
0001
1000
0000
,
0002
0000
0000
0003
,
1000
0001
1000
0000
,
0010
0000
0100
0000
,
0010
0000
0100
0000
,
0020
0000
0030
0000
,
2002
0000
3003
0000
,
1000
0000
0001
1000
,
0001
0000
0000
0000
,
0100
0000
0010
0100
,
0010
0000
0000
0000
,
1000
0000
0001
0000
,
0100
0000
0010
0000
,
1000
0001
1000
0001
,
1000
0000
0000
0000
,
0001
0000
1000
0001
,
1000
0000
0000
0000
,
0010
0000
0100
0010
,
0100
0000
0000
0000
,
0001
0000
1000
0000
,
0010
0000
0100
0000
,
0001
1000
0001
1000
,
0001
0000
0000
0000
,
0100
0000
0010
0010
,
0100
0000
0000
0000
,
0001
0000
0100
0001
,
0100
0000
0000
0000
,
0010
0000
1000
0000
,
0100
0000
0010
0000
,
0001
0000
0100
0000
,
0110
0000
0000
0000
,
1000
0000
0010
0000
,
2000
0000
3000
0000
,
0001
0000
0100
0000
,
0002
0000
0003
0000
,
1000
0000
0001
1000
,
0001
0000
0100
0000
,
0220
0000
0000
0000
,
0330
0000
0000
0000
,
2002
0000
0000
0000
,
0000
0000
0000
3003
;

//--------------- dance-single - 8Chasey ----------------
#NOTES:
     dance-single:
     8Chasey:
     Medium:
     4:
     0,0,0,0,0:
0000
0000
0000
0000
,
0000
0000
0000
0000
,
0001
0000
1000
0001
,
2000
0000
3000
0000
,
0010
0000
0100
0010
,
0200
0000
0300
0000
,
0001
0000
0100
0010
,
0100
0000
0010
0000
,
2002
0000
0000
3003
,
1000
0001
1000
0001
,
0010
0010
0001
0001
,
1000
0000
0000
1000
,
0100
0100
1000
1000
,
0001
0000
0100
0010
,
0100
0000
0001
1000
,
0001
0000
1000
0000
,
2002
0000
0000
0000
,
3003
0000
0000
0000
,
0001
0010
0001
0000
,
0100
0100
0000
0000
,
0001
1000
0001
1000
,
0010
0100
0000
0010
,
1000
0010
1000
0000
,
0100
0100
0000
0000
,
1000
0001
1000
0001
,
0100
0010
1000
0001
,
0010
0100
0100
0010
,
0010
0000
0000
0100
0000
0000
0100
0000
,
1000
0001
0001
1000
,
0001
0000
0000
1000
0000
0000
0001
0000
,
0100
0001
0100
0001
,
1000
0000
0000
0010
0000
0000
1000
0000
,
0100
1000
0100
1000
,
0001
0010
0001
0010
,
0200
0000
2300
0000
,
3001
0001
0000
0000
,
0100
0010
0100
0010
,
0200
0000
0310
0000
,
0200
0000
0302
0000
,
1003
1000
0010
0010
,
2000
0000
3002
0000
,
2003
0000
3020
0000
,
0230
0000
0000
0300
,
2002
0000
0000
3003
,
0010
1000
0010
0100
,
0001
0010
0001
0000
,
0100
0001
0010
0000
,
0100
1000
0100
0000
,
1000
1000
0010
1000
,
0001
0100
0001
0010
,
0100
0100
1000
0001
,
0100
0010
0100
0100
,
1001
0001
1000
0100
,
1000
0010
1000
0000
,
0100
1000
0100
0000
,
1000
0001
1000
0000
,
0010
0010
0100
0001
,
0010
0100
1000
0000
,
0001
1000
0001
1000
,
0010
0100
0010
0000
,
1001
1000
0010
1000
,
0100
0000
0100
0000
,
1000
0001
0010
0001
,
0100
0000
0010
0000
,
0100
0001
0100
0000
,
0010
1000
0010
0000
,
1000
0100
1000
0100
,
0010
0100
0010
0000
,
0100
0000
1000
0001
,
2000
0000
3010
0000
,
0100
0000
0001
1000
,
0002
0000
0013
0000
,
0100
1000
0100
0000
,
0010
0100
0010
0000
,
0220
0000
0000
0330
,
0100
1000
0001
0000
,
2002
0000
0000
0000
,
0000
0000
0000
3003
;

//--------------- dance-single - 8Chasey ----------------
#NOTES:
     dance-single:
     8Chasey:
     Hard:
     6:
     0,0,0,0,0:
0000
0000
0000
0000
,
0000
0000
0000
0000
,
0001
0010
0001
1000
,
0200
0000
1300
0010
,
0100
0010
1000
0001
,
0020
0000
0130
1000
,
0001
0000
0100
0001
0000
0000
1000
0000
,
0010
0000
1000
0100
1000
0000
0001
0000
,
2002
0000
0000
3003
,
0010
0000
0100
0000
1000
0001
1000
0000
,
0110
0000
0100
0001
0100
0000
0001
0000
,
1000
0000
0010
1000
0000
0001
0010
0000
,
0100
0000
1000
0100
1000
0000
0001
0000
,
0100
0000
0010
0100
0000
1000
0100
0000
,
0002
0010
0100
0103
,
2000
0100
0100
3010
,
0220
0000
0000
0330
,
0100
0000
0010
0000
1000
0001
1000
0000
,
0001
1000
0001
0000
,
1100
0000
0022
0000
0033
0000
0100
0001
,
1000
0001
0001
0100
,
0101
2020
3030
0010
,
0100
0001
0100
0000
,
0110
0000
2002
0000
3003
0000
1000
0001
,
1000
0010
0010
0100
,
0002
0000
0013
0000
0001
1000
0001
0000
,
1000
0100
0100
0010
,
0001
0000
0100
0001
0000
0010
0100
0000
,
1000
0010
0010
0100
,
0010
0000
1000
0100
0000
0010
0100
0000
,
1000
0100
0100
0010
,
0001
0000
0100
0001
0000
1000
0001
0000
,
0010
0100
0010
0000
0100
0000
1000
0000
,
1100
0000
1000
0000
0010
0100
0010
0000
,
0200
0000
0001
0000
0301
0000
1000
0001
,
0010
0000
0100
1000
0000
0100
0010
0000
,
0200
1000
1300
0001
,
0100
0000
0010
1000
0000
0010
0100
0000
,
0001
1000
0001
0000
0010
0000
0100
0000
,
1000
0000
0100
0010
0100
0000
0010
0000
,
0001
0100
0001
0000
1000
0100
1000
0000
,
0001
0010
0001
0000
0100
0010
0200
0000
,
0020
0330
1000
0001
,
2002
0000
3003
0010
,
1001
0000
0001
0010
0001
0000
0100
0000
,
0010
0000
1000
0100
0000
1000
0100
0000
,
1000
0000
0010
0100
0010
0000
0100
0000
,
0001
0000
0010
0001
0000
0100
0001
0000
,
1000
0000
0010
0100
0010
0000
1000
0001
,
1000
0000
0001
0010
0001
0000
0100
0000
,
0010
0001
1000
0100
,
0020
0000
0130
0100
0010
0001
1000
0000
,
1001
0000
0001
0010
0100
0000
1000
0000
,
0010
0000
0100
0001
0000
0100
0001
0000
,
1000
0000
0100
0010
0001
0000
1000
0000
,
0010
0000
1000
0100
0000
1000
0100
0000
,
1000
0000
0001
0100
0001
0000
0010
0001
,
0010
0000
0100
1000
0100
0000
1000
0000
,
0001
0100
0010
1000
,
0200
0000
0310
0010
0001
1000
0001
0000
,
0200
0001
0301
1000
,
0010
0000
1000
0100
0000
1000
0100
0000
,
1000
0000
0010
1000
0001
0000
0100
0000
,
0010
0000
0100
0001
0000
0100
0001
0000
,
1000
0000
0100
1000
0100
0000
1000
0001
,
1000
0000
0010
0100
0001
0000
1000
0000
,
0010
0100
0001
1000
,
0001
0000
0100
0000
0010
1000
0001
0000
,
1001
0100
0010
0100
,
0001
0000
0010
0001
0000
0010
0001
0000
,
1000
0010
0100
0001
,
1000
0000
0100
1000
0000
0100
1000
0000
,
0010
0000
0100
0001
0000
0000
0100
0000
,
0010
0000
1000
0001
1000
0000
0010
0000
,
0220
0000
0000
0330
,
0010
0100
0010
0100
0000
0001
1000
0000
,
2002
0000
0000
0000
,
0000
0000
0000
3003
;
