#TITLE:The Alternative Polka;
#SUBTITLE:;
#ARTIST:"Weird Al" Yankovic;
#TITLETRANSLIT:;
#SUBTITLETRANSLIT:;
#ARTISTTRANSLIT:;
#GENRE:Polka;
#CREDIT:;
#BANNER:The Alternative Polka.png;
#BACKGROUND:;
#LYRICSPATH:;
#CDTITLE:;
#MUSIC:The Alternative Polka.ogg;
#OFFSET:-0.080000;
#SAMPLESTART:94.474998;
#SAMPLELENGTH:15.000000;
#SELECTABLE:YES;
#BPMS:0.000000=172.000000
,16.000000=178.880005
,256.000000=175.500000
,272.000000=159.000000
,280.000000=170.949997
,392.000000=170.000000
,400.000000=168.500000
,461.000000=185.000000
,466.000000=182.000000
,514.000000=171.000000
,526.000000=170.000000
,527.000000=175.000000
,560.000000=180.000000
,562.000000=177.500000
,594.000000=181.600006
,654.000000=185.000000
,670.000000=188.000000
,782.000000=187.500000
,814.000000=183.000000
,826.000000=169.000000
,829.000000=350.000000
,829.500000=330.000000
,830.000000=325.000000
,830.500000=310.000000
,831.000000=300.000000
,831.500000=280.000000
,832.000000=260.000000
,832.500000=249.999985
,833.000000=240.000000
,833.500000=230.000000
,834.000000=180.000000
,834.500000=160.000000
,835.000000=140.000000
,835.500000=135.000000
,836.000000=132.000000
,838.000000=100.000000
,839.000000=110.000000
;
#STOPS:461.000000=2.150000
;
#BGCHANGES:;
#KEYSOUNDS:;
#ATTACKS:;

//---------------dance-single - ----------------
#NOTES:
     dance-single:
     :
     Hard:
     9:
     0.599099,0.616507,0.446869,0.615304,0.034375,1220.000000,1090.000000,130.000000,179.000000,8.000000,0.000000,0.599099,0.616507,0.446869,0.615304,0.034375,1220.000000,1090.000000,130.000000,179.000000,8.000000,0.000000:
// measure 0
0000
0000
0000
0000
,  // measure 1
0000
0000
0000
0000
,  // measure 2
0000
0000
0000
0000
,  // measure 3
0000
0000
0000
0000
,  // measure 4
0001
0100
1000
0100
0010
0100
0001
0000
,  // measure 5
1000
0010
0100
1000
0100
0010
0100
0000
,  // measure 6
0010
1000
0100
1000
0001
0010
0100
0000
,  // measure 7
0001
1000
0100
1000
0010
0100
0001
0000
,  // measure 8
1100
0000
0010
0000
0100
0010
1000
0002
,  // measure 9
0100
0000
0010
0000
0013
0100
0010
0100
,  // measure 10
1000
0001
1000
0001
0100
0000
1001
0000
,  // measure 11
0010
0100
0001
0100
0010
1000
0100
0000
,  // measure 12
0001
0100
0000
0001
0010
0200
1000
0000
,  // measure 13
0310
0000
0110
0000
0001
0100
0010
1000
,  // measure 14
0001
0100
0001
0010
0200
0000
0020
0000
,  // measure 15
0330
0000
0101
0000
1000
0010
1000
0100
,  // measure 16
0002
0100
2003
0010
,  // measure 17
0200
3300
0102
0013
,  // measure 18
1000
0010
1000
0200
0010
0000
1300
0001
,  // measure 19
0000
0001
1000
0001
0010
0010
0100
0010
,  // measure 20
1000
0200
0000
1000
0000
0310
0100
0000
,  // measure 21
1001
0000
0101
0000
0010
1000
0100
0100
,  // measure 22
1000
0000
0101
0000
0010
0100
0002
0000
,  // measure 23
0010
0010
0013
0000
1001
0000
0020
0000
,  // measure 24
0130
0000
1001
0000
0100
0001
1001
0000
,  // measure 25
0100
1000
1001
0000
0010
0010
0010
0000
,  // measure 26
0100
0001
0100
0001
0010
0010
1000
0000
,  // measure 27
0010
0001
1000
0100
0020
0000
0030
0000
,  // measure 28
1000
0020
0000
0130
0002
0000
0103
0020
,  // measure 29
0000
1030
0100
1000
0001
0000
1001
0000
,  // measure 30
0101
0000
0010
0100
0010
0000
1100
0000
,  // measure 31
0021
0000
0130
1000
0100
0010
0001
0000
,  // measure 32
1000
0100
1000
0020
0000
0130
0002
0000
,  // measure 33
2003
0000
0010
0000
3100
0100
0010
0001
,  // measure 34
1000
0000
0101
0010
0000
0010
0000
0000
,  // measure 35
1001
0000
1100
0010
0000
0010
0000
0000
,  // measure 36
1002
0000
0010
0000
0100
0000
0013
0100
,  // measure 37
2000
0010
0000
0100
0000
3010
0100
0010
,  // measure 38
1002
0000
0100
0000
1000
0000
0203
0010
,  // measure 39
0000
0001
0000
0320
0000
1000
0000
1030
,  // measure 40
0002
0000
0100
0000
0010
0000
0203
0010
,  // measure 41
0000
0302
0000
1000
0000
1000
0000
0013
,  // measure 42
0100
0000
0001
0000
1001
0000
1000
0100
,  // measure 43
0000
0001
0100
0000
0010
0200
0300
0000
,  // measure 44
0100
0101
0000
1000
0010
0000
0100
0001
,  // measure 45
0000
0010
0100
0000
1000
0001
1000
0200
,  // measure 46
0000
0300
0010
0100
0001
0000
1000
0100
,  // measure 47
0000
1000
0010
0000
0100
0002
0000
0003
,  // measure 48
0100
0010
0000
1000
0001
0000
0010
0100
,  // measure 49
0000
1000
0001
0000
1001
0100
0001
0010
,  // measure 50
0000
0000
0100
1000
0020
0000
0130
0002
,  // measure 51
0000
0013
0200
0000
1300
0001
1000
0001
,  // measure 52
0010
0000
1001
0000
0100
0001
0000
2100
,  // measure 53
0000
3020
0000
0130
0010
0000
0110
0000
,  // measure 54
0102
0010
2000
3003
,  // measure 55
2100
0010
0002
3003
,  // measure 56
0100
0020
0000
0030
1001
0000
1000
0001
,  // measure 57
0000
0001
1000
0020
0100
0030
0000
0000
,  // measure 58
0120
1000
0200
0330
,  // measure 59
1002
0010
0200
0303
,  // measure 60
1000
0200
0000
1300
0001
0000
0000
1001
,  // measure 61
0000
0200
0010
0010
0310
0000
0000
0000
,  // measure 62
1001
0110
0101
1100
,  // measure 63
0010
0100
0001
0100
1000
0100
0020
0000
,  // measure 64
1030
0000
0101
0000
1010
0000
0000
0001
,  // measure 65
0100
0010
0100
0001
2000
0000
3000
0000
,  // measure 66
0110
1001
0110
0000
,  // measure 67
0001
0100
1000
0100
0001
1000
0001
1000
,  // measure 68
0001
0000
0000
0000
,  // measure 69
0000
0000
0000
0000
0000
0000
0000
0100
,  // measure 70
0010
0000
0110
0000
1000
0100
1000
0001
,  // measure 71
0200
0000
0010
0000
0301
1000
0001
1000
,  // measure 72
0010
0000
0101
0000
1000
0100
1000
0001
,  // measure 73
0020
0100
0100
0000
0032
0000
1003
0000
,  // measure 74
0110
0000
1001
0000
0100
0001
0010
0010
,  // measure 75
0100
0000
2002
0000
3003
0000
0010
0001
,  // measure 76
1000
1000
0010
0100
0001
1000
0001
1000
,  // measure 77
0000
0010
0100
0000
MMMM
0000
0110
0000
,  // measure 78
0001
1000
0002
0000
0203
0000
0302
0000
,  // measure 79
0023
0000
0130
1000
0001
1000
0001
0000
,  // measure 80
0011
2010
3002
0203
,  // measure 81
0310
0100
0010
0000
MMMM
0000
0100
0001
,  // measure 82
0010
0020
0000
0000
2030
0000
3020
0000
,  // measure 83
0031
1000
0001
0100
0020
0000
0130
0002
,  // measure 84
0000
2003
3010
0101
,  // measure 85
1000
0100
1000
0010
0010
0100
0001
1001
,  // measure 86
0100
0001
1000
0000
0100
1000
0001
0000
,  // measure 87
0010
0100
0001
0000
0010
0100
1000
0000
,  // measure 88
0001
0100
0010
0000
1000
0100
0010
0000
,  // measure 89
1000
0001
0100
0010
0010
0000
0110
0000
,  // measure 90
2000
0000
0000
3100
0000
0000
0020
0000
0000
0130
0000
0000
0002
0000
0000
0013
,  // measure 91
0000
0000
0200
0000
0000
1300
0000
0000
1001
0000
0000
0000
1001
0000
0000
0000
,  // measure 92
0020
0000
0000
0031
0000
0000
2000
0000
0000
3010
0000
0000
0200
0000
0000
0000
,  // measure 93
0301
1000
0001
0020
0130
0000
1001
0000
,  // measure 94
0200
0000
0000
0301
0000
0000
2000
0000
0000
3010
0000
0000
0002
0000
0000
0013
,  // measure 95
0000
0000
0200
0000
0000
1300
0000
0000
0020
0000
0000
0000
1030
0000
0000
0000
,  // measure 96
0101
0000
1100
0000
0010
0100
0010
0000
,  // measure 97
1000
0001
0000
2002
0000
3003
0000
0000
,  // measure 98
0010
0100
0001
0000
1000
1000
1000
0000
,  // measure 99
0010
0100
1000
0000
0001
0001
0001
0000
,  // measure 100
0100
0001
0100
1000
0100
0001
1000
0100
,  // measure 101
0010
0001
0010
1000
0010
0001
0100
0010
,  // measure 102
2000
0000
3002
0000
1003
0000
0000
0220
,  // measure 103
0000
0330
0000
1000
0001
1000
0001
0000
,  // measure 104
0100
0001
0100
0010
1000
0100
0001
0100
,  // measure 105
1000
0010
0100
0001
0100
1000
0100
0010
,  // measure 106
1000
0001
0000
0001
1000
0100
0000
0010
,  // measure 107
0001
1000
0001
2000
0000
0010
3010
0000
,  // measure 108
2002
0000
3003
0000
0100
0001
0100
0010
,  // measure 109
2000
0000
3100
0000
0001
0001
0010
0000
,  // measure 110
0200
0000
2300
0000
3001
1000
0001
0000
,  // measure 111
0010
0010
0010
0000
1001
0000
1001
0000
,  // measure 112
0220
0000
0330
0000
0001
0100
0010
0001
,  // measure 113
0010
1000
0100
0010
0001
1000
0001
0000
,  // measure 114
1002
0000
0103
0010
0100
0001
1000
0000
,  // measure 115
0001
1000
1001
0000
0001
0100
0010
0000
,  // measure 116
1000
0100
0010
0000
1000
0001
0100
0010
,  // measure 117
2002
0000
3003
0000
0200
0000
0301
1000
,  // measure 118
0020
0000
0130
0001
1000
0100
1000
0010
,  // measure 119
0100
0010
0000
2002
0000
3003
0000
0100
,  // measure 120
0001
1000
0010
0010
0200
0000
0301
1000
,  // measure 121
0200
0000
0310
0001
1000
0010
0100
0010
,  // measure 122
1000
0100
0010
0002
1000
0000
1003
0000
,  // measure 123
0110
0000
1001
0000
0101
0000
0010
0001
,  // measure 124
0200
0000
0301
1000
0200
0000
0310
0000
,  // measure 125
0001
1000
0010
0020
0100
0000
0130
0000
,  // measure 126
1100
0000
0101
0000
0020
0000
1030
0100
,  // measure 127
0020
0000
0031
1000
0001
0000
1100
0000
,  // measure 128
0010
0000
0100
0000
0002
0000
1000
0000
1003
0000
0000
1000
0000
0000
1000
0000
,  // measure 129
0010
0000
0100
0000
0001
0000
0000
0000
0001
0000
0000
0001
0000
0000
0001
0000
,  // measure 130
0010
0000
0100
0000
1000
0000
0000
0000
0001
0000
0000
1000
0000
0000
0010
0000
,  // measure 131
0100
0010
1000
0000
0101
0000
0000
1010
,  // measure 132
0000
0100
0001
0010
0200
0000
1300
0000
,  // measure 133
0002
0000
0103
0000
0010
1000
0001
0100
,  // measure 134
0010
0100
0010
0000
1001
0000
0100
0001
,  // measure 135
0100
1000
0100
0020
0000
0000
0100
0000
,  // measure 136
0100
0100
2030
3001
,  // measure 137
0100
0010
0100
0000
0101
0000
1000
0020
,  // measure 138
0000
0100
0130
0000
0001
0100
1000
0100
,  // measure 139
0001
0010
0100
1000
0002
0000
1003
2000
,  // measure 140
0000
3010
0010
0100
0010
0000
0110
0000
,  // measure 141
1001
0000
0110
0000
0001
0100
0010
0200
,  // measure 142
0000
0301
1000
0001
0001
0000
1001
0000
,  // measure 143
0110
0000
1001
0000
0100
0010
1000
0200
,  // measure 144
0000
0301
0100
1000
0020
0000
0230
0000
,  // measure 145
0302
0000
2003
0000
3100
1000
0010
0100
,  // measure 146
0001
1000
0010
0100
0002
0000
2003
0000
,  // measure 147
3010
0100
0010
0100
2002
0000
0000
0000
,  // measure 148
3003
0000
0020
1000
,  // measure 149
0130
0000
0001
1000
0200
0000
0010
0000
,  // measure 150
1300
0001
1000
0000
0020
0000
0130
0001
,  // measure 151
2000
0000
3010
0100
0002
0000
1000
0000
,  // measure 152
0013
0100
1000
0001
0002
0000
0103
0000
,  // measure 153
1010
0000
0100
0001
0100
0000
1010
0000
,  // measure 154
0100
0001
0100
0000
1010
0000
1001
0000
,  // measure 155
0011
0000
0100
1000
0100
0000
0011
0000
,  // measure 156
0100
1000
0100
0000
0011
0000
1001
0000
,  // measure 157
0110
0000
1001
0000
0010
0001
0001
0100
,  // measure 158
0010
1000
0001
0100
0020
0000
1030
0000
,  // measure 159
0101
0010
0100
0010
2000
0000
3100
0000
,  // measure 160
0011
0000
0100
0010
2000
0000
3100
0010
,  // measure 161
0001
0100
0001
1000
0020
0000
0130
0001
,  // measure 162
1000
0100
0010
0001
2000
0000
0010
0000
,  // measure 163
0001
0000
3010
0000
0101
0000
0000
1010
,  // measure 164
0000
0000
0110
0000
0000
1002
0000
0000
,  // measure 165
0013
0100
0010
0000
0100
1000
0001
0000
,  // measure 166
2002
0000
3003
0000
0010
0100
0010
0000
,  // measure 167
0220
0330
0002
0103
,  // measure 168
0010
1000
0100
2000
0000
3001
0000
0100
,  // measure 169
0010
0110
0101
1100
,  // measure 170
0010
0010
0100
0020
0000
2030
0000
3001
,  // measure 171
1000
1001
0102
0010
,  // measure 172
0100
1003
2100
0010
,  // measure 173
0100
0000
3001
0000
0100
0001
0100
1000
,  // measure 174
0100
0001
0010
0100
1000
0010
0001
0010
,  // measure 175
1000
0001
1000
0000
0101
0000
0010
1000
,  // measure 176
0010
0100
0001
0020
0000
2030
0000
3010
,  // measure 177
0001
0000
1001
0000
0010
0100
0002
0000
,  // measure 178
0013
0100
1000
0001
0000
0101
0000
0010
,  // measure 179
1000
0001
1000
0000
1200
0000
0010
0000
,  // measure 180
0001
0310
1020
0100
,  // measure 181
0001
0000
0130
0000
0001
0100
0010
0001
,  // measure 182
0010
1000
0001
0100
0010
1000
0100
0001
,  // measure 183
0100
0100
0010
0100
0020
0000
0030
1000
,  // measure 184
0001
1000
0001
0010
0000
0101
0000
1100
,  // measure 185
0000
0010
0100
0001
1000
0001
0000
1000
,  // measure 186
0001
1000
0000
0010
0010
0100
0001
1000
,  // measure 187
0002
0203
0310
1100
,  // measure 188
0001
0100
0010
0100
0000
1010
0000
0011
,  // measure 189
0000
0100
0010
2000
0001
0000
3010
0100
,  // measure 190
0001
0100
0010
1000
0100
0000
0101
0000
,  // measure 191
1100
0010
0200
0001
,  // measure 192
0310
1000
0100
0020
0100
0000
1000
0000
,  // measure 193
0100
0032
1003
0101
,  // measure 194
0010
1000
0100
0020
0000
0200
0000
0000
,  // measure 195
0330
0000
1001
0000
0100
0001
0100
1000
,  // measure 196
0100
0001
0010
0100
1000
0001
1000
0001
,  // measure 197
0010
0000
0000
0220
0000
0000
0330
0000
,  // measure 198
0101
1100
0020
0230
,  // measure 199
0302
0023
0230
0000
,  // measure 200
2000
0300
0020
3000
,  // measure 201
0200
0030
0002
0300
,  // measure 202
2000
0003
0020
3000
,  // measure 203
0130
0000
0110
0000
0001
0100
1000
0100
,  // measure 204
0001
0000
0000
0001
0000
0000
0001
0000
1000
0000
0100
0000
0001
0000
0100
0000
,  // measure 205
1000
0000
0000
1000
0000
0000
1000
0000
0010
0000
0100
0000
0001
0000
0010
0000
,  // measure 206
0100
0000
0000
1000
0000
0000
0100
0000
0010
0000
0100
0001
0100
0000
0010
0000
,  // measure 207
0000
1100
0101
0000
0000
0000
0000
0000
,  // measure 208
0000
0000
0000
0000
,  // measure 209
0010
0100
0000
0001
0000
1000
0100
0000
0010
0000
0000
0000
2002
0000
0000
0000
,  // measure 210
0000
0000
0000
0000
,  // measure 211
3003
0000
0000
0000
;

//---------------dance-single - ----------------
#NOTES:
     dance-single:
     :
     Medium:
     6:
     0.423298,0.543977,0.343745,0.367808,0.006875,862.000000,762.000000,100.000000,107.000000,8.000000,0.000000,0.423298,0.543977,0.343745,0.367808,0.006875,862.000000,762.000000,100.000000,107.000000,8.000000,0.000000:
// measure 0
0000
0000
0000
0000
,  // measure 1
0000
0000
0000
0000
,  // measure 2
0000
0000
0000
0000
,  // measure 3
0000
0000
0000
0000
,  // measure 4
0001
0010
1000
0000
0010
0000
0001
0000
,  // measure 5
1000
0010
0001
0000
0010
0000
1000
0000
,  // measure 6
0001
0100
1000
0000
0100
0000
0001
0000
,  // measure 7
1000
0100
0001
0000
0100
0000
1000
0000
,  // measure 8
0020
1030
0200
0301
,  // measure 9
0001
1000
0100
0010
,  // measure 10
0001
0000
1000
0001
1000
0000
1000
0000
,  // measure 11
2200
0000
3300
0000
0001
0100
0001
0000
,  // measure 12
0001
0000
0000
0010
0000
0000
0100
0000
,  // measure 13
1000
0010
0100
0000
0001
0000
0001
0000
,  // measure 14
0001
1000
0010
0000
0100
0000
0001
0000
,  // measure 15
0202
0000
0303
0000
0001
0100
0010
1000
,  // measure 16
0002
0013
2000
3010
,  // measure 17
0200
0300
0010
0000
,  // measure 18
0110
1001
2002
3003
,  // measure 19
0001
0000
0100
0000
0001
0100
0001
0000
,  // measure 20
1000
0000
0100
0000
1000
0100
1000
0000
,  // measure 21
0010
0000
0100
0000
0010
0100
0010
0000
,  // measure 22
1000
0100
0001
0000
0100
0000
0010
0000
,  // measure 23
0001
1000
0010
0100
0001
0000
1001
0000
,  // measure 24
1000
0000
0010
0000
0100
0010
1000
0000
,  // measure 25
0001
0010
1000
0101
,  // measure 26
0010
1000
0010
0100
,  // measure 27
0100
0000
0001
1000
1000
0000
0000
0000
,  // measure 28
0100
1000
0000
0100
1000
0000
0100
1000
,  // measure 29
0000
0100
1000
0000
0010
0000
0100
0000
,  // measure 30
0001
0010
1000
0000
0010
0000
0001
0000
,  // measure 31
0200
0000
0301
0001
,  // measure 32
1000
0100
0010
0000
0100
0000
1000
0000
,  // measure 33
0002
0000
1003
0100
,  // measure 34
1010
0000
0000
0202
0000
0303
0000
0000
,  // measure 35
0011
0000
0000
2200
0000
3300
0000
0000
,  // measure 36
0001
0000
0001
0000
0010
0001
0000
0010
,  // measure 37
0001
0000
1000
0000
0010
1000
0000
0010
,  // measure 38
1000
0000
0100
1000
0001
0000
0001
0000
,  // measure 39
0010
1000
0010
0001
,  // measure 40
0200
0000
0300
0000
0001
0010
0001
0000
,  // measure 41
1000
0010
1000
0000
0100
0000
0110
0000
,  // measure 42
0110
0000
1000
0000
0001
0000
0001
1000
,  // measure 43
0000
1000
0001
0000
0001
2000
0000
0000
,  // measure 44
3010
0100
0000
0010
0100
0000
0010
0100
,  // measure 45
0000
0010
0100
0000
0010
0100
0010
0100
,  // measure 46
0000
0000
0011
0000
1010
0000
0000
0110
,  // measure 47
0000
0000
1001
0000
0000
1001
0000
0000
,  // measure 48
0010
0100
0000
0010
0100
0000
0010
0100
,  // measure 49
0000
0010
0100
0000
0010
0100
0010
0100
,  // measure 50
0000
0000
1100
0000
0101
0000
0000
0110
,  // measure 51
0000
1001
0001
1000
,  // measure 52
0001
0000
0000
0001
0010
0000
0000
0100
,  // measure 53
0000
0100
0000
0100
1000
0000
0001
0000
,  // measure 54
1100
0000
0000
0000
1000
0010
0100
0000
,  // measure 55
0011
0000
0100
0010
,  // measure 56
0100
0000
0000
0000
0100
0001
0000
0001
,  // measure 57
0000
0001
0010
0000
0100
0000
1000
0000
,  // measure 58
0101
0000
0001
0010
,  // measure 59
1100
0000
1000
0001
,  // measure 60
1000
0000
0000
0000
1000
0010
0000
0010
,  // measure 61
0000
0100
0001
1000
,  // measure 62
0110
1001
0110
1001
,  // measure 63
0001
0010
1000
0000
0010
0001
1000
0000
,  // measure 64
0001
0101
0202
0303
,  // measure 65
1000
1100
2200
3300
,  // measure 66
0010
0110
0220
0330
,  // measure 67
1001
0000
0001
1000
0001
0000
1000
0001
,  // measure 68
1000
0000
0000
0000
,  // measure 69
0000
0000
0000
0000
,  // measure 70
2002
0000
3003
0000
0001
0010
0100
1000
,  // measure 71
0001
0000
0001
0000
0000
1000
0010
0000
,  // measure 72
0220
0000
0330
0000
1000
0100
0001
0100
,  // measure 73
1000
0000
0001
1000
,  // measure 74
2002
0000
3003
0000
0001
0010
1000
0000
,  // measure 75
0010
0100
1000
0000
,  // measure 76
0001
0100
0010
0000
1000
0000
1000
0001
,  // measure 77
0000
0000
MMMM
0000
,  // measure 78
0020
0130
0200
0301
,  // measure 79
0001
1000
0100
0010
,  // measure 80
0100
1000
0001
0000
0000
0000
2002
0000
,  // measure 81
3003
0000
MMMM
0000
,  // measure 82
0001
0002
0000
0000
0003
0000
0100
0000
,  // measure 83
0010
1000
0100
0000
1000
0001
0100
0001
,  // measure 84
0000
0010
0100
1000
,  // measure 85
0002
0003
2200
3300
,  // measure 86
1000
0000
0000
0000
0100
0000
0000
1000
0000
0000
0100
0000
1000
0000
0000
0000
,  // measure 87
0001
0000
0000
0000
0100
0000
0000
0001
0000
0000
0100
0000
0001
0000
0000
0000
,  // measure 88
0100
0000
0000
0000
0010
0000
0000
0100
0000
0000
0010
0000
0100
0000
0000
0000
,  // measure 89
0110
0110
1001
0000
,  // measure 90
0002
0000
0000
0203
0000
0000
0302
0000
,  // measure 91
0000
0203
0000
0000
0310
0000
0110
0000
,  // measure 92
1000
1100
1000
1100
,  // measure 93
0001
1000
1001
0000
,  // measure 94
2000
0000
0000
3200
0000
0000
2300
0000
,  // measure 95
0000
3200
0000
0000
0310
0000
0110
0000
,  // measure 96
0001
0101
0001
0101
,  // measure 97
1000
0001
1001
0000
,  // measure 98
0001
0100
0001
0100
0001
0000
0001
0000
,  // measure 99
1000
0100
1000
0000
1000
0000
1000
0000
,  // measure 100
0001
1000
0001
1000
0001
1000
0001
0000
,  // measure 101
1000
0001
1000
0001
1000
0001
1000
0000
,  // measure 102
0020
0000
0000
0000
0130
0000
0000
2002
,  // measure 103
0000
3003
0000
0000
0001
0000
1000
0000
,  // measure 104
0010
0100
0010
0100
0010
0100
0010
0000
,  // measure 105
0100
0010
0100
0010
0100
0010
0100
0000
,  // measure 106
0001
0100
0000
0000
1000
0100
0000
0000
,  // measure 107
0010
0000
0000
1001
0000
0000
0100
0000
,  // measure 108
0002
0000
0003
0000
0010
0001
0100
0000
,  // measure 109
0010
1000
0100
0000
,  // measure 110
0100
0001
1000
0100
,  // measure 111
0110
1001
0000
0100
,  // measure 112
2000
0000
3000
0000
0010
1000
0100
0000
,  // measure 113
1000
0001
0100
0000
,  // measure 114
0001
0010
1000
0100
,  // measure 115
0001
0001
0001
0000
0002
0000
0003
0000
,  // measure 116
2000
3000
0001
1000
,  // measure 117
2002
3003
0001
0100
,  // measure 118
1000
0000
1000
0100
,  // measure 119
0001
0020
0000
0130
,  // measure 120
0110
0000
1000
0100
,  // measure 121
0001
0000
0001
0100
,  // measure 122
1000
0020
0130
1000
,  // measure 123
0100
0001
1000
0010
,  // measure 124
0100
0000
0001
0000
0010
0100
0010
0000
,  // measure 125
0001
1000
0200
0300
,  // measure 126
0022
0033
2020
3030
,  // measure 127
0220
0330
2002
3003
,  // measure 128
0001
0100
1000
0100
0001
0000
0000
0000
,  // measure 129
0010
0001
1000
0000
0000
0000
0000
0000
,  // measure 130
0010
1000
0001
0000
0100
0000
0100
0000
,  // measure 131
0010
0000
0010
0000
1001
0000
0000
1001
,  // measure 132
0000
0001
2000
0000
,  // measure 133
3100
0000
0001
0000
0100
0010
1000
0001
,  // measure 134
0000
0000
0000
0000
0001
1000
0001
0000
,  // measure 135
1000
0001
1000
0020
0000
0000
0000
0000
,  // measure 136
0100
0000
0130
0100
,  // measure 137
0001
0000
0000
0000
1000
0100
0010
0001
,  // measure 138
0000
0000
1000
0101
,  // measure 139
0001
0000
1100
0000
0010
0000
0010
0100
,  // measure 140
0000
1001
0002
0010
,  // measure 141
0103
0000
0010
0000
2000
0000
0000
0002
,  // measure 142
0000
3003
0100
0001
,  // measure 143
1000
1001
0010
0100
,  // measure 144
0110
0000
2000
0010
,  // measure 145
3100
0000
0010
0000
0002
0000
0000
2000
,  // measure 146
0000
3003
0020
0130
,  // measure 147
0101
1100
0020
0000
,  // measure 148
0130
0000
0001
0010
,  // measure 149
1000
0010
0001
0000
,  // measure 150
0000
0001
0001
0000
1000
0100
0000
0100
,  // measure 151
1000
0100
0000
0100
0020
0000
0000
0000
,  // measure 152
0130
0000
0001
0100
0000
0100
0001
0010
,  // measure 153
0100
0010
0001
1000
,  // measure 154
0001
1001
0001
0001
,  // measure 155
0001
0101
1000
1000
,  // measure 156
1000
1100
0020
0000
,  // measure 157
0130
0000
1000
1000
,  // measure 158
1000
1010
0001
0001
,  // measure 159
0001
0011
0200
0000
,  // measure 160
0300
0000
1000
0001
,  // measure 161
1000
1001
0001
1000
,  // measure 162
0001
1001
2002
0000
,  // measure 163
3003
0000
0000
0000
0010
0000
0010
0100
,  // measure 164
0000
0000
0001
0000
0001
1000
0000
0000
,  // measure 165
1001
0000
0000
0000
0001
1000
0001
0000
,  // measure 166
2000
0000
3000
0000
0010
0000
0100
0001
,  // measure 167
0010
0000
1000
0100
,  // measure 168
1000
0000
0100
1000
0000
2000
0000
0000
,  // measure 169
3000
0000
0001
0100
,  // measure 170
0001
0000
0100
0001
0000
0002
0000
0000
,  // measure 171
0003
0000
0012
0000
,  // measure 172
0100
0000
2003
0000
,  // measure 173
0100
0000
3010
0100
,  // measure 174
0010
0110
1000
0100
,  // measure 175
0001
0010
1000
0010
,  // measure 176
0100
0000
0000
0001
0000
0002
0000
0000
,  // measure 177
0003
0000
0001
0010
,  // measure 178
0100
0000
0000
1000
0000
2000
0000
0000
,  // measure 179
3000
0000
2100
0000
,  // measure 180
0010
0000
3002
0000
,  // measure 181
0010
0000
0103
0010
,  // measure 182
1000
0100
0010
0001
,  // measure 183
1100
0000
0101
0000
1000
0000
0000
1000
,  // measure 184
0100
0010
0000
0001
0000
0100
0000
0010
,  // measure 185
0000
1100
0000
0000
0002
0000
0003
0000
,  // measure 186
2000
3000
0001
1000
,  // measure 187
2002
0000
3003
0000
0001
0010
0000
0000
,  // measure 188
1000
0010
0000
0100
0000
0010
0000
0100
,  // measure 189
0000
0110
0000
0000
0001
0100
1000
0000
,  // measure 190
0001
0100
1000
0000
0010
0000
0100
0000
,  // measure 191
2002
3003
1000
0010
,  // measure 192
0010
0100
0000
0001
0010
0000
1000
0000
,  // measure 193
0101
0000
1000
0001
,  // measure 194
0100
0010
0000
1000
0001
0000
0100
0000
,  // measure 195
1010
0000
0002
0013
,  // measure 196
2000
0000
3010
0000
0100
0001
1000
0000
,  // measure 197
0100
1000
0001
0010
0000
0000
0000
0000
,  // measure 198
2000
3001
0020
1030
,  // measure 199
0200
0310
0020
0000
,  // measure 200
0000
0000
0230
0000
,  // measure 201
0000
0000
0302
0000
,  // measure 202
0000
0000
2003
0000
,  // measure 203
0000
0000
3010
0110
,  // measure 204
0110
0000
0100
0110
,  // measure 205
0110
0000
0110
0110
,  // measure 206
0110
0000
0001
1000
,  // measure 207
0000
1001
0000
0000
,  // measure 208
0000
0000
0000
0000
,  // measure 209
0001
0000
0000
0100
0000
0000
1000
0000
0010
0000
0000
0000
0020
0000
0000
0000
,  // measure 210
0000
0000
0000
0000
,  // measure 211
0030
0000
0000
0000
;

//---------------dance-single - Impossible----------------
#NOTES:
     dance-single:
     :
     Challenge:
     10:
     0.998826,1.051689,1.024361,0.278434,0.699522,2034.000000,1736.000000,298.000000,81.000000,359.000000,0.000000,0.998826,1.051689,1.024361,0.278434,0.699522,2034.000000,1736.000000,298.000000,81.000000,359.000000,0.000000:
// measure 0
0000
0000
0000
0000
,  // measure 1
0000
0000
0000
0000
,  // measure 2
0001
0000
1100
0010
0100
0000
0011
22MM
,  // measure 3
0000
0000
3300
1001
,  // measure 4
0001
0010
0001
1000
0100
0010
1MM1
0000
,  // measure 5
0001
0010
1000
0010
0100
1000
M101
0000
,  // measure 6
0010
1000
0100
0001
0100
0010
0M11
0000
,  // measure 7
1010
0000
0000
0000
0100
0000
0010
0000
0000
0000
1000
0100
0001
0100
1000
0000
,  // measure 8
0010
0101
110M
0000
0001
0010
0100
2000
,  // measure 9
0000
0000
0100
0000
3010
0000
0100
0001
0010
0000
0100
0000
1001
0000
0000
0000
,  // measure 10
1010
0000
0000
0000
M100
0001
0020
0000
0100
0000
0000
0000
1000
0000
1030
0000
,  // measure 11
0010
0100
1000
0101
M001
0010
0100
0000
,  // measure 12
M001
0000
0010
0001
0100
0000
0010
0000
1000
0000
2100
0000
0000
0000
3010
0000
,  // measure 13
0100
0001
0010
0000
0100
0000
1000
0000
0100
0000
0010
0000
0M11
0000
1000
0000
,  // measure 14
0010
0101
0000
0010
1100
0001
2000
0000
,  // measure 15
3100
0010
0001
0010
0100
0000
1000
0000
0101
0000
1100
0000
0010
0000
1MM1
0000
,  // measure 16
0001
0010
1M00
0000
1M00
0010
0M01
0000
,  // measure 17
1100
0000
0101
0000
0110
0000
0000
0000
1000
0100
0010
0001
1000
0000
0000
0000
,  // measure 18
MM01
0010
0001
0000
1000
0100
0020
0000
0001
0000
0000
0000
1000
0000
0000
0000
,  // measure 19
0130
1000
0101
1100
0010
1100
0001
0010
,  // measure 20
M001
0000
0000
0100
0001
0000
0010
0000
0000
0000
11MM
0000
0000
0000
0001
0010
,  // measure 21
1000
0010
0100
1000
0011
M001
0010
M100
,  // measure 22
0002
0000
0000
0000
1003
0000
0000
0000
1000
0100
0010
0000
0100
0000
1001
0000
,  // measure 23
0001
0000
0000
0010
0001
0000
1100
0000
1M01
0000
0000
0000
0001
0000
0010
0001
,  // measure 24
M010
0000
0100
0000
1000
0000
0001
0100
0010
0000
1100
0000
0001
0000
0000
0100
,  // measure 25
0001
0000
0010
0000
M002
0000
0000
0103
0100
0000
0010
0000
1001
0000
0000
0001
,  // measure 26
0010
0000
1000
0000
0100
0000
1000
0010
0100
0000
0001
0000
0011
0000
0000
0000
,  // measure 27
2100
0000
0000
3001
1000
0000
0010
0000
M101
0000
M101
0000
110M
0000
110M
0000
,  // measure 28
0010
1000
0100
0000
1000
0000
0010
0100
0001
0000
0001
0000
M010
0001
0100
0000
,  // measure 29
0010
0000
1000
0000
0100
1000
0001
0000
0100
0001
M010
0000
0100
0000
1000
0000
,  // measure 30
11MM
0000
0000
0000
001M
1000
0100
0000
100M
0010
0100
0000
001M
0000
11M0
0000
,  // measure 31
M202
0000
0000
0000
0303
0000
0000
0000
0001
0010
1M00
0010
0001
0000
0100
0000
,  // measure 32
0110
0000
0000
0000
11M0
0000
M101
0000
0001
0000
0010
0000
0001
0010
0100
1000
,  // measure 33
020M
0000
03M0
1100
0010
0100
0101
0000
,  // measure 34
0M11
0000
11MM
1100
0000
1M01
0000
0000
,  // measure 35
101M
0000
0000
0000
M1M1
0000
0101
0000
0000
0000
1M01
0000
0001
1000
0001
0100
,  // measure 36
0020
0000
0100
0000
M130
0000
0000
0000
0M11
0000
0000
0000
1000
0100
1000
0010
,  // measure 37
0100
M000
0001
0011
0000
1010
0100
0010
,  // measure 38
0020
0000
1000
0000
1M30
0000
0000
0000
0001
0010
1000
0000
0010
0000
0100
0000
,  // measure 39
100M
0000
0000
0000
0001
0000
0101
0000
M000
0000
0011
0000
1000
0000
0100
1000
,  // measure 40
0020
0000
0100
0000
0130
0000
0001
0010
0001
0000
1000
0000
0010
0100
0001
0000
,  // measure 41
M010
0000
0011
0000
0000
0000
1010
0000
0100
0010
0100
0000
0110
0000
1001
0000
,  // measure 42
0001
0010
100M
0010
M001
0000
01M1
110M
,  // measure 43
1000
0000
0010
0100
0001
0000
0001
0000
1100
0000
1M01
0000
0000
0000
M00M
0000
,  // measure 44
0110
0000
0001
0000
0010
0000
1100
0000
1000
0010
0100
0000
0001
0000
1M01
0000
,  // measure 45
0000
0000
0001
0010
1000
0000
0000
0000
M11M
0000
0100
0000
0010
0001
M100
0000
,  // measure 46
0000
0000
1000
0010
0100
0000
0010
0000
M110
0000
0000
0001
0010
0000
0011
0000
,  // measure 47
1000
0000
0010
0000
1010
0000
0100
0010
010M
0000
0220
0000
0330
0000
0MM0
0000
,  // measure 48
1001
0000
1000
0100
1000
0000
0010
0000
0100
0001
0010
0000
0100
0000
1001
0000
,  // measure 49
0010
0000
M100
0001
0010
0000
0100
0000
1000
0001
0010
0000
0100
1000
0010
0100
,  // measure 50
M001
0000
0000
0000
M011
0000
0100
0010
0100
0000
0000
0000
110M
0000
M101
0000
,  // measure 51
0001
0010
1000
0010
0001
0000
1000
0000
0101
0000
1000
0000
0001
0000
M010
0000
,  // measure 52
0000
0000
2100
0000
0000
0000
0001
0000
3010
0000
0100
0010
M10M
0000
0110
0000
,  // measure 53
0000
0000
0001
0010
1000
0010
0001
0100
0010
0000
000M
0110
0000
0000
0100
0000
,  // measure 54
0002
0000
0010
0000
M100
0000
0000
0000
M103
0000
0000
0010
0100
0001
0010
0100
,  // measure 55
1000
0000
0100
0000
MM11
0000
0000
0000
0010
0001
0100
0000
0010
0000
1000
0000
,  // measure 56
0101
0000
0000
0001
M010
0000
0001
0000
1100
0000
1000
0010
0100
0000
0001
0000
,  // measure 57
M000
0000
0011
0000
1000
0010
0100
0001
0010
0000
0100
0000
1001
0000
0M00
0000
,  // measure 58
0002
0000
0010
0000
M103
0000
0010
0100
M001
0000
0010
0000
010M
0000
1000
0000
,  // measure 59
200M
0000
0010
0000
3010
0000
000M
0000
1000
0010
0100
0010
1000
0100
0010
0001
,  // measure 60
0010
0011
11MM
1000
0010
0110
0000
1MM1
,  // measure 61
0000
0000
1000
0100
0010
0100
1000
0000
0101
0000
0000
0000
0000
0000
0000
0000
,  // measure 62
110M
0010
M101
0010
M011
0100
101M
0100
,  // measure 63
1000
0001
0010
0000
M100
0001
0010
0001
0100
0000
0010
1000
010M
1000
0010
0100
,  // measure 64
0010
0000
0000
0000
1001
0000
0100
0000
1001
0000
0010
0000
0010
0000
0010
0100
,  // measure 65
M001
0000
0000
0000
0011
0000
0100
0000
1100
0000
1000
0000
1000
0000
0100
1000
,  // measure 66
010M
0000
0000
1000
0010
0000
0100
0000
011M
0000
1000
0000
1000
0000
0001
0100
,  // measure 67
0010
0000
1000
0100
001M
0100
1000
0000
0100
0000
0010
0000
1100
0000
0101
0000
,  // measure 68
0010
M10M
0000
M10M
,  // measure 69
0000
0000
0000
0000
M10M
0000
0000
0000
0000
0000
0000
0000
M10M
0000
0000
0100
,  // measure 70
0001
0000
1100
0000
0010
0000
M00M
0010
0100
0000
0100
0000
1000
0001
1000
0000
,  // measure 71
0001
0000
0100
0000
M110
0000
0000
0001
0010
0000
0011
0000
101M
0000
0100
0010
,  // measure 72
1000
0000
0100
0000
MM11
0000
0000
0001
0010
0100
1000
0000
0001
0000
1100
0000
,  // measure 73
0001
0000
0001
0010
M001
0010
0100
0010
1000
0010
0001
1000
0001
0000
1000
0000
,  // measure 74
1001
0000
0M10
0000
1001
0000
0000
0001
1000
0010
0100
0000
0011
0000
1000
0000
,  // measure 75
0100
0000
0110
0000
2002
0000
0000
0000
0MM0
0000
3003
0000
0MM0
0000
0000
0001
,  // measure 76
1000
0000
0010
0000
0101
0000
0010
0001
0100
0000
1010
0000
0101
0000
1001
0000
,  // measure 77
0000
0000
0001
0010
1000
0000
0010
0000
MMMM
0000
0001
0000
1000
0100
0010
0000
,  // measure 78
0001
0010
0100
0000
M00M
0000
0110
0000
1001
0000
0000
0001
0MM1
0000
0000
1000
,  // measure 79
1000
0000
0010
0000
0101
0000
0001
0010
1000
0000
0010
0000
1100
0000
0001
0000
,  // measure 80
0101
0000
0010
0000
1001
0000
0M00
0000
0010
0001
0000
0100
0001
0000
0010
0000
,  // measure 81
1000
0000
0101
0000
1100
0000
0010
0000
MMMM
0000
1001
0000
0001
0010
1000
0000
,  // measure 82
0010
0001
0020
0000
0000
0000
1000
0000
013M
0000
1000
0001
0100
0000
0110
0000
,  // measure 83
M00M
0000
0110
0000
0001
0010
1000
0000
0010
0001
0100
0010
1000
0000
0110
0000
,  // measure 84
0000
0000
M001
0010
0100
0000
0011
0000
1010
0000
0010
0000
0110
0000
0000
0000
,  // measure 85
M001
0000
1000
0010
0100
0000
0011
0000
1010
0000
0100
0010
0100
0000
1001
0000
,  // measure 86
0001
0000
0011
0000
M001
0000
0010
0100
000M
0110
0000
0010
M100
0000
0110
0000
,  // measure 87
1000
0000
1100
0000
M101
0000
0001
0010
M000
0011
0000
0001
M010
0000
0110
0000
,  // measure 88
1100
0000
1000
0010
010M
0000
0001
0010
M000
0011
0000
0100
M001
0000
0101
0000
,  // measure 89
0010
1000
0100
0010
0001
0100
0001
0010
1000
0000
0011
0000
1010
0000
0000
1000
,  // measure 90
0002
0000
0010
0000
0103
0000
0020
0000
1000
0000
0130
0000
1000
0100
0010
0000
,  // measure 91
0001
0000
0011
0000
21MM
0000
0000
0000
301M
0000
0000
0010
M10M
0000
0000
0000
,  // measure 92
0001
0010
1000
0000
0011
0000
0100
0010
1000
0000
0101
0000
1001
0000
0MM0
0000
,  // measure 93
0001
0100
1000
0100
0010
1000
0100
0010
0001
0000
0000
0000
10M1
0000
0000
0010
,  // measure 94
0001
0000
0001
0000
M011
0000
0010
0100
1000
0000
110M
0000
1000
0010
0100
0000
,  // measure 95
00M1
0000
1000
0000
0011
0000
M000
0000
0001
0010
1000
0010
0100
0000
1000
0100
,  // measure 96
1000
0000
0001
0000
M011
0000
0001
0000
0100
0010
1000
0000
110M
0000
0110
0000
,  // measure 97
0011
1000
0001
2MM2
0000
0000
3003
0000
,  // measure 98
0M01
0000
0001
0010
1M00
0010
0001
0000
1M00
0010
0001
0010
1M00
0000
0000
0000
,  // measure 99
10M1
0000
1000
0100
00M1
0100
1000
0000
00M1
0100
1000
0100
00M1
0000
0001
0010
,  // measure 100
0001
0000
0010
0001
0010
0000
0100
1000
0010
0000
0100
0001
0010
0000
0001
1000
,  // measure 101
0100
0000
1000
0010
0100
0000
0001
1000
0010
0000
0100
0000
0011
0000
1100
0000
,  // measure 102
0002
0000
2000
0000
0MM0
0000
3003
0000
0001
0010
0100
1000
0001
0000
2MM2
0000
,  // measure 103
0000
0000
3003
0000
0000
0000
0001
0010
1000
0000
0011
0000
1M10
0000
1000
0000
,  // measure 104
0100
0000
1000
0010
0100
0000
0010
0001
0010
0000
0100
0001
0010
0000
0100
1000
,  // measure 105
0001
0000
0010
0100
1000
0000
0001
0010
0001
0000
0100
0010
1000
0010
0100
0001
,  // measure 106
0010
0000
MM11
0000
0000
0000
1000
0100
0010
0000
M11M
0000
0000
0000
1000
0001
,  // measure 107
0100
0000
0011
0000
0000
0000
11MM
0000
0000
0000
0001
0010
1000
0000
0000
0000
,  // measure 108
M022
0000
0000
0000
0033
0000
0001
0010
0100
0000
1000
0000
0101
0000
0010
0000
,  // measure 109
0101
0000
2000
0000
00M0
0000
3100
0000
1000
0100
0010
0000
0001
0000
1100
0000
,  // measure 110
0002
0000
0000
0000
0013
0000
M000
0010
0001
0010
0100
0000
1000
0000
0001
0000
,  // measure 111
1100
0000
0010
0200
0020
0000
M00M
0000
0330
0000
0001
0010
1000
0000
0011
0000
,  // measure 112
202M
0000
0000
0000
3030
0000
0010
0100
0001
0000
0011
0000
1000
0100
0010
0000
,  // measure 113
1000
0000
0101
0000
M000
0000
0101
0000
M001
0010
0100
0010
0001
0000
1000
0100
,  // measure 114
0010
0100
1000
0000
0001
0010
0100
0000
1000
0001
1MM0
0000
0001
0000
0010
0000
,  // measure 115
0011
0000
1100
0000
1002
0000
0000
0000
M013
0001
0010
0100
1000
0000
0000
0000
,  // measure 116
0010
0100
0001
0010
1000
0000
0000
0000
0M01
0010
0000
1000
0010
0000
1100
0000
,  // measure 117
0202
0000
0000
0000
0303
0000
0001
0000
1000
0000
0010
1000
001M
0000
0100
0000
,  // measure 118
0010
0000
0100
0001
0010
0000
0100
0000
1000
0000
0001
0010
1000
0000
0010
0000
,  // measure 119
010M
0000
1000
0010
0100
0001
0010
0000
22MM
0000
0000
0000
3300
0000
0000
0000
,  // measure 120
0001
0010
0001
0100
0010
1000
0100
0010
0001
0000
0000
0001
M010
0000
0001
0000
,  // measure 121
0100
0000
0010
1000
0100
0000
1000
0001
0100
0000
0010
0000
0101
0000
0000
0000
,  // measure 122
1000
0100
0010
0000
0001
0000
2002
0000
0MM0
0000
0000
0000
3003
0000
0000
0000
,  // measure 123
0010
1000
0100
1000
0001
0010
1000
0010
0100
0000
0000
0000
0100
1000
0010
0100
,  // measure 124
0001
0000
0000
0001
0100
0000
0010
0000
1100
0000
0000
0000
0001
0100
0000
0100
,  // measure 125
0001
0010
0001
0100
2M2M
0000
3030
0000
,  // measure 126
0001
0010
0001
0100
0010
1000
0100
0010
0100
0000
0000
0100
100M
0000
0000
1000
,  // measure 127
0001
0000
0000
0001
M010
0000
0000
0010
0001
0000
0000
0000
1100
0000
0001
0000
,  // measure 128
0100
0010
1000
0001
0100
0001
0010
0100
1000
0000
0000
0000
0101
0000
0000
0001
,  // measure 129
0010
0001
0100
0010
1000
0000
0000
1000
0010
0000
0100
0000
0011
0000
0000
0001
,  // measure 130
0010
0001
0010
0100
1000
0000
0001
0000
1100
0000
0001
0100
0001
0000
0010
0000
,  // measure 131
M001
0010
0100
0000
0010
0000
0001
0000
1100
0000
100M
0000
1000
0000
0101
0000
,  // measure 132
M001
0000
0001
0010
0001
0010
0100
1000
0001
0000
0010
0001
0010
0000
0001
0000
,  // measure 133
1100
0000
000M
0000
0000
0000
1000
0001
0010
0000
0001
0000
1100
0000
0101
0000
,  // measure 134
0000
0000
0001
0000
1000
0000
0110
0000
0001
0010
1000
0010
0001
0000
0100
0000
,  // measure 135
0010
0100
0010
0020
000M
1000
0100
0001
,  // measure 136
0100
0000
1000
0000
0100
0000
1030
0000
0101
0000
M000
0000
0001
0010
0001
0000
,  // measure 137
0100
0000
0010
0000
1100
0000
0000
0000
0001
0100
0010
0000
1000
0000
1100
0000
,  // measure 138
0000
0000
0101
0000
M001
0010
0001
0000
0100
0000
0010
0000
1000
0000
0000
0000
,  // measure 139
0101
0000
0001
0010
1000
0010
0100
0000
100M
0000
0000
0000
M1M1
0000
1M1M
0000
,  // measure 140
0000
0000
0001
0010
0001
1000
0010
0100
0001
0000
0001
0000
M011
0000
0001
0000
,  // measure 141
0010
0100
100M
0100
0010
0100
1000
0000
0001
0000
110M
0000
0001
0000
2000
0000
,  // measure 142
0000
0000
3010
0100
0010
0000
0000
0000
0101
0000
0010
0000
0101
0000
0000
0000
,  // measure 143
1000
0010
010M
0010
1000
0010
0100
0000
0001
0000
MM11
0000
0010
0000
011M
0000
,  // measure 144
0100
0000
11M0
0000
0001
0000
1000
0000
0010
0100
0001
0010
M100
0000
0010
0000
,  // measure 145
0001
0010
1000
0010
0001
0100
1000
0100
0001
0000
1000
0000
1100
0000
0101
0000
,  // measure 146
0000
0000
0010
0000
0010
0000
0000
0000
1000
0000
0000
1000
00M1
0000
0000
0001
,  // measure 147
0010
0000
0001
0010
0100
1000
0010
0000
0220
0000
M00M
0000
0330
0000
0000
0000
,  // measure 148
0001
0010
0001
0000
1000
0010
1000
0000
0020
0000
0000
0000
M030
0000
0100
0010
,  // measure 149
1000
0000
0001
0000
0000
0000
MM11
0000
0000
0000
0001
0010
1000
0000
0010
0000
,  // measure 150
0100
0000
1000
0000
0101
0000
0000
0000
M002
0000
0000
0000
0013
0001
0100
0000
,  // measure 151
002M
0000
0000
0000
1030
0100
0010
0000
M200
0000
0000
0000
0000
0000
0000
0000
,  // measure 152
1300
0000
1100
0000
0101
0000
0000
0000
0001
0010
0001
0000
1000
0010
1000
0000
,  // measure 153
0010
0000
0100
0220
M00M
0000
0330
0000
,  // measure 154
0001
0100
1000
0100
0001
0000
00M0
0000
1000
0010
0100
0010
100M
0010
0100
0010
,  // measure 155
1000
0000
0001
0000
1001
0000
0000
0000
0001
0010
0100
0010
M001
0010
0100
0010
,  // measure 156
0001
1000
0001
0000
1000
0000
0000
0000
0010
0000
0102
0000
0000
0000
0103
0000
,  // measure 157
1000
0000
0100
0000
0010
0000
0000
0000
0010
0001
0010
1000
0M10
0001
0010
1000
,  // measure 158
0010
0000
0001
0000
1000
0000
0000
0000
0100
1000
0100
0001
01M0
1000
0100
0001
,  // measure 159
0100
0010
0001
1000
0220
0000
0330
0000
,  // measure 160
0001
0010
0100
0000
0010
0000
0000
0000
0001
0010
0100
0010
M001
0010
0100
1000
,  // measure 161
0001
0000
1000
0000
1001
0000
0000
0000
1000
0010
0100
0010
100M
0100
0010
0001
,  // measure 162
1000
0001
1001
0000
2MM2
0000
0MM0
0000
,  // measure 163
0MM0
0000
0000
0000
3MM3
0000
0000
0000
0001
0000
1010
0000
0000
0000
0100
0001
,  // measure 164
0010
0000
0100
0000
1000
0001
1000
0000
0010
0000
0202
0000
0000
0000
0303
0000
,  // measure 165
0001
0000
0010
0000
11MM
0000
0000
0000
1000
0010
0100
0010
1000
0000
0000
0000
,  // measure 166
0101
0000
0000
0000
M000
0000
0000
0000
0011
0000
0000
0000
0001
0010
1000
0010
,  // measure 167
0200
0000
0000
0000
0310
0000
0001
0010
0001
0000
0100
0000
0010
0000
1000
0000
,  // measure 168
M1M1
0000
0000
0000
0001
0000
0101
0000
1000
0000
0010
1000
0100
0010
0001
0000
,  // measure 169
1000
0000
0001
0000
M011
0001
0100
0010
,  // measure 170
1000
0100
0010
0000
010M
1000
0010
0000
000M
0000
0110
0000
1010
0000
0100
0000
,  // measure 171
0101
0000
0000
0000
M001
0000
0010
0001
0020
0000
0100
0000
1000
0000
0100
0000
,  // measure 172
0031
0000
0001
0010
1000
0010
0100
0000
2000
0000
0010
0000
0100
0000
0001
0000
,  // measure 173
3010
0000
0001
0100
0010
1000
0001
0000
0001
0010
0001
0010
0100
1000
0100
1000
,  // measure 174
0010
0100
0010
0100
0001
0000
1000
0000
1001
0000
0000
0000
M011
0000
0000
0000
,  // measure 175
101M
0000
0000
0100
0010
0000
1001
0000
0001
0000
0010
0000
0001
0010
0100
0000
,  // measure 176
1000
0000
0010
0000
0100
0000
01M1
0000
0000
0000
0001
0010
0100
0010
1000
0000
,  // measure 177
0110
0000
0000
0000
0001
0000
1000
0000
1MM1
0000
0000
0000
0001
0010
0100
0000
,  // measure 178
1000
0000
0110
0000
1000
0000
0MM1
0000
0000
0000
0001
0010
0001
0000
0100
0000
,  // measure 179
0110
0000
0000
0000
0001
0010
1000
0000
0002
0000
0010
0000
0100
0000
0010
0000
,  // measure 180
1003
0000
0010
0100
0010
0000
0100
0000
0020
0000
1000
0000
0100
0000
0001
0000
,  // measure 181
0130
0000
0010
0100
0001
0010
0100
0000
1000
0001
1000
0001
0010
0100
0010
0100
,  // measure 182
1000
0010
0100
0001
1000
0100
0010
0001
1000
0000
0001
0000
0010
0000
0100
0000
,  // measure 183
1100
0000
0101
0000
0110
0000
0000
0000
200M
0000
0000
0000
3100
0000
0001
0100
,  // measure 184
0001
0000
0010
0000
1100
0000
0101
0000
0000
0000
0001
0010
M100
0000
0010
0000
,  // measure 185
0000
0000
0001
1000
0010
0000
0100
0010
0100
0000
0101
0000
0000
0000
1000
0010
,  // measure 186
010M
0000
1010
0000
0000
0000
0001
0010
0100
0000
1001
0000
0110
0000
0000
0001
,  // measure 187
0010
0000
0011
0000
1010
0000
0000
0000
0120
0000
0000
0000
0130
0000
0000
0001
,  // measure 188
M010
0001
0010
0100
0000
1100
0001
0101
,  // measure 189
0000
0000
0001
0010
0001
0000
1000
0000
0010
0100
0010
0100
0001
0100
0001
0100
,  // measure 190
0001
1000
0001
1000
0100
1000
0100
1000
010M
0000
0010
0000
0110
0000
0000
0001
,  // measure 191
0100
0000
0010
0000
1100
0000
1000
0000
0001
0000
0000
0001
M010
0000
0001
0000
,  // measure 192
0010
0100
0010
0000
0100
0000
1100
0000
0000
0000
0001
0010
M001
0000
0010
0100
,  // measure 193
0010
0000
0100
0000
1100
0000
0000
0000
0002
0000
0000
0013
0001
0000
1000
0000
,  // measure 194
0020
0000
0000
0130
0010
0000
0110
0000
0000
0000
2002
0000
0MM0
0000
3003
0000
,  // measure 195
0001
0010
0001
1000
0010
1000
0100
0000
,  // measure 196
0011
0000
1000
0010
0100
0000
0001
0000
0000
0000
1100
0000
0001
0000
0100
0000
,  // measure 197
0010
0101
1100
2M02
0000
0000
3003
0000
,  // measure 198
1001
0000
0000
0001
0010
0000
0000
0100
0001
0000
0000
0100
1000
0000
0000
0010
,  // measure 199
0100
0000
0101
0000
1000
0000
1100
0000
0001
0010
0001
0010
M001
0000
0010
0000
,  // measure 200
0001
0000
0000
0010
0000
0000
0100
0000
0010
0100
0010
0100
001M
0000
0100
0000
,  // measure 201
0010
0000
0000
0100
0000
0000
1000
0000
1000
0001
1000
0001
1MM0
0000
0001
0000
,  // measure 202
1000
0000
0000
0010
0000
0000
0100
0000
0001
1000
0001
1000
0MM1
0000
1000
0000
,  // measure 203
0010
0000
0000
0100
0000
0000
0001
0000
1000
0000
0010
0100
0001
0000
0001
0000
,  // measure 204
MM11
0000
0000
MM11
0000
0000
MM11
0000
1000
0000
0010
0100
0001
0000
0010
0000
,  // measure 205
11MM
0000
0000
11MM
0000
0000
11MM
0000
1000
0000
0001
0010
0100
0000
0110
0000
,  // measure 206
1MM1
0000
0000
1MM1
0000
0000
1MM1
0000
0001
0000
1000
0010
1000
0000
0101
0000
,  // measure 207
0001
0010
1000
0000
4MM4
0000
0MM0
0000
0MM0
0000
0MM0
0000
0MM0
0000
0MM0
0000
,  // measure 208
0MM0
0MM0
0MM0
0MM0
0MM0
0MM0
0MM0
3003
,  // measure 209
0001
0011
0000
1010
0000
0100
0010
0000
0110
0000
0000
0000
4MM4
0000
0MM0
0000
,  // measure 210
0MM0
0MM0
0MM0
0MM0
0MM0
0MM0
0MM0
3MM3
,  // measure 211
1MM1
0000
0000
0000
;
