#TITLE:The Alternative Polka;
#SUBTITLE:(New Charts);
#ARTIST:"Weird Al" Yankovic;
#TITLETRANSLIT:;
#SUBTITLETRANSLIT:;
#ARTISTTRANSLIT:;
#GENRE:;
#CREDIT:;
#MUSIC:The Alternative Polka.ogg;
#BANNER:;
#BACKGROUND:;
#CDTITLE:;
#SAMPLESTART:10.942;
#SAMPLELENGTH:12;
#SELECTABLE:YES;
#OFFSET:-0.078;
#BPMS:0.000=172.000
,16.000=178.880
,95.000=180.000
,96.000=185.000
,98.000=178.880
,99.000=170.000
,100.000=178.880
,224.000=175.500
,236.000=178.000
,238.000=172.500
,242.000=181.800
,256.000=182.500
,276.000=185.000
,292.000=188.000
,372.000=187.500
,404.000=183.000
,416.000=169.000
,419.000=160.000
,420.000=170.000
,421.000=178.000
,422.000=160.000
,423.000=150.000
,423.500=102.000
,424.000=132.000
,426.000=100.000
,427.000=111.000
;
#STOPS:;
#BGCHANGES:;
#FGCHANGES:;

//--------------- dance-single - ----------------
#NOTES:
     dance-single:
     :
     Beginner:
     3:
     0,0,0,0,0:
0000
0000
0000
0000
,
0000
0000
0000
0000
,
0000
0000
0000
0000
,
0000
0000
0000
0000
,
0001
0000
1000
0000
,
0001
0000
0010
0000
,
1000
0000
0001
0000
,
1000
0000
0100
0000
,
1001
0000
0000
0001
,
0001
0000
0000
0000
,
0110
0000
0000
1000
,
1000
0000
0000
0000
,
0001
0000
0010
0000
,
0001
0000
0010
0000
,
1000
0000
0010
0000
,
1000
0000
0010
0000
,
2000
0000
3000
0000
,
0002
0000
0003
0000
,
2002
0000
0000
0000
,
3003
0000
0000
0000
,
1000
0000
0100
0000
,
1000
0000
0010
0000
,
0001
0000
0100
0000
,
0001
0000
0010
0000
,
1000
0000
0001
0000
,
1000
1000
1000
0000
,
0001
0000
1000
0000
,
0001
0001
0001
0000
,
1000
0000
0001
0000
,
1000
0000
0001
0000
,
0100
0000
0100
0100
,
0200
0000
0300
0000
,
0010
0000
0010
0010
,
0020
0000
0030
0000
,
0010
0000
0001
0000
,
0010
0000
1000
0000
,
0200
0000
0300
0000
,
1000
0000
0000
0100
,
0200
0000
0300
0000
,
0001
0000
0000
0100
,
0200
0000
0300
0000
,
0010
0000
0000
0100
,
0200
0000
0300
0000
,
0001
0000
1000
0000
,
0001
0000
0001
0000
,
1000
0000
1000
0000
,
0010
0000
0010
0000
,
0010
0010
0010
0010
,
0020
0000
0030
0000
,
0200
0000
0300
0000
,
0002
0000
0003
0000
,
2000
0000
3000
0000
,
0020
0000
0030
0000
,
0200
0000
0300
0000
,
0010
0010
0010
0000
,
0100
0100
0100
0000
,
1001
0000
0000
0000
,
0001
0000
0001
0000
,
1001
0000
1000
0000
,
1000
0000
0010
0000
,
0020
0000
0030
0000
,
0200
0000
0300
0000
,
0001
0000
1000
0000
,
0002
0000
0003
0000
,
2000
0000
3000
0000
,
0020
0000
0030
0000
,
1001
0000
0001
0000
,
1001
0000
1000
0000
,
2002
0000
3003
0000
,
0100
0000
0001
0000
,
0100
0000
1000
0000
,
0010
0000
0000
0000
,
0010
0000
0010
0000
,
0001
0000
0000
0000
,
0000
0001
0001
0000
,
1000
0000
0000
0000
,
0000
1000
1000
0000
,
0200
0000
0000
0300
,
0200
0000
0000
0300
,
0100
0000
0000
0000
,
0010
0010
0010
0010
,
0010
0000
0001
0000
,
1000
0000
0001
0000
,
1000
0000
0100
0000
,
0100
0000
1001
0000
,
1000
0000
0001
0000
,
1000
0000
0001
0000
,
1001
0000
0000
0000
,
0010
0000
0010
0000
,
0001
0000
0001
0001
,
0001
0000
0000
0000
,
1000
0000
1000
1000
,
1000
0000
0000
0000
,
0001
0000
0000
0000
,
1000
0000
0000
0000
,
0010
0000
0100
0000
,
0100
0000
0100
0000
,
0100
0000
0000
0000
,
0001
0000
0000
0000
,
1000
0000
0000
0000
,
0010
0000
0000
0000
,
1000
1000
1000
0000
,
0001
0001
0001
0000
,
1000
0000
0001
0000
,
0100
0100
0000
0100
,
0000
0000
0000
0000
,
0000
0000
0000
2002
,
0000
0000
0000
0000
,
3003
0000
0000
0000
;

//--------------- dance-single - ----------------
#NOTES:
     dance-single:
     :
     Easy:
     5:
     0,0,0,0,0:
0000
0000
0000
0000
,
0000
0000
0000
0000
,
0000
0000
0000
0000
,
0000
0000
0000
0000
,
0001
0010
0000
0001
,
1000
0010
0000
1000
,
0001
0100
0000
0001
,
1000
0100
0000
1000
,
2002
0000
3003
0010
,
0020
0000
0200
0330
,
0001
0000
0000
1000
0000
0000
0001
0000
,
1000
0000
0100
0100
,
1000
0010
1000
0000
,
0001
0010
0001
0000
,
2000
0000
3002
0000
,
0203
0000
0300
0110
,
0020
0030
0020
0030
,
0020
0000
0200
0030
,
0020
0000
0000
0330
,
1001
0000
1000
0001
,
1000
0100
1000
0000
,
0001
0100
0001
0000
,
1000
0010
0001
0010
,
1000
0001
2002
3003
,
2000
0100
0000
3001
,
0002
0100
0000
1003
,
0020
1030
0200
0301
,
0220
0000
0330
0000
,
0001
0000
0000
1000
0000
0000
0001
0000
,
0000
1000
0000
0000
0001
0000
1000
0000
,
1100
0000
0101
0000
,
0200
0000
0300
0000
,
0011
0000
1010
0000
,
0020
0000
0030
0000
,
2000
0000
0000
0001
0000
3001
0000
0000
,
0002
0000
0000
1000
0000
1003
0000
0000
,
2020
0000
0000
3000
,
0200
0000
0000
0330
,
0022
0000
0000
0003
,
0200
0000
0000
0330
,
2002
0000
0000
3003
,
1001
0000
0000
0001
0000
1000
0000
0001
,
0000
1000
0100
0000
0010
0000
0100
0010
,
0000
0100
0010
0000
0100
0010
0000
0000
,
0001
0010
0100
1000
,
0001
0100
1000
0000
,
0001
0000
1000
0000
0200
0000
0300
0020
,
0000
0030
0100
0000
2002
0000
3003
0000
,
0001
0000
0010
0000
0002
0000
0000
1003
,
0000
0000
0010
0000
2000
0000
0000
3000
,
0001
0000
0000
0000
0010
0001
0010
0000
,
0100
0000
0000
0000
1000
0010
1000
0000
,
1001
0000
0000
0000
0001
1000
0000
2002
,
0000
0000
3003
0000
,
0001
0010
0001
0011
,
1000
0010
1000
1010
,
2002
0000
3003
0001
,
0202
0000
0303
1000
,
2200
0000
3300
0010
,
0220
0330
2002
3003
,
0002
0000
0013
0001
,
2000
0000
3010
1000
,
0002
0000
2003
0000
,
3200
0000
0300
0010
,
2002
3003
1000
0001
,
2000
3000
0001
1000
,
0002
0003
0100
0100
,
0200
0000
0010
0010
,
0020
0000
0000
0330
,
0001
0100
0000
0002
0000
0003
1000
0100
,
0000
2000
0000
3000
0010
0000
0010
0000
,
1000
0010
1000
0000
,
0001
0010
0100
0000
,
1100
0000
0000
0000
0001
0000
0000
1000
,
0000
0001
1001
0000
,
0101
0000
0000
0000
1000
0000
0000
0001
,
0000
1000
0110
0000
,
2000
0000
0000
0000
0001
0000
0000
3000
,
0002
0000
0000
0000
1000
0000
0000
0003
,
0010
0001
1000
0010
,
1000
0100
0001
1000
,
0110
0000
0010
0001
,
1000
0010
0100
0001
,
1001
0000
1001
0000
,
1001
0000
1000
0001
,
0010
0001
0100
0010
,
1000
0100
0001
0100
,
0110
0000
0110
0000
,
0110
0010
0001
1000
,
0020
0000
1030
0000
,
0001
1000
0001
1000
,
0200
0000
0301
0000
,
1100
0010
0101
0000
,
0001
0001
0010
0000
,
1000
0000
0100
0000
1000
0001
0000
1000
,
0000
0000
0010
1000
,
0001
0001
1000
0010
,
2000
0000
0000
0000
,
3002
0000
0000
0000
,
0203
0000
0000
0000
,
0020
0000
0330
0000
,
1002
0000
1000
1003
,
2001
0000
0001
3001
,
0010
0000
0100
0000
,
1000
0001
0000
0200
,
0000
0000
0000
0300
,
0001
0001
1000
0002
,
0000
0000
0000
0000
,
0003
0000
0000
0000
;

//--------------- dance-single - ----------------
#NOTES:
     dance-single:
     :
     Medium:
     6:
     0,0,0,0,0:
0000
0000
0000
0000
,
0000
0000
0000
0000
,
0000
0000
0000
0000
,
0000
0000
0000
0000
,
0001
0010
1000
0000
0010
0000
0001
0000
,
1000
0010
0001
0000
0010
0000
1000
0000
,
0001
0100
0001
0000
1000
0100
1000
0000
,
0010
1000
0100
0001
,
0200
0001
0302
2003
,
3020
0000
0000
0000
1030
0001
1000
0000
,
0001
0010
0100
1000
,
0020
0000
0000
0000
1030
0001
1000
0000
,
0100
1000
0001
0010
,
0001
1000
0100
1000
,
0010
0100
0001
2000
,
0020
0000
3030
0000
0001
1000
0001
0000
,
0020
0000
0032
0000
,
2003
3000
2002
3003
,
0001
0000
1000
0020
0000
0000
0100
0000
,
0230
0300
0010
1000
,
0001
1000
0000
0001
0000
0000
0100
0000
,
0001
0010
0100
1000
,
0001
0100
0010
1000
,
0010
1000
0001
0200
,
0301
0010
0001
0000
1000
0000
0010
0000
,
1000
0100
1000
0000
0001
0000
0010
0000
,
0001
0100
0001
0000
1000
0100
1000
0000
,
2002
3003
0001
1000
,
0200
1300
0002
0003
,
0200
0301
2000
3010
,
0100
0000
0001
0000
0010
0001
1000
0000
,
0220
0000
0000
0330
,
0100
0000
1000
0000
0010
1000
0001
0000
,
2002
0000
0000
3003
,
0011
0000
0000
0002
0000
1003
0000
0000
,
1010
0000
0000
2000
0000
3001
0000
0000
,
1000
0000
0010
0000
1000
0000
0010
1000
,
0001
0000
0010
0000
0001
0000
0010
0001
,
0100
0000
0001
0000
1000
0000
0100
0010
,
0100
0000
1000
0000
0001
0000
0100
0010
,
1000
0000
1000
0000
0010
0000
0010
1000
,
0001
0000
0001
0000
0010
0000
0010
0001
,
1000
0000
0100
0000
0010
0000
0001
1000
,
0000
0001
1000
0000
0001
1000
0000
0000
,
0002
0000
0000
2003
0000
0000
3002
0000
,
0000
2003
0000
0000
3100
0010
0100
0010
,
0000
0000
0001
0000
1000
0000
0000
0010
,
0000
0100
0001
1000
,
0020
0000
0030
0000
1000
0001
0000
0200
,
0000
0300
0001
0000
1000
0000
0100
0000
,
0020
0000
0001
0000
0000
0000
0031
1000
,
0020
1000
0000
1030
,
1001
0000
0001
0000
0100
0001
0000
2000
,
0000
0000
3002
0000
0010
0003
0001
0000
,
0100
0100
0010
0010
,
1000
0001
1000
0000
0001
1000
0001
0000
,
0010
0001
0000
0010
0000
0001
0010
0000
,
0100
1000
0000
0100
0000
1000
0100
0000
,
1000
0010
0100
0001
,
1000
0000
0001
0000
1000
0001
1000
0000
,
0200
0000
1300
0001
,
0200
0000
0310
0000
,
2000
3010
0002
0103
,
0020
0000
1030
0001
,
2002
3003
1000
0100
,
0020
0000
0230
0000
,
1300
0010
1000
0000
0010
0000
1000
0000
,
0001
0010
0001
0000
0010
0000
0001
0000
,
0200
0000
0000
0300
,
0002
0000
0000
0013
0000
0001
2000
0000
,
0000
3010
0000
1000
0200
0000
0300
0000
,
0010
0010
0020
0000
,
0100
0100
0200
0330
,
1000
0000
0001
0000
0010
0000
0001
1000
,
0000
0001
0200
0300
,
0010
0000
1000
0000
0001
0000
1000
0100
,
0000
0010
0200
0300
,
0012
0010
0000
0013
,
2010
0010
0000
3010
,
1000
0100
1000
1010
,
0001
0100
0001
0011
,
2002
0000
0000
0000
3003
0000
0001
1000
,
0000
0001
0000
0100
0001
0000
1000
0000
,
0100
1000
0100
0001
,
0100
1000
0100
0001
,
0100
1000
0010
0000
0100
0001
0010
0000
,
0002
0000
2003
0000
,
3010
1000
0001
0010
,
0100
0100
2000
0000
,
3002
0000
0000
0000
0103
0000
0010
0100
,
0000
0001
0010
0100
,
1000
0000
0010
0000
1000
0001
0000
1000
,
0000
0010
1000
0001
,
2002
3003
1000
0010
,
0220
0000
0330
0000
0001
1000
0000
1001
,
0000
0000
1000
1000
,
0001
0001
1000
0001
,
2000
0000
0100
0000
,
3002
0000
0010
0000
,
0203
0010
0010
0010
,
0020
0000
0330
0000
,
1000
0000
0010
0000
1000
0010
1000
0000
,
0001
0000
0010
0000
0001
0010
0001
0000
,
0100
0000
0010
0000
0100
0010
0100
0000
,
0010
0010
0000
2002
,
0000
0000
0000
3003
,
0001
0000
0000
1000
0000
0000
0001
0000
1000
0000
0000
0000
0020
0000
0000
0000
,
0000
0000
0000
0000
,
0030
0000
0000
0000
;

//--------------- dance-single - ----------------
#NOTES:
     dance-single:
     :
     Hard:
     8:
     0,0,0,0,0:
0000
0000
0000
0000
,
0000
0000
0000
0000
,
0001
0000
0000
1000
0000
0000
0100
0000
0000
0010
0000
0020
,
0000
0000
0000
0030
,
0001
0010
0001
0000
1000
0100
1000
0020
,
0100
0000
1000
0000
0130
0001
1000
0100
,
0010
0000
0001
1000
0200
0000
1300
0010
,
1000
0001
0010
0000
0100
0010
0001
0000
,
0020
0000
0001
0000
0032
0000
1003
0001
,
1000
0000
0100
0000
1000
0010
0100
0001
,
0010
0000
1000
2000
0001
0000
3020
1000
,
0000
0000
0130
0000
0001
0010
0100
1000
,
0020
0000
1030
0001
0200
0000
0302
1000
,
0000
0000
1003
0000
0100
1000
0001
0010
,
0100
1000
0001
0010
,
0001
0010
0001
1000
0020
0000
1030
0000
,
1002
0100
2003
0100
,
3020
0000
0030
0000
1000
0000
0001
0010
,
0100
0000
2000
0010
3020
0000
0100
0200
,
0000
0000
0030
0000
0301
0010
0001
1000
,
0010
2000
0000
3001
0010
0001
0100
0000
,
1001
0000
0001
0000
1000
0001
0100
0010
,
2000
0000
0100
0000
3001
0000
0010
0001
,
0100
0000
0010
1000
0100
0000
0110
0000
,
0001
0010
0001
0000
1000
0010
0100
0000
,
0001
1000
0100
0000
0010
0001
0010
0000
,
0001
1000
0100
0000
0010
0100
1000
0000
,
0001
0000
0000
0100
0001
0000
1000
0000
0200
0000
0000
0000
1300
0000
0000
0000
,
0010
1000
0000
0100
0010
0000
0001
0100
,
0000
0010
1000
0001
0100
0000
0110
0000
,
1000
0000
0100
0000
1000
0000
0010
2000
,
3002
1000
1000
1003
,
1001
0000
0100
0010
0000
0100
0010
0002
,
2003
0001
0001
3001
,
0101
0000
0002
0023
0000
0031
0000
0000
,
1100
0000
2000
3020
0000
1030
0000
0100
,
0002
0000
0010
0000
0013
0001
1000
0100
,
0000
1000
0000
1001
0000
0001
0000
0100
,
0020
0000
1000
0000
1030
0000
0100
1000
,
0001
0100
0000
0010
0000
0110
0000
0010
,
0200
0000
0001
0000
0310
0000
1000
0001
,
0000
0110
0000
1000
0000
0110
0000
0010
,
2000
0000
0001
0000
3001
0000
0010
0002
,
0000
0013
2000
0000
3010
0200
0000
0300
,
1000
0020
0000
1030
0002
0000
0013
0200
,
0000
0310
0001
1000
,
0100
1000
0001
0000
0010
0000
0001
0100
,
0000
0010
1000
0000
1000
0001
0010
0000
,
2100
0000
3010
0000
0001
1000
0100
0001
,
0000
0200
0000
0310
0001
0000
1000
0000
,
1000
0000
0001
0000
0010
0001
0100
0000
,
0010
1000
0002
1000
,
0023
0000
0031
0000
1000
0010
0001
1000
,
0000
0100
0001
0000
1000
0000
0100
0000
,
0012
0013
2010
3010
,
0100
0001
1000
0100
0010
0100
0020
0000
,
0032
0100
0000
0100
0003
0010
0010
0000
,
2000
0100
0000
0100
3000
0010
0010
0000
,
0001
0200
0000
0320
0000
1030
1000
0000
,
0001
0010
0001
0000
1000
0010
1000
0000
,
0001
0000
0011
0000
0010
0001
1000
0200
,
0000
1000
0320
0031
,
2000
3010
0200
0301
,
0002
0000
0003
0000
1000
0010
0000
0000
,
0002
0000
0103
0000
0001
1000
0001
0010
,
0000
0000
0100
0000
1000
0010
1000
0000
,
0001
0010
0001
0010
0100
1000
0100
0000
,
1000
0010
1000
0010
0100
0001
0100
0000
,
0220
0000
0000
0330
,
2000
0010
0000
3001
0000
0000
0002
0100
,
0000
2000
0000
3003
0010
0000
1000
0000
,
0001
0010
0001
0000
0100
0000
0001
0000
,
1000
0100
0010
0001
0020
0000
0030
0000
,
1000
0010
0000
0010
1000
0001
0010
0100
,
0000
0002
0000
1003
0001
0000
0100
0000
,
0001
1000
0100
0000
0010
0001
0000
1000
,
0000
2000
0000
3001
1000
0000
0100
0000
,
2010
0100
0010
3100
,
0012
0100
0010
0103
,
0001
0010
0001
0000
1000
0010
1000
0000
,
0001
0100
0010
1000
,
2200
0000
3300
0000
0001
0010
0000
0002
,
0000
2003
0000
0010
3000
0010
0100
0000
,
0001
0020
0031
0000
1000
0020
1030
0000
,
0100
1000
0001
1001
,
0010
0000
0001
0000
0100
0020
0000
1000
,
0000
0230
0000
0001
0000
0310
0000
1000
,
0001
0001
1000
1000
,
0001
1000
0001
0000
1000
0000
0100
1000
,
0020
0000
1000
0000
2030
3001
0000
0101
,
0000
0000
0010
0001
1000
0000
0001
0000
,
1000
0100
0010
0000
0001
1000
0000
1100
,
0000
1001
0000
0001
,
1000
0000
0100
1000
0010
0000
0100
0000
,
0001
0010
0001
0000
1000
0010
0000
0010
,
0000
0000
2000
3100
,
0002
0000
0013
0000
1000
0001
1000
0001
,
2000
0100
0010
0100
,
3002
0010
0100
0010
,
0203
0010
0010
0010
,
0020
0000
0330
0000
,
1000
0010
1000
0010
1000
0010
1000
0000
,
0001
0010
0001
0010
0001
0010
0001
0000
,
0100
0010
0100
0010
0100
0010
0100
0000
,
1001
0000
0000
0000
1000
0001
1000
0000
,
0001
0000
0000
1000
0000
0000
0001
0000
0000
1000
0000
0000
0010
0000
0100
0000
,
0001
0010
0000
0001
0000
1000
0010
0000
1000
0000
0000
0000
0202
0000
0000
0000
,
0000
0000
0000
0000
,
0303
0000
0000
0000
;
