#VERSION:0.83;
#TITLE:That's Paradise;
#SUBTITLE:;
#ARTIST:Tsunku;
#TITLETRANSLIT:;
#SUBTITLETRANSLIT:;
#ARTISTTRANSLIT:;
#GENRE:;
#ORIGIN:;
#CREDIT:;
#BANNER:That's Paradise-bn.png;
#BACKGROUND:Rhythm Heaven.png;
#PREVIEWVID:;
#JACKET:;
#CDIMAGE:;
#DISCIMAGE:;
#LYRICSPATH:;
#CDTITLE:;
#MUSIC:That's Paradise.ogg;
#OFFSET:-1.100000;
#SAMPLESTART:16.075001;
#SAMPLELENGTH:15.000000;
#SELECTABLE:YES;
#BPMS:0.000=160.000;
#STOPS:;
#DELAYS:;
#WARPS:;
#TIMESIGNATURES:0.000=4=4;
#TICKCOUNTS:0.000=4;
#COMBOS:0.000=1;
#SPEEDS:0.000=1.000=0.000=0;
#SCROLLS:0.000=1.000;
#FAKES:;
#LABELS:0.000=Song Start;
#BGCHANGES:;
#KEYSOUNDS:;
#ATTACKS:
;

//---------------dance-single - ----------------
#NOTEDATA:;
#CHARTNAME:;
#STEPSTYPE:dance-single;
#DESCRIPTION:;
#CHARTSTYLE:;
#DIFFICULTY:Hard;
#METER:7;
#RADARVALUES:0.521722,0.505183,0.252592,0.515708,0.000000,347.000000,323.000000,24.000000,49.000000,0.000000,0.000000,0.000000,0.000000,0.000000,0.521722,0.505183,0.252592,0.515708,0.000000,347.000000,323.000000,24.000000,49.000000,0.000000,0.000000,0.000000,0.000000,0.000000;
#CREDIT:;
#NOTES:
0000
0000
0000
0000
,
0000
0000
0000
0000
,
0000
0000
0000
0000
,
0000
0000
0000
1001
,
0010
0100
0002
0000
2003
0000
3100
0010
,
0100
0010
0002
0000
0103
0000
0201
0000
,
0320
0000
0130
0010
0100
0100
0001
1000
,
0001
0001
0020
0000
0100
0000
0031
0000
,
0100
1000
0010
1000
0000
0100
0010
0000
,
1000
0001
1000
0100
0010
0000
0110
0000
,
0001
0001
0100
0000
0010
0100
0000
0001
,
0000
1000
0100
0000
0020
0100
0030
0000
,
1000
0000
0010
0000
0100
0100
0010
1000
,
0000
0001
0100
0001
0010
0000
0011
0000
,
0100
0100
0002
0000
0013
0100
0010
0000
,
0001
1000
1000
0000
0010
0100
0010
0000
,
1000
0100
1000
1000
0001
0010
0000
0010
,
0100
0110
1001
1001
,
0100
0100
1000
0001
0010
0100
0010
0001
,
1000
0000
0010
0100
1000
0000
1010
0000
,
0101
0000
0010
0001
0100
0010
0100
0001
,
0000
1001
0000
0200
0010
0000
0310
0000
,
1000
1000
0100
1000
0010
0100
0001
0000
,
0001
0010
0100
0100
0010
0000
0110
0000
,
0001
0100
0001
0100
0020
0000
1030
0100
,
1000
0000
0020
0000
0130
0001
0100
0001
,
0000
1000
0010
0000
1010
0000
1001
0000
,
0010
0001
0010
0000
2002
0000
3003
0000
,
0100
0010
0010
0100
0001
0000
1000
0100
,
0000
0010
0100
1000
0002
0000
0013
0000
,
1000
0100
0002
0000
0103
0001
0010
0000
,
0001
0100
2000
0000
3010
0100
0001
0100
,
0020
0000
1000
0000
1030
0001
1000
0000
,
0100
0100
0002
0000
1003
0010
0100
0000
,
0100
0001
1000
0010
0000
1010
0000
0001
,
0100
0100
0010
1000
0000
0100
1000
0001
,
0100
0100
0020
0000
2030
0000
3002
0000
,
0103
0001
0010
0100
1000
0000
1001
0000
,
0200
0000
0310
1000
0200
0000
0310
0000
,
0102
0000
0013
0200
0000
1300
0002
0000
,
2003
0000
0100
0000
3010
0100
0010
0000
,
0002
0000
0103
0020
0000
1030
0100
0100
,
0020
0000
1030
0100
0010
0000
0100
0002
,
0000
0013
0000
0010
0001
0000
1001
0000
,
0002
0000
0103
0020
0000
1030
1001
0000
,
0100
0010
0000
1100
0000
0022
0000
0033
,
0100
0010
1000
0010
0100
0010
0010
0000
,
0100
0001
0100
0010
0100
0001
0001
0000
,
0201
0000
0310
1000
0100
0010
0000
0210
,
0000
1300
1000
0001
0010
0010
0001
0100
,
0001
1000
1000
0000
0100
1000
0010
0100
,
0020
0000
0130
0001
0100
0010
1000
0000
,
1000
0100
0010
0001
0001
0010
0001
1000
,
0010
0100
0000
0100
0002
0000
0010
0000
,
1003
0100
0100
0020
0000
0230
0000
2300
,
0000
3200
0000
0302
0000
0203
0000
0320
,
0000
0000
0200
0030
,
0301
1000
0010
0010
0100
0001
0001
0000
,
0001
0010
0001
1000
0010
1000
0001
0100
,
0001
1000
0100
1000
0001
0000
2002
0000
,
3003
0000
0000
0000
;

//---------------dance-single - ----------------
#NOTEDATA:;
#CHARTNAME:;
#STEPSTYPE:dance-single;
#DESCRIPTION:;
#CHARTSTYLE:;
#DIFFICULTY:Challenge;
#METER:9;
#RADARVALUES:0.596898,0.694627,0.357838,0.684103,0.047361,397.000000,363.000000,34.000000,65.000000,0.000000,0.000000,0.000000,0.000000,0.000000,0.596898,0.694627,0.357838,0.684103,0.047361,397.000000,363.000000,34.000000,65.000000,0.000000,0.000000,0.000000,0.000000,0.000000;
#CREDIT:;
#NOTES:
0000
0000
0000
0000
,
0000
0000
0000
0000
,
0000
0000
0000
0000
,
0000
0000
0000
0000
0000
0000
0000
0000
1000
0100
0010
0000
1001
0000
0000
0000
,
0010
0100
0002
0010
0023
0100
0230
2000
,
0300
3010
0100
0001
1000
0100
1100
0010
,
0010
0100
0001
0001
0010
0001
1000
0100
,
0100
0010
0110
1000
0001
0001
0010
0100
,
1000
0001
0001
0010
0100
1000
0001
0100
,
0010
1000
1000
0001
0100
0010
0110
0000
,
0001
0010
0001
0000
0100
0100
0010
0010
,
0000
1000
0100
1000
0010
0010
0100
0000
,
0201
0000
1000
0000
0302
0000
0013
0001
,
0000
1000
0100
0100
0020
0000
0032
0000
,
0103
0010
1000
0100
1000
0001
0010
0010
,
0100
0000
0100
0000
0001
0000
1000
0010
0100
0000
0001
0000
0010
0000
0000
0000
,
1000
0100
0010
0010
0100
1000
0010
0100
,
0002
0000
0013
0001
2000
0000
3200
0000
,
0310
0001
0010
0100
0100
0001
0100
1000
,
0010
0000
0010
0000
0100
0000
0001
1000
0010
0000
0100
0000
0110
0000
0000
0000
,
0001
1000
0020
0100
0230
0001
0302
0020
,
0003
1030
0000
2010
0000
0001
3001
0000
,
0110
0100
0001
1000
0010
0010
0100
0001
,
1000
0000
1000
0000
0010
0000
0100
0001
0010
0000
0010
0000
0002
0000
0000
0000
,
0103
0010
0100
0100
0010
1000
0001
0100
,
0000
0000
0020
0000
0031
0000
0010
0100
1000
0000
0001
0000
0010
0000
0110
0000
,
0000
1000
0100
0010
0011
0000
1100
0000
,
0002
0000
0023
0000
0130
1000
0100
0000
0210
0000
0000
0000
0301
0000
0001
0000
,
1000
0010
0100
0001
0010
0100
1000
0100
,
0010
0001
0100
0010
1000
0001
0220
0330
,
1000
0200
0010
0000
1000
0000
0301
0000
,
0001
0020
0100
0000
0001
0000
1030
0010
,
0200
1300
0002
0013
,
0100
0001
0001
0010
0001
0000
0011
0000
,
0100
0010
0011
0000
0100
0101
0001
0000
,
1010
0000
0100
0110
0000
1000
1001
0000
,
2000
0000
0200
3000
0020
0300
0002
0030
,
1003
0000
0100
0000
0010
0000
0001
0000
1000
0010
0100
0001
0100
0000
0000
0000
,
2010
0000
3100
0010
0100
1000
0001
0001
,
0020
0000
0130
0200
0000
1300
0001
0000
,
0110
0000
0001
0100
0001
0010
0001
0000
,
1000
0100
0100
0010
0010
0001
0001
0000
,
0200
0000
0310
1000
0010
0100
0002
0000
,
2003
0000
3010
0100
0010
1000
1000
0000
,
0001
0200
0000
0310
1000
0200
0020
0300
,
0001
0001
0000
0032
0000
2000
3000
0003
,
0100
0010
0100
0001
0001
1000
0100
0010
,
0100
1000
0100
0010
0010
0100
0110
0000
,
0001
0010
0001
0100
0001
0101
0000
1001
,
0000
0200
0320
0032
2003
3200
2300
3020
,
0032
0100
0010
0100
,
2003
0100
0010
3100
,
2002
0000
3000
0100
0100
0010
0013
0001
,
2000
0000
0100
3200
1000
0000
1300
0000
,
0002
0000
0010
0023
0000
0130
0000
0201
,
0000
0320
0000
2030
0000
3100
0000
2200
,
0000
0300
0002
3000
,
0103
0000
0010
0100
0010
0000
1000
0000
0100
0000
1100
0000
1100
0000
0000
0000
,
0001
0010
0011
1000
0010
1010
0001
0100
,
0101
1000
0100
1100
0010
0100
2002
0000
,
3003
0000
0000
0000
;

//---------------dance-single - ----------------
#NOTEDATA:;
#CHARTNAME:;
#STEPSTYPE:dance-single;
#DESCRIPTION:;
#CHARTSTYLE:;
#DIFFICULTY:Medium;
#METER:6;
#RADARVALUES:0.374377,0.442035,0.157870,0.221018,0.000000,249.000000,234.000000,15.000000,21.000000,0.000000,0.000000,0.000000,0.000000,0.000000,0.374377,0.442035,0.157870,0.221018,0.000000,249.000000,234.000000,15.000000,21.000000,0.000000,0.000000,0.000000,0.000000,0.000000;
#CREDIT:;
#NOTES:
0000
0000
0000
0000
,
0000
0000
0000
0000
,
0000
0000
0000
0000
,
0000
0000
0000
0000
,
0001
1000
0100
0010
,
0100
0000
1000
0010
0100
0000
0001
0000
,
1000
0000
0100
0000
0010
0000
0001
1000
,
0001
0100
0010
0100
,
0001
0000
0100
0010
0000
1000
0100
0000
,
0010
1000
0000
0010
0001
0000
1001
0000
,
0100
0001
1000
0000
0010
0100
0000
0001
,
0000
0001
1000
0000
0100
0010
0100
0000
,
2000
0001
0010
3001
,
0100
0010
1000
0000
0001
0000
0110
0000
,
1001
0001
0100
1000
,
0100
0000
0001
0000
1000
0001
1000
0000
,
0010
0001
0010
0100
,
0001
1000
0010
1001
,
0100
0001
1000
0100
,
0010
0010
0100
0010
,
0001
1000
0001
0000
0100
0000
0010
1000
,
0000
0001
0000
0002
0000
0000
1003
0000
,
0100
0001
0010
1000
,
0010
0000
0001
0000
1000
0001
1000
0000
,
0100
1000
0010
0001
,
1000
0000
0001
0000
0100
0000
0010
0100
,
0000
0010
0110
2000
,
0002
3003
1001
0000
,
0100
0001
1000
0001
,
0010
0100
1000
0001
,
2000
0000
3100
0010
,
0200
1000
0001
1300
,
0002
0003
2000
3000
,
0010
0101
1000
0100
,
0010
0001
0100
0000
0001
1000
0001
0000
,
0100
0000
0010
0000
1000
0001
0100
0000
,
0020
0100
1000
0100
,
0031
1010
1001
0000
,
0001
1000
0001
0000
0100
0000
0010
0000
,
2000
0000
0000
0001
0000
0000
3100
0000
,
0010
0000
0001
0000
0100
0010
0100
0000
,
0012
0000
0000
1000
0000
0000
0103
0000
,
0001
1000
0100
0010
,
0100
0000
1000
0001
0100
0000
0010
0000
,
0100
0000
0001
0010
0000
0100
2000
0000
,
3010
0000
1000
0001
0000
0002
0000
0000
,
0103
0000
0010
0100
0010
0000
1000
0000
,
0200
0310
0200
1300
,
0001
1000
0001
1000
0000
0010
0000
0110
,
0000
0100
0001
1000
,
0010
0000
0101
1000
,
0100
0000
0000
0000
0010
0100
1000
0000
,
0002
0003
1000
0010
,
0100
0001
1000
1000
,
0010
0100
0001
0000
1000
0000
0100
0000
,
0020
0000
0000
0100
0000
0130
0000
0220
,
0000
0000
0000
0330
,
0001
0000
1000
0010
0000
0000
0110
0000
,
0001
0000
0001
1000
0000
1000
0010
0000
,
0010
0100
0100
0100
0010
0000
2002
0000
,
3003
0000
0000
0000
;

//---------------dance-single - ----------------
#NOTEDATA:;
#CHARTNAME:;
#STEPSTYPE:dance-single;
#DESCRIPTION:;
#CHARTSTYLE:;
#DIFFICULTY:Easy;
#METER:3;
#RADARVALUES:0.216507,0.284166,0.094722,0.157870,0.000000,144.000000,135.000000,9.000000,15.000000,0.000000,0.000000,0.000000,0.000000,0.000000,0.216507,0.284166,0.094722,0.157870,0.000000,144.000000,135.000000,9.000000,15.000000,0.000000,0.000000,0.000000,0.000000,0.000000;
#CREDIT:;
#NOTES:
0000
0000
0000
0000
,
0000
0000
0000
0000
,
0010
0000
0100
0000
,
0020
0000
0030
0000
,
1000
0001
1000
0000
,
0100
0100
1000
0000
,
0001
1000
0001
0000
,
0100
0010
0100
0000
,
0002
0000
1003
0000
,
2000
0000
3001
0000
,
0100
0100
0010
0000
,
1000
0000
0001
0000
,
1001
0000
0000
0000
,
0110
0000
0100
0100
,
0001
0000
1000
0000
,
0100
0010
0100
0010
,
0000
0001
1000
0000
,
0001
0000
1000
1000
,
0000
0000
0001
0000
,
1000
0001
0100
0000
,
0010
0010
0010
0000
,
0100
0000
1001
0000
,
0001
1000
0001
0000
,
0100
0001
1000
0000
,
0100
0100
0100
0000
,
0001
1000
0001
1000
,
0000
0002
0003
0000
,
0000
2000
3000
0000
,
0010
0100
0010
0000
,
0100
0010
0100
0000
,
0110
0000
0000
0000
,
1001
0000
0000
0000
,
0002
0000
0103
0000
,
2000
0000
3100
0000
,
1000
1000
1000
0000
,
0001
0001
0001
0000
,
0100
0000
0010
0000
,
0001
1000
1001
0000
,
0001
0001
1000
1000
,
0020
0000
0030
0000
,
1000
1000
0001
0001
,
0200
0000
0300
0000
,
1000
0000
0001
0000
,
0010
0000
0000
0000
,
0100
0000
0010
0000
,
1001
0000
0000
0000
,
0001
0001
1000
1000
,
0200
0000
0300
0000
,
1000
1000
0001
0001
,
0020
0000
0030
0000
,
0001
1000
0001
0000
,
0100
0000
0100
0100
,
0200
0000
0000
0000
,
0300
0000
0010
0000
,
1000
0001
1000
0000
,
0100
0000
0100
0100
,
0200
0000
0000
0000
,
0300
0000
0010
0110
,
0001
0000
0000
1000
0000
0000
0001
0000
,
0000
1000
0000
0000
0010
0000
2002
0000
,
3003
0000
0000
0000
;

//---------------dance-single - ----------------
#NOTEDATA:;
#CHARTNAME:;
#STEPSTYPE:dance-single;
#DESCRIPTION:;
#CHARTSTYLE:;
#DIFFICULTY:Beginner;
#METER:2;
#RADARVALUES:0.151856,0.220097,0.094722,0.000000,0.000000,101.000000,92.000000,9.000000,0.000000,0.000000,0.000000,0.000000,0.000000,0.000000,0.151856,0.220097,0.094722,0.000000,0.000000,101.000000,92.000000,9.000000,0.000000,0.000000,0.000000,0.000000,0.000000,0.000000;
#CREDIT:;
#NOTES:
// measure 0
0000
0000
0000
0000
,  // measure 1
0000
0000
0000
0000
,  // measure 2
0000
0000
0000
0000
,  // measure 3
0000
0000
0000
0000
,  // measure 4
0000
0001
0000
0001
,  // measure 5
0000
1000
0000
1000
,  // measure 6
0000
0001
0000
1000
,  // measure 7
0000
1001
1001
0000
,  // measure 8
0010
0000
0000
0010
,  // measure 9
0000
0000
0010
0000
,  // measure 10
0100
0000
0000
0100
,  // measure 11
0000
0000
0100
0000
,  // measure 12
0110
0000
0000
0000
,  // measure 13
1001
0000
0000
0000
,  // measure 14
0001
0000
1000
0000
,  // measure 15
0001
0001
0001
0000
,  // measure 16
1000
0000
0001
0000
,  // measure 17
1000
1000
1000
0000
,  // measure 18
0010
0000
0100
0000
,  // measure 19
0010
0010
0010
0000
,  // measure 20
0100
0000
0010
0000
,  // measure 21
0100
0100
0100
0000
,  // measure 22
0001
0000
0100
0000
,  // measure 23
1000
0000
0010
0000
,  // measure 24
1000
0000
0001
0000
,  // measure 25
1000
0000
0000
0000
,  // measure 26
0000
0010
0010
0000
,  // measure 27
0000
0100
0100
0000
,  // measure 28
0001
0000
1000
0000
,  // measure 29
0010
0000
1001
0000
,  // measure 30
0000
0000
0000
0000
,  // measure 31
0000
0000
0000
0000
,  // measure 32
0001
0000
0000
0000
,  // measure 33
1000
0000
0000
0000
,  // measure 34
0000
0001
0000
0001
,  // measure 35
0000
1000
0000
1000
,  // measure 36
0000
0000
0010
0000
,  // measure 37
0010
0010
0010
0000
,  // measure 38
0100
0000
0000
0000
,  // measure 39
0001
0000
1000
0000
,  // measure 40
0010
0000
0000
0000
,  // measure 41
1000
0000
0001
0000
,  // measure 42
1000
0000
0000
0000
,  // measure 43
0001
0000
0000
0000
,  // measure 44
0110
0000
0000
0000
,  // measure 45
0000
0000
0000
0000
,  // measure 46
0001
0000
0001
0000
,  // measure 47
0001
0000
0000
0000
,  // measure 48
1000
0000
1000
1000
,  // measure 49
1000
0000
0000
0000
,  // measure 50
0001
0000
0001
0001
,  // measure 51
0001
0000
0000
0000
,  // measure 52
1000
0000
1000
0000
,  // measure 53
1000
0000
0000
0000
,  // measure 54
0010
0000
0000
0000
,  // measure 55
0100
0000
0000
0000
,  // measure 56
0110
0000
0000
0000
,  // measure 57
0000
0000
0000
0000
,  // measure 58
0001
0000
1000
0000
,  // measure 59
0010
0000
1001
1001
;
