#TITLE:#TagInTheTitle;
#SUBTITLE:;
#ARTIST:huntedskelly_Test;
#TITLETRANSLIT:;
#SUBTITLETRANSLIT:;
#ARTISTTRANSLIT:;
#GENRE:;
#CREDIT:;
#MUSIC:TagInTheTitle.mp3;
#BANNER:;
#BACKGROUND:TagInTheTitle-bg (Wide).png;
#CDTITLE:;
#SAMPLESTART:13.61;
#SAMPLELENGTH:12;
#SELECTABLE:YES;
#OFFSET:-0.155;
#BPMS:0.000=140.000;
#STOPS:;
#BGCHANGES:0.000=TagInTheTitle.avi=1.000=0=0=0=StretchNoLoop====,
99999.000=-nosongbg-=1.000=0=0=0=StretchNoLoop====
;
#FGCHANGES:;

//--------------- dance-single - ----------------
#NOTES:
     dance-single:
     :
     Beginner:
     1:
     0,0,0,0,0:
0000
0000
0000
0000
,
0000
0000
0000
0000
,
0000
0000
0000
0000
,
0000
0000
0000
0000
,
0000
0000
0000
0000
,
0000
0000
0000
0000
,
0000
0000
0000
0000
,
0000
0000
0000
0000
,
1000
0000
0000
1000
,
0000
0000
1000
0000
,
0001
0000
0000
0001
,
0000
0000
0001
0000
,
1000
0000
0000
1000
,
0000
0000
1000
0000
,
0001
0000
0000
0001
,
0000
0000
0001
0000
,
0100
0000
0100
0000
,
0100
0000
0100
0000
,
0010
0000
0010
0000
,
0010
0000
0010
0000
,
0100
0000
0100
0000
,
0100
0100
0100
0000
,
0010
0000
0010
0000
,
0010
0010
0010
0000
,
0000
0000
0000
0000
,
0000
0000
0000
0000
,
0001
0000
0000
0000
,
1000
0000
0000
0000
,
0001
0000
1000
0000
,
0001
0000
0000
0000
,
1000
0000
0000
0000
,
1000
1000
1000
0000
,
0001
0000
1000
0000
,
0100
0000
0100
0100
,
0100
0000
0100
0000
,
0000
0000
0100
0000
,
0010
0000
0000
0000
,
0010
0000
0010
0000
,
0010
0000
0100
0000
,
0001
0000
1000
0000
,
0001
0000
0000
0000
,
1000
0000
0000
0000
,
1000
0000
0100
0000
,
0001
0000
0001
0000
,
0010
0000
0000
0000
,
0000
0010
0010
0000
,
0000
0010
0010
0000
,
0000
0000
0100
0000
,
0010
0000
0000
0000
;

//--------------- dance-single - ----------------
#NOTES:
     dance-single:
     :
     Easy:
     3:
     0,0,0,0,0:
0000
0000
0000
0000
,
0000
0000
0000
0000
,
0000
0000
0000
0000
,
0000
0000
0000
0000
,
0000
0000
0000
0000
,
0000
0000
0000
0000
,
0000
0000
0000
0000
,
0000
0000
0000
0000
,
0002
0000
0003
0000
,
0010
0000
0001
0000
,
2000
0000
3000
0000
,
0100
0000
0010
0000
,
2002
0000
3003
0000
,
0001
0000
1000
0000
,
2002
0000
3003
0000
,
0001
0000
1000
0000
,
0100
0100
1000
0001
,
0100
0000
0020
0000
,
0130
0000
0001
1000
,
0100
0100
0200
0000
,
0310
0000
1001
0000
,
0000
0001
2000
0000
,
3001
0000
0002
0000
,
0103
0010
0100
0000
,
0002
0000
2000
0000
,
0000
0000
3003
0000
,
0001
0000
0000
0010
,
0001
0100
0010
0000
,
1001
0000
0000
0010
,
0100
1000
0010
0000
,
1000
0000
0000
0100
,
0010
0010
0010
0000
,
0001
0000
0000
0100
,
0020
0000
0000
0000
,
0100
0000
0130
0000
,
0000
0001
0010
0001
,
1000
0000
0010
0000
,
2002
0000
0000
3003
,
0001
0100
1000
0000
,
0100
0100
0010
0100
,
0010
1000
0100
0000
,
0000
1000
0002
0000
,
0103
0000
0200
0300
,
0010
0000
0010
1000
,
0010
0000
1001
0000
,
0000
0000
1001
0000
,
0000
0000
0001
0000
,
1000
0000
0001
0000
,
2000
0000
0000
0000
,
3000
0000
0000
0000
;

//--------------- dance-single - ----------------
#NOTES:
     dance-single:
     :
     Medium:
     4:
     0,0,0,0,0:
0000
0000
0000
0000
,
0000
0000
0000
0000
,
0000
0000
0000
0000
,
0000
0000
0000
0000
,
0000
0000
0000
0000
,
0000
0000
0000
0000
,
0000
0000
0000
0000
,
0000
0000
0000
0000
,
2000
0000
3001
0010
,
0001
0100
0002
0000
,
0103
0000
0010
0100
,
1000
0010
0020
0030
,
1001
0000
0001
0000
,
1000
0100
0020
0000
,
0130
1000
0010
0000
,
0200
0001
0002
0303
,
0011
0001
1000
1010
,
0100
0100
0001
0000
,
1000
0001
0010
0010
,
0100
0100
1000
0000
,
2002
3003
0100
0010
,
1000
1000
2000
3000
,
0010
0100
0001
1000
,
0001
0001
0002
0003
,
0000
0020
0200
0000
,
0000
0330
0110
0000
,
1001
0001
0001
0010
,
0001
1000
0100
0010
,
0110
0100
0100
1000
,
0100
0010
0001
0000
,
2000
0000
3010
0100
,
0001
0010
0020
0000
,
0230
0000
1000
0000
,
0000
1300
1000
0001
,
0002
0000
0023
0000
,
0030
0000
0100
0000
,
0100
0000
0100
1000
,
0100
0010
0001
0100
,
1001
0000
0001
0000
,
1000
0001
1000
0000
,
0010
0000
1000
0000
,
0001
0100
0001
1000
,
0200
0000
0300
0100
,
0020
0000
0130
0000
,
1001
0000
0000
0000
0002
0000
0000
1000
,
0000
1000
2003
0000
,
0001
0000
3002
1000
,
0000
0100
0203
0000
,
0320
0000
0000
0000
,
0030
0000
0000
0000
;

//--------------- dance-single - ----------------
#NOTES:
     dance-single:
     :
     Hard:
     7:
     0,0,0,0,0:
0000
0000
0000
0000
,
0000
0000
0000
0000
,
0000
0000
0000
0000
,
0000
0000
0000
0000
,
0000
0000
0000
0000
,
0000
0000
0000
0000
,
0000
0000
0000
0000
,
0000
0000
0000
0000
,
0002
0000
0003
0000
1001
0000
1000
0010
,
0000
0010
1000
0000
0200
0000
1300
0000
,
2000
0000
3010
0000
0110
0000
0100
0001
,
0000
0010
0001
0000
1000
0000
0010
0000
,
0100
0001
0110
2000
,
0001
0000
3001
0010
0002
0000
0000
0000
,
0103
0001
1001
1000
,
0100
0010
0001
0000
0200
0000
0000
0000
,
0301
1000
0001
1000
0100
0000
1000
0000
,
0010
1000
0001
0000
0200
0000
0301
0000
,
1001
0000
1000
0010
1000
0000
0100
0010
,
0001
0010
0001
1000
0200
0000
0300
0000
,
1001
0000
1000
0000
0001
0010
0001
0000
,
0200
0302
1003
0100
,
1000
0010
1000
0000
0001
0010
0001
0010
,
0200
2300
3001
0000
,
1001
0001
2000
3100
,
0000
0100
0110
0000
,
0010
0001
0010
0000
0001
1000
0010
1000
,
0100
1000
1001
0001
,
0010
0001
1000
0000
0010
0100
0010
0100
,
0101
0000
0010
0001
2000
0000
3100
0000
,
1000
0000
0010
0000
1001
0000
0000
0001
,
0100
0000
0001
0000
0010
0001
1000
0000
,
0100
0000
0010
0000
0100
0000
0010
0001
,
2000
3002
2000
3003
,
0110
0000
0000
0000
0001
0000
0010
0001
,
0000
1000
0100
0000
2200
0000
3300
0000
,
0202
0303
0010
0001
,
1000
0100
1000
0002
0200
0000
0303
0000
,
0110
0001
0110
1000
,
1001
0000
0001
0010
0001
0000
1000
0010
,
1000
0200
1000
1300
,
0001
0000
0100
0001
0020
0000
0030
0000
,
0022
0000
0033
0000
0001
1000
0010
0000
,
2020
3030
0220
0000
,
0330
0000
0001
0000
2002
0000
0000
3003
,
0000
1000
0001
0000
1000
0000
0000
0000
,
0200
1000
0000
1300
,
0001
0100
0020
0000
1030
0000
0001
0000
,
0200
0000
0000
0000
,
0300
0000
0000
0000
;
