#TITLE:TILL THE END OF TIME;
#SUBTITLE:;
#ARTIST:Julianne&Edison;
#TITLETRANSLIT:;
#SUBTITLETRANSLIT:;
#ARTISTTRANSLIT:;
#GENRE:Dance Pop;
#CREDIT:8Chasey 2026;
#MUSIC:Till the end of time.ogg;
#BANNER:TILL THE END OF TIME-bn.png;
#BACKGROUND:TILL THE END OF TIME-bg.png;
#CDTITLE:;
#SAMPLESTART:21.650;
#SAMPLELENGTH:12.000;
#SELECTABLE:YES;
#OFFSET:-0.628;
#BPMS:0.000=137.000;
#STOPS:;
#BGCHANGES:;
#FGCHANGES:;

//--------------- dance-single - 8Chasey ----------------
#NOTES:
     dance-single:
     8Chasey:
     Beginner:
     1:
     0,0,0,0,0:
0000
0000
0000
0000
,
0000
0000
0000
0000
,
0000
0000
0000
0000
,
0000
0000
0000
0000
,
0000
1000
1000
0000
,
0000
0001
0001
0000
,
0000
1000
1000
0000
,
0001
0001
0001
0000
,
0100
0000
0100
0000
,
0010
0000
0010
0000
,
0100
0000
0010
0000
,
0100
0000
0010
0000
,
0000
0100
0100
0000
,
0000
0010
0010
0000
,
0100
0000
0010
0000
,
0110
0000
0000
0000
,
0000
1000
1000
0000
,
0000
0001
0001
0000
,
1000
0000
0001
0000
,
1001
0000
0000
0000
,
0001
0000
0000
0000
,
1000
0000
0000
0000
,
0001
0000
1000
0000
,
0001
0001
0001
0000
,
1000
0000
0000
0000
,
0001
0000
0000
0000
,
1000
0000
0001
0000
,
1000
1000
1000
0000
,
0010
0000
0010
0000
,
0100
0000
0100
0000
,
0010
0000
0100
0000
,
0110
0000
0000
0000
,
0001
0000
0001
0000
,
1000
0000
1000
0000
,
0001
0000
1000
0000
,
1001
0000
0000
0000
,
0001
0000
0000
0001
,
0001
0000
0000
0000
,
1000
0000
0000
1000
,
1000
0000
0000
0000
,
0010
0000
0000
0010
,
0010
0000
0000
0000
,
0100
0000
0000
0100
,
0100
0000
0000
0000
,
0001
0000
0001
0000
,
1000
0000
1000
0000
,
0001
0000
1000
0000
,
1001
0000
0000
0000
,
0100
0000
0100
0000
,
0010
0000
0010
0000
,
0100
0000
0010
0000
,
0110
0000
1001
1001
;

//--------------- dance-single - 8Chasey ----------------
#NOTES:
     dance-single:
     8Chasey:
     Easy:
     3:
     0,0,0,0,0:
0000
0000
0000
0000
,
0000
0000
0000
0000
,
0000
0000
0000
0000
,
0000
0000
0000
0000
,
0000
1000
1000
0000
,
0000
0001
0001
0000
,
0000
1000
0001
0000
,
0001
1000
0001
1000
,
0010
0100
0010
0000
,
0100
0010
0100
0000
,
0001
0001
1000
1000
,
0001
1000
0001
0000
,
1000
0010
1000
0000
,
0001
0010
0001
0000
,
1000
0000
0001
0000
,
1000
0001
1000
0000
,
0001
0010
0001
0000
,
1000
0010
1000
0000
,
0010
0100
0010
0000
,
0100
0000
0000
0000
0100
0000
0000
0000
0100
0000
0000
0100
0000
0000
0100
0000
,
0000
0001
0000
0001
,
0000
1000
0000
1000
,
0001
0010
0001
0000
,
1000
0010
1000
0000
,
0000
0100
0000
0100
,
0000
0010
0000
0010
,
0001
0100
0001
0000
,
1000
0100
1000
0000
,
0001
1000
0001
0000
,
1000
0001
1000
0000
,
0001
0000
1000
0000
,
0001
1000
1001
0000
,
1000
0100
1000
0000
,
0001
0100
0001
0000
,
0100
0010
0100
0000
,
0010
0000
0000
0000
0010
0000
0000
0000
0010
0000
0000
0010
0000
0000
0010
0000
,
0000
0000
0000
0000
,
1000
0000
0001
0000
,
0100
0000
0010
0000
,
1000
0010
1000
0010
,
1000
0000
1000
0000
,
0001
0010
0001
0010
,
0001
0000
0001
0000
,
1001
0000
0000
0000
,
1000
0100
1000
0000
,
0001
0010
0001
0000
,
0100
0000
0010
0000
,
0100
0010
0110
0000
,
0100
0001
0100
0000
,
0010
1000
0010
0000
,
1000
1000
0001
0001
,
1000
0000
0000
0000
0001
0000
0000
0000
1000
0000
0000
0001
0000
0000
1001
0000
;

//--------------- dance-single - 8Chasey ----------------
#NOTES:
     dance-single:
     8Chasey:
     Medium:
     6:
     0,0,0,0,0:
0000
0000
0000
0000
,
0000
0000
0000
0000
,
0000
0000
0000
0000
,
0000
0000
0000
0000
,
0001
0000
0100
0000
0001
0000
1000
0001
,
1000
0000
0100
0000
1000
0000
0001
1000
,
0001
0000
0010
0000
0100
0000
0010
0100
,
0010
0011
0100
1100
,
1000
0000
0010
0000
0100
0010
0100
0100
,
0100
0000
0001
0000
1000
0001
1000
0001
,
1000
0000
0100
0000
0010
0100
0010
0010
,
0010
0000
0001
0000
1000
0001
1000
0000
,
1001
0000
0001
0000
0100
0001
0100
0000
,
0010
0000
1000
0000
0100
1000
0100
0000
,
0010
0010
0010
0000
0100
0100
0100
0000
,
0010
0000
0000
0000
0100
0000
0000
0000
1000
0000
0000
0001
0000
0000
1001
0000
,
0000
0000
0001
0000
0010
0001
0010
0000
,
0100
0000
1000
0000
0010
1000
0010
0000
,
1000
1000
1000
0000
0001
0001
0001
0000
,
1000
0000
0000
0000
0001
0000
0000
0000
0100
0000
0000
0010
0000
0000
0110
0000
,
0000
0100
0001
0100
0000
0001
0000
1000
,
0000
0100
1000
0100
0000
1000
0000
0001
,
0000
0010
0001
0010
0000
0001
0000
1000
,
0000
0010
1000
0010
0000
1000
0000
0001
,
0000
1000
0100
1000
0000
0010
0000
0100
,
0000
0001
0010
0001
0000
0100
0000
0010
,
0000
1000
0001
1000
0000
0001
1000
0001
,
1000
0100
0010
0001
,
1001
0000
1000
0000
0100
1000
0100
0000
,
0010
0000
0001
0000
0100
0001
0100
0000
,
0010
0010
0010
0000
0100
0100
0100
0000
,
0010
0000
0000
0000
0100
0000
0000
0000
0001
0000
0000
1000
0000
0000
1001
0000
,
0000
0000
0001
0000
0010
0100
0010
0000
,
0100
0000
1000
0000
0100
0010
0100
0000
,
1000
1000
1000
0000
0001
0001
0001
0000
,
1000
0000
0000
0000
0001
0000
0000
0000
0010
0000
0000
0100
0000
0000
0110
0000
,
0010
0000
0001
0000
0010
0000
0001
0010
,
1000
0000
0010
0000
1000
0000
0010
1000
,
0100
0000
1000
0000
0100
0000
1000
0100
,
0001
0000
0100
0000
0001
0000
0100
0001
,
1000
0000
0010
0000
1000
0000
0010
0100
,
0010
0000
0100
0000
0001
0000
0100
0010
,
0100
0000
0001
0000
1000
0001
1000
0001
,
1001
0000
0010
0010
,
1001
0000
1000
0000
0100
1000
0100
0000
,
0010
0000
0001
0000
0100
0001
0100
0000
,
0001
0001
0001
0000
1000
1000
1000
0000
,
0001
0000
0000
0000
1000
0000
0000
0000
0010
0000
0000
0100
0000
0000
0110
0000
,
0000
0000
0100
0000
0001
0100
0001
0000
,
0100
0000
0010
0000
1000
0010
1000
0000
,
0010
0010
0010
0000
0100
0100
0100
0000
,
0010
0000
0000
0000
0100
0000
0000
0000
0001
0000
0000
1000
0000
0000
1001
0000
;

//--------------- dance-single - 8Chasey ----------------
#NOTES:
     dance-single:
     8Chasey:
     Hard:
     8:
     0,0,0,0,0:
0000
0000
0000
0000
,
0000
0000
0000
0000
,
0000
0000
0000
0000
,
0000
0000
0000
0000
,
0000
0000
0100
0000
0001
0000
0000
0000
0010
0000
0000
0010
0000
0000
0010
0000
,
0000
0000
0100
0000
1000
0000
0000
0000
0100
0000
0000
0100
0000
0000
0100
0000
,
0000
0000
0010
0000
0100
0000
0000
0000
1000
0000
0000
0001
0000
0000
1000
0000
,
0001
0100
0001
1000
0010
1000
0100
0100
,
0110
0000
0000
0000
0010
0000
0000
0000
0001
0000
0000
0100
0000
0000
0001
0000
,
0000
0000
1000
0000
0001
0000
0000
0000
1000
0000
0000
0100
0000
0000
1000
0000
,
0000
0000
0010
0000
0100
0000
0000
0000
0010
0000
0000
0010
0000
0000
0010
0000
,
0000
0000
1000
0000
0001
0000
1000
0000
0100
0000
0000
0100
0000
0000
0100
0000
,
1001
0000
0001
0000
0001
0000
0100
0001
0000
0000
0010
0000
0100
0000
1000
0000
,
0010
0000
1000
0000
1000
0000
0100
1000
0000
0000
0100
0000
0010
0000
0001
0000
,
0100
0000
0010
0000
0010
0000
0100
0010
0000
0000
1000
0000
0100
0000
0010
0000
,
0011
0000
0000
0000
1100
0000
0000
0000
1000
0000
0000
0001
0000
0000
1001
0000
,
0000
0000
1000
0000
1000
0000
0010
1000
0000
0000
0100
0000
0010
0000
0001
0000
,
0100
0000
0001
0000
0001
0000
0010
0001
0000
0000
0100
0000
0010
0000
1000
0000
,
0100
0000
0010
0000
0010
0000
0100
0010
0000
0000
0001
0000
0100
0000
0010
0000
,
1010
0000
0000
0000
0101
0000
0000
0000
1000
0000
0000
0001
0000
0000
1001
0000
,
0000
1000
0100
1000
0001
0010
0000
0010
,
0000
0100
0010
0001
1000
0100
0000
0100
,
1000
0000
0000
0000
0001
0000
0100
0000
0001
0000
0000
0001
0000
0000
0001
0000
,
0000
0000
0010
0000
0001
0000
0000
0000
1000
0000
0000
1000
0000
0000
1000
0000
,
0000
0100
1000
0010
0100
0000
0001
0001
,
0000
0010
0001
0100
0010
0010
0100
0000
,
0010
0000
1000
0000
0001
0000
0100
0000
0001
0000
0000
0000
1000
0000
0001
0100
,
0001
0000
0000
0000
1001
0000
0000
0000
1000
0000
0010
0100
0010
0000
0100
0010
,
0100
0000
0001
0000
0001
0000
0010
0001
0000
0000
0100
0000
0010
0000
1000
0000
,
0100
0000
1000
0000
1000
0000
0010
1000
0000
0000
0100
0000
0010
0000
0001
0000
,
0100
0000
0010
0000
0010
0000
0100
0010
0000
0000
1000
0000
0100
0000
0010
0000
,
0011
0000
0000
0000
1100
0000
0000
0000
1000
0000
0000
0001
0000
0000
1001
0000
,
0000
0000
0001
0000
0001
0000
0100
0010
0000
0000
1000
0000
0100
0000
0010
0000
,
0001
0000
1000
0000
1000
0000
0100
0010
0000
0000
0001
0000
0100
0000
0010
0000
,
1000
0000
0100
0000
0100
0000
0010
0100
0000
0000
0010
0000
0001
0000
0100
0000
,
0110
0000
0000
0000
1001
0000
0000
0000
0100
0000
0000
0010
0000
0000
0110
0000
,
0000
0000
0100
0000
0001
0000
0000
0000
1000
0000
0000
1000
0000
0000
1000
0000
,
0000
0000
0100
0000
1000
0000
0000
0000
0001
0000
0000
0001
0000
0000
0001
0000
,
0000
0000
0010
0000
0001
0000
0000
0000
0100
0000
0000
0100
0000
0000
0110
0000
,
0000
0000
0010
0000
1000
0000
0000
0000
0100
0000
0000
0100
0000
0000
0110
0000
,
0000
0000
0001
0000
0100
0000
0001
0000
1000
0000
0000
0001
0000
0000
1001
0000
,
0000
0000
1000
0000
0010
0000
1000
0000
0001
0000
0000
1000
0000
0000
1001
0000
,
0000
0000
0001
0000
0010
0000
0001
0000
0100
0000
0010
0100
0010
0000
1000
0000
,
0100
0010
0100
0010
,
1001
0000
1000
0000
1000
0000
0010
1000
0000
0000
0100
0000
0010
0000
0001
0000
,
0100
0000
0001
0000
0001
0000
0010
0001
0000
0000
0010
0000
0100
0000
1000
0000
,
0010
0000
0100
0000
0100
0000
0010
0100
0000
0000
0001
0000
0010
0000
0100
0000
,
1100
0000
0000
0000
0011
0000
0000
0000
0101
0000
0000
1010
0000
0000
1001
0000
,
0000
0000
0001
0000
0001
0000
0100
0001
0000
0000
0010
0000
0100
0000
1000
0000
,
0010
0000
1000
0000
1000
0000
0100
1000
0000
0000
0010
0000
0100
0000
0001
0000
,
0010
0000
0100
0000
0100
0000
0010
0100
0000
0000
1000
0000
0010
0000
0100
0000
,
0101
0000
0000
0000
1010
0000
0000
0000
1100
0000
0000
0011
0000
0000
1001
0000
;
