#TITLE:THEME FROM ママにゲームを隠してもらった;
#SUBTITLE:(2024 Chart);
#ARTIST:hap;
#TITLETRANSLIT:THEME FROM HIDDEN MY GAME BY MOM;
#SUBTITLETRANSLIT:;
#ARTISTTRANSLIT:;
#GENRE:;
#CREDIT:8Chasey 2024;
#MUSIC:THEME FROM HIDDEN MY GAME BY MOM (2024 Chart).ogg;
#BANNER:THEME FROM HIDDEN MY GAME BY MOM (2024 Chart).png;
#BACKGROUND:THEME FROM HIDDEN MY GAME BY MOM (2024 Chart)-bg.png;
#CDTITLE:;
#SAMPLESTART:103.530;
#SAMPLELENGTH:12.000;
#SELECTABLE:YES;
#OFFSET:0.115;
#BPMS:0.000=180.000
,212.000=90.000
,220.000=180.000
,376.000=90.000
,384.000=180.000
,438.000=90.000
,440.000=180.000
;
#STOPS:396.000=0.667;
#BGCHANGES:2.750=THEME FROM HIDDEN MY GAME BY MOM (2024 Chart).avi=1.000=0=0=0=StretchNoLoop====,
486.000=THEME FROM HIDDEN MY GAME BY MOM (2024 Chart)-bg.png=1.000=0=0=1,
99999.000=-nosongbg-=1.000=0=0=0=StretchNoLoop====
;
#FGCHANGES:;

//--------------- dance-single - 8Chasey - 2025 chart ----------------
#NOTES:
     dance-single:
     8Chasey - 2025 chart:
     Beginner:
     2:
     0,0,0,0,0:
0000
0000
0000
0000
,
0000
0000
0000
0000
,
0000
0000
0000
0000
,
0000
0000
0000
0000
,
0001
0000
0001
0000
,
1000
0000
1000
0000
,
0010
0010
0010
0000
,
1000
0000
0001
0000
,
1000
0000
1000
0000
,
1000
0000
0000
0000
,
0001
0000
0001
0000
,
0001
0000
0000
0000
,
0100
0000
0000
0000
,
0010
0000
0000
0000
,
0100
0000
0100
0000
,
0010
0000
0010
0000
,
1000
0000
0000
0000
,
0001
0000
0000
0000
,
0001
0000
0000
0000
,
1000
0000
0000
0000
,
0010
0000
0000
0000
,
0100
0000
0000
0000
,
0001
0000
0001
0000
,
1000
0000
1000
0000
,
0001
0000
0000
0000
,
0100
0000
0100
0000
,
0010
0000
0010
0000
,
0000
0000
0000
0000
,
0001
0000
0001
0000
,
1000
0000
1000
0000
,
0001
0000
1000
0000
,
0001
0000
0000
0000
,
1000
0000
0001
0000
,
1000
0000
0000
0000
,
0001
0000
0001
0000
,
0001
0000
0000
0000
,
1000
0000
1000
0000
,
1000
0000
0000
0000
,
0010
0000
0010
0000
,
0100
0000
0100
0000
,
0010
0000
0100
0000
,
0010
0010
0010
0000
,
0100
0100
0100
0000
,
0010
0000
1001
0000
,
0001
0000
0001
0000
,
0001
0000
0000
0000
,
1000
0000
1000
0000
,
1000
0000
0000
0000
,
0010
0000
0000
0000
,
0100
0000
0000
0000
,
0010
0000
0010
0000
,
0100
0000
0100
0000
,
0000
0000
0000
0000
,
0001
0000
0000
0000
,
0000
0000
0000
0000
,
1000
0000
1000
0000
,
0001
0000
0001
0000
,
0100
0000
0100
0000
,
0010
0000
0010
0000
,
0001
0000
0000
0000
,
1000
0000
0000
0000
,
1000
0000
0000
0000
,
0001
0000
0000
0000
,
0100
0000
0000
0000
,
0010
0000
0000
0000
,
1000
0000
1000
0000
,
0001
0000
0001
0000
,
1000
0000
0000
0000
,
0010
0000
0010
0000
,
0100
0000
0100
0000
,
0000
0000
0000
0000
,
1000
0000
1000
0000
,
0001
0000
0001
0000
,
1000
0000
0001
0000
,
1000
0000
0001
0000
,
1001
0000
0000
0000
,
1000
0000
1000
0000
,
1000
0000
0000
0000
,
0001
0000
0001
0000
,
0001
0000
0000
0000
,
0100
0000
0100
0000
,
0010
0000
0010
0000
,
0100
0000
0010
0000
,
0100
0000
0010
0000
,
1000
0000
0000
0000
,
0001
0000
0000
0000
,
1000
0000
0001
0000
,
1000
0000
1000
0000
,
0001
0000
0000
0000
,
1000
0000
0000
0000
,
0001
0000
1000
0000
,
0001
0000
0001
0000
,
0100
0000
0000
0000
,
0010
0000
0000
0000
,
0100
0100
0100
0000
,
0010
0010
0010
0000
,
0100
0000
0100
0000
,
0100
0000
0000
0000
,
0010
0000
0010
0000
,
0110
0000
0100
0000
,
0100
0000
0100
0000
,
0000
0000
0010
0000
,
0010
0000
0010
0000
,
0000
0000
1000
0000
,
1000
0000
0001
0000
,
0001
0000
1000
0000
,
0001
0000
1000
0000
,
0000
0000
0001
0000
,
1000
0000
0001
0000
,
0000
0000
1001
0000
,
0000
0000
0000
0000
,
0010
0000
0010
0000
,
0010
0000
0000
0000
,
0100
0000
0100
0000
,
0100
0000
0000
0000
,
0001
0000
0000
0000
,
1000
0000
0000
0000
,
0001
0000
0001
0000
,
1000
0000
1000
0000
,
0010
0010
0010
0000
,
0100
0000
0000
1001
;

//--------------- dance-single - 8Chasey ----------------
#NOTES:
     dance-single:
     8Chasey:
     Easy:
     3:
     0.262518,0.315987,0.104675,0.145382,0,316,298,18,25,0,0,0.262518,0.315987,0.104675,0.145382,0,316,298,18,25,0,0:
0000
0000
0000
0000
,
0000
0000
0000
0000
,
0000
0000
0000
0000
,
0000
0000
0000
0000
,
0001
0000
1000
0000
,
0001
0001
1000
1000
,
0010
0100
0010
0000
,
1000
0001
1001
0000
,
1000
0000
1000
0000
,
0010
0000
0100
0000
,
0001
0000
0001
0000
,
0010
0010
0100
0000
,
1000
0000
0100
0000
,
0001
0100
0010
0000
,
1010
0000
0011
0000
,
0100
0010
0100
0000
,
1000
0000
0000
0000
0010
0000
0000
2000
,
0000
0000
3100
0000
,
0010
0000
0000
0000
1000
0000
0000
0002
,
0000
0000
0103
0000
,
0001
0010
0010
0000
,
0100
0100
1000
0000
,
0001
1000
0001
1000
,
0010
0000
0010
0000
,
2000
0000
3002
0000
,
0103
0100
0010
0010
,
1000
0000
2002
0000
,
0000
0000
3003
0000
,
1000
0001
1000
0000
,
0001
1000
0001
0000
,
0010
0000
0010
0000
,
0100
0000
0000
0020
0000
0000
0030
0000
,
1000
0000
0000
0000
0001
0000
0000
0200
,
0000
0000
0000
0300
,
0001
0000
1000
0000
,
0001
0010
0100
0000
,
1000
0000
0001
0000
,
1000
0010
0100
0000
,
0010
0000
0100
0000
,
0001
1000
1000
0000
,
0100
1000
0010
0100
,
0001
1000
0010
0000
,
0010
0100
0010
0000
,
0001
1000
1001
0000
,
0010
0000
0010
0000
,
1000
0001
0100
0000
,
0001
0000
1000
0000
,
0001
1000
0100
0000
,
0010
0000
0100
0000
,
1000
0000
0001
0000
,
0011
0000
1100
0000
,
1001
0000
0110
0000
,
0200
0000
0300
0000
,
0010
1000
2000
3000
,
0100
0010
0002
0003
,
1000
0000
1000
0000
,
0010
0100
0001
0000
,
1100
0000
0101
0000
,
0010
0100
0010
0000
,
1000
1000
0010
0000
,
0100
0001
1000
0000
,
0001
0001
0010
0000
,
0001
1000
0010
0000
,
0200
0000
0301
0000
,
0020
0000
1030
0000
,
0100
0000
0010
0000
,
0001
1000
0010
0000
,
0002
0000
2003
0000
,
3010
0010
0100
0100
,
0001
0000
2002
0000
,
0000
0000
3003
0000
,
0001
1000
0001
0000
,
1000
0001
1000
0000
,
0010
0000
0010
0000
,
0100
0000
0000
0020
0000
0000
0030
0200
,
0000
0000
0300
0110
,
1000
0000
0001
0000
,
1000
0010
0100
0000
,
0001
0000
1000
0000
,
0001
0010
0100
0000
,
0010
0000
0100
0000
,
0010
0100
1000
0000
,
0001
0100
0010
1000
,
0100
0010
0100
0000
,
1000
0000
1000
0000
,
0001
0000
0100
0000
,
0010
0000
0100
0000
,
0001
0001
1000
0000
,
0100
0000
0010
0000
,
0001
1000
0010
0000
,
0100
0010
0100
0000
,
0010
0100
0010
0000
,
0001
0001
1000
1000
,
0020
0000
0130
0000
,
1000
0010
0002
0003
,
0001
0100
2000
3000
,
0010
0000
1000
0000
,
0001
0000
0100
0000
,
0100
0000
0010
0000
,
1001
0000
1000
0000
,
0001
0000
1000
0010
,
1000
0000
0001
0000
,
1000
0000
0001
0100
,
0001
0000
0010
0000
,
0100
0000
0010
0001
,
1000
0100
0010
0010
,
0100
0100
0010
0001
,
1000
0000
0010
0010
,
0100
0100
0010
1000
,
0001
0000
2002
3003
,
0010
0010
0020
0030
,
1000
0000
0100
0000
,
0001
0000
0010
0000
,
0100
0000
0010
0000
,
0100
1000
0001
0000
,
0010
0010
0001
0000
,
0100
0001
1000
0000
,
0010
0010
1000
0000
,
1001
0000
0110
0000
,
1000
0001
0010
0000
,
0001
1000
0010
1001
;

//--------------- dance-single - 8Chasey ----------------
#NOTES:
     dance-single:
     8Chasey:
     Medium:
     6:
     0.427838,0.526646,0.174458,0.465222,0,515,485,30,80,0,0,0.427838,0.526646,0.174458,0.465222,0,515,485,30,80,0,0:
0000
0000
0000
0000
,
0000
0000
0000
0000
,
0000
0000
0000
0000
,
0000
0000
0000
0000
,
1001
0000
0000
0001
1000
0000
0000
1000
,
0001
0010
0001
1000
,
0001
0000
0001
0000
1000
0000
0000
0200
,
0000
1300
0001
1001
,
1000
1000
0001
0010
,
0100
0000
0010
0001
1000
0000
0100
0000
,
2000
3010
0200
0301
,
1000
0010
0110
0100
,
0001
0000
1000
0000
0100
0000
0010
0001
,
1000
0001
1000
0010
,
0202
0303
2200
3300
,
1000
0001
0010
0100
,
0010
0000
0001
1000
0010
0000
0010
2000
,
0000
0100
0001
3010
,
0100
0000
0010
1000
0010
0000
0100
0002
,
0000
0010
1000
0103
,
0010
0010
1000
0100
,
0010
0000
0001
0000
1000
0001
0000
0001
,
0100
0010
1000
1000
,
0010
0100
0001
1000
,
0200
0000
0300
1000
0001
0000
0000
0000
,
0010
0010
0001
1000
,
0020
0030
2002
3003
,
1000
0010
0001
0100
,
0010
0000
1000
0000
0010
2000
0000
3000
,
0001
0100
0001
0100
,
0010
2000
0000
3000
0001
0200
0000
0300
,
0010
0000
0100
0020
0000
0000
0030
0000
,
1000
0000
0001
0000
0010
0000
0010
0200
,
0000
0000
0300
1001
,
2000
3100
0002
0103
,
0010
0000
1000
0000
0001
1000
0001
0000
,
0020
0031
0200
1300
,
0001
0100
0010
1000
,
0002
0013
2000
3010
,
0100
0000
0001
0000
1000
0010
1000
0000
,
0001
0010
0001
0000
0100
0010
0100
0000
,
1000
0001
2002
3003
,
0010
0000
1000
0000
0001
0000
0000
0200
,
0000
0301
1000
1001
,
0010
0010
0001
1000
,
0100
0000
0010
0100
0010
0000
0001
0000
,
0002
0013
0200
1300
,
0010
1000
1001
0001
,
0100
0000
0010
0000
1000
0000
0001
0010
,
0100
0010
0100
1000
,
2020
3030
0022
0033
,
1000
0010
0001
0100
,
0020
0000
0130
0100
,
0001
0000
1000
0000
0200
0010
0310
0100
,
1000
0000
0001
0000
0020
0100
0130
1001
,
1000
0010
0001
1000
,
0002
0100
0200
0303
,
0010
0000
1000
0000
0001
0010
0100
0000
,
2000
0100
0200
3300
,
0110
0010
0100
1000
,
0001
0000
0001
0000
0001
0010
0001
0000
,
0100
0010
1000
0010
,
0100
0000
0001
0000
1000
0100
1000
0000
,
0010
0001
1000
0010
,
0100
0002
2000
3003
,
1010
0100
0001
0010
,
0001
2000
0002
3003
,
0200
0000
0300
0001
1000
0000
0000
0000
,
0010
0010
0001
1000
,
0200
0300
0220
0330
,
0010
0001
1000
0100
,
0010
0000
0001
0000
0010
0002
0000
0003
,
1000
0100
1000
0100
,
0010
0002
0000
0003
1000
0200
0000
0300
,
0010
0000
0010
0200
0000
0000
0300
0010
,
0000
0001
1000
0000
0020
0000
0130
0000
,
0002
0103
2000
3100
,
0010
0000
0001
0000
1000
0001
1000
0000
,
0020
1030
0200
0301
,
0010
0001
1000
0001
,
2000
3010
0002
0013
,
0100
0000
0100
0000
0010
0001
1000
0000
,
0010
1000
0001
0000
0100
0010
0100
0000
,
0001
1000
2002
3003
,
0010
0010
1000
0001
,
0010
0000
0100
0000
1000
0001
1000
0000
,
0002
0103
0020
1030
,
0010
0100
1001
0110
,
1000
0000
1000
0000
0010
0000
0100
0001
,
1000
0100
0010
0001
,
2002
3003
0220
0330
,
1001
1000
0010
0001
,
0200
0001
0310
1000
,
0200
0010
1300
0010
,
1001
0000
1000
0000
0001
0001
1000
0010
,
1001
0000
0001
0000
0100
0010
1000
0100
,
0010
0001
1000
0010
,
0100
0100
0010
0010
,
2000
0100
3002
0100
,
0013
0110
0020
0031
,
0200
0000
1300
0000
1000
0010
0100
0000
,
0001
1000
0020
1030
,
0200
0301
1000
0001
,
0110
0000
0010
0000
0001
0010
0100
0000
,
0001
0010
0100
0000
1000
0010
0100
0000
,
1000
0010
0100
0000
0001
0100
0001
0000
,
1000
0010
1000
0000
0100
0000
0010
0000
,
0100
0000
0100
0000
1000
0100
1000
0000
,
0001
0010
0001
0000
0010
0000
0100
0000
,
1000
0001
0110
1000
,
0001
0020
0200
0330
,
1000
1000
0001
0010
,
0001
0100
0010
0000
1000
0000
0010
0000
,
0200
0310
2000
3001
,
0020
0130
1001
1000
,
0001
0000
0100
0000
0010
0000
0010
0100
,
1000
0001
0100
1000
,
0001
0010
0001
0000
1000
0010
1000
0000
,
0001
0100
1000
0100
,
0001
0000
1000
0000
0010
0000
0000
1001
,
0000
0100
0010
1000
0001
0000
1001
0000
;

//--------------- dance-single - 8Chasey ----------------
#NOTES:
     dance-single:
     8Chasey:
     Hard:
     8:
     0,0,0,0,0:
0000
0000
0000
0000
,
0000
0000
0000
0000
,
0000
0000
0000
0000
,
0000
0000
0000
0000
,
0001
0000
0000
1000
0001
0000
0000
1000
,
0001
1000
0100
1000
0010
0100
0001
0010
,
1100
0000
0101
0000
0010
1000
0010
0200
,
0000
0301
0010
0001
1000
0000
0110
0000
,
1000
0010
1000
0100
0010
0001
0100
0010
,
1000
0000
0010
0100
0001
0010
0001
0000
,
1000
0100
0010
0000
0001
0010
0100
0000
,
0001
0010
0001
1000
0010
0100
1000
0000
,
0100
0000
0010
1000
0010
0100
0001
1000
,
0100
0000
1000
0001
0010
0000
0001
0000
,
0100
0001
0010
0000
0100
1000
0010
0000
,
1000
1001
0001
0100
,
0001
0010
0001
0000
0010
0000
0001
2000
,
0000
0000
3100
0000
1000
0001
0100
0000
,
0010
1000
0001
0000
0100
0000
0100
0002
,
0000
0000
1003
0000
0010
1000
0001
0000
,
1000
0100
1000
0000
0001
0010
0001
0100
,
0010
0000
1000
0010
0100
0002
0000
0103
,
0001
1000
0100
1000
0010
0010
0100
0000
,
0010
1000
0010
0100
0001
1000
0100
0000
,
1100
0000
1000
0001
0101
0000
0010
0000
,
1000
0010
0100
0000
0001
1000
0001
0000
,
0200
0000
0301
1000
0020
0000
1030
0000
,
0100
1000
0001
0100
0001
0000
2100
0000
,
3010
1000
0010
0100
0010
2000
0100
0000
,
3001
0010
0100
0010
0001
1000
0010
0100
,
0001
0020
0000
0031
1000
0020
0000
1030
,
0100
1000
0002
2000
0000
3003
1001
0000
,
0100
1000
0010
1000
0001
0000
0001
0200
,
0000
0310
1000
0001
0011
0000
2100
0000
,
3010
1000
0100
0000
0010
0001
1000
0000
,
0010
1000
0010
0100
1000
0100
0001
0000
,
0010
0001
0100
0000
0001
1000
0100
0000
,
1000
0100
1000
0001
0100
0001
0010
0000
,
0001
0010
0001
0000
1000
0100
1000
0000
,
0010
0000
1000
0001
0010
0100
0010
0001
,
0101
0000
0001
0000
1100
0000
0010
1000
,
0010
0100
0001
0000
1020
0000
0130
0000
,
1100
0000
0101
0000
0010
1000
0010
0200
,
0000
0301
0010
0001
1000
0000
0110
0000
,
1000
0010
1000
0100
0010
0001
0100
0010
,
1000
0000
0010
0100
0001
0010
0001
0000
,
1000
0100
0010
0000
0001
0010
0100
0000
,
0001
0010
0001
1000
0010
0100
1000
0000
,
0100
0000
0010
1000
0010
0100
0001
1000
,
0100
0000
1000
0001
0010
0000
0001
0000
,
0100
0001
0010
0000
0100
1000
0010
0000
,
0100
0000
0101
0000
1010
0000
0100
0002
,
2000
0000
0000
0003
3010
1000
0010
0000
,
0100
0000
0000
0001
1000
0000
0001
0000
0010
0000
0001
0010
0001
0000
1000
0000
,
0100
0000
1000
0001
1000
0000
0001
0000
1000
0000
0010
1000
0010
0000
1000
0000
,
0100
1000
0001
0100
0010
0000
1000
0010
,
0200
0000
0301
0000
2020
0000
3030
1000
,
0010
1000
0100
0001
0100
1000
0010
0000
,
0100
0001
1000
0000
0022
0000
0033
0000
,
0010
0001
1000
0000
0100
1000
0010
0100
,
0000
1000
0100
0001
1000
0100
0010
0000
,
0001
0010
0001
0000
1000
0000
0100
1000
,
0010
0100
1000
0000
0100
0000
1001
0000
,
0001
0010
0001
0000
1000
0010
1000
0000
,
0100
0100
1000
0001
0100
0002
0000
0013
,
0001
0100
0001
0010
0100
1000
0001
1000
,
0010
1000
0101
0120
,
1030
0000
0100
1000
0010
0000
0100
1000
,
0010
0100
0002
0000
0013
0001
2000
0000
,
3100
0000
1000
0001
0200
0000
0010
0000
,
0301
1000
0100
0010
0001
0000
2100
0000
,
3010
0100
1000
0100
0010
2000
0000
3010
,
1000
0001
0010
0010
0001
0100
0010
0000
,
1000
0020
0000
0130
0001
0020
0000
0130
,
1000
0001
0001
0020
0000
0031
1000
0220
,
0330
0100
0001
0010
0001
0000
0201
0000
,
0310
1000
0100
0000
0010
0001
1000
0000
,
0010
1000
0010
0100
1000
0100
0001
0000
,
0010
0001
0100
0000
0001
1000
0100
0000
,
1000
0100
1000
0001
0100
0001
0010
0000
,
0001
0010
0001
0000
1000
0100
1000
0000
,
0010
0000
1000
0001
0010
0100
0010
0001
,
0101
0000
0001
0000
1100
0000
0010
1000
,
0010
0100
0001
0000
1020
0000
0130
0000
,
1000
0010
1000
0100
0010
0001
0100
0010
,
1000
0000
0010
0100
0001
0000
0101
0000
,
1000
1100
0001
0110
,
0001
0010
0001
1000
0020
0000
0001
0000
,
0130
0000
0010
1000
0010
0100
0001
1000
,
0100
1000
0010
0000
0101
0000
1100
0000
,
0010
1100
0010
0101
,
0002
0000
0013
0001
2000
0000
3100
0000
,
0220
0000
0330
0000
0100
0001
0010
0001
,
1000
0010
0100
1000
0100
0001
1000
0100
,
2000
0000
3002
0000
0013
0001
0010
0100
,
0020
0000
0230
0000
1300
1010
0001
0011
,
0010
0001
0010
0100
1000
0010
1000
0001
,
0100
0001
1000
0010
1000
0100
1000
0001
,
0100
0000
0000
0001
1000
0000
0000
0000
0001
0000
0000
1000
0001
0000
0010
0000
,
0022
0000
0033
0000
0100
0001
0010
0000
,
0100
1000
0001
0000
0100
0001
0100
0010
,
0001
0010
1000
0000
0100
1000
0010
0000
,
1000
0001
0010
0000
0001
0010
0001
1000
,
0010
1000
0100
0000
1000
0100
1000
0000
,
0001
0010
0001
0000
0100
0000
0001
1000
,
0100
0010
0100
1000
0020
0000
1030
0000
,
0001
0010
0001
0000
0020
0000
0031
0000
,
1000
0010
1000
0000
0100
1000
0010
0000
,
0100
0001
0010
0000
1100
0000
0010
0000
,
0101
0000
0000
0000
1001
0000
0000
0000
1000
0000
0010
0000
1000
0001
0000
0001
,
0100
0001
0010
0100
2002
0000
3003
0000
,
1000
0010
1000
0100
0010
0001
0100
0010
,
1000
0000
0010
0100
0001
0010
0001
0000
,
1000
0100
0010
0000
0001
0010
0100
0000
,
0001
0010
0001
1000
0010
0100
1000
0000
,
0100
0000
0010
1000
0010
0100
0001
1000
,
0100
0000
1000
0001
0010
0000
0001
0000
,
0100
0001
0010
0000
0100
1000
0010
0000
,
1000
1001
0001
0100
,
0010
1000
0010
1000
0001
0010
0001
2000
,
0000
3001
0001
0100
0010
0000
1001
0000
;

//--------------- dance-double - 8Chasey - 2025 chart ----------------
#NOTES:
     dance-double:
     8Chasey - 2025 chart:
     Easy:
     4:
     0,0,0,0,0:
00000000
00000000
00000000
00000000
,
00000000
00000000
00000000
00000000
,
00000000
00000000
00000000
00000000
,
00000000
00000000
00000000
00000000
,
00100000
00000000
00100000
00000000
,
00001000
00010000
00001000
00010000
,
00000100
00000100
00001000
00000000
,
00000010
00000100
00000001
00000000
,
00001000
00000100
00010000
00100000
,
01000000
00001000
00010000
00000100
,
00000010
00000001
00000100
00001000
,
00100000
00010000
00100000
00000000
,
10000000
00100000
00001000
00010000
,
00000100
00010000
00000010
00000000
,
00000100
00000001
00000100
00001000
,
00100000
00001000
00010000
00000000
,
00010000
00000000
00000000
00000000
00001000
00000000
00000000
00200000
,
00000000
00000000
00301000
00010000
,
00000010
00000000
00000000
00000000
00000100
00000000
00000000
00000002
,
00000000
00000000
00000103
00000000
,
00000010
00001000
00000100
00000000
,
00010000
00010000
00001000
00000000
,
01000000
00100000
10000000
00100000
,
01000000
00010000
00010000
00000000
,
00200000
00000000
00302000
00000000
,
01003000
00010000
00100000
00001000
,
00010000
00000000
00022000
00000000
,
00000000
00000000
00033000
00000000
,
00100000
01000000
00100000
00000000
,
01000000
00100000
01000000
00000000
,
00010000
00000000
00001000
00000000
,
00000100
00000000
00000000
00000020
00000000
00000000
00000030
00000000
,
00010000
00000000
00000000
00000000
00001000
00000000
00000000
00200000
,
00000000
00000000
00000000
00300000
,
01000000
00000000
10000000
00000000
,
00100000
01000000
00001000
00000000
,
00010000
00000000
00000100
00000000
,
00000010
00000100
00001000
00000000
,
00000010
00000100
00000010
00000000
,
00000100
00000010
00000010
00000000
,
00000100
00000001
00001000
00000010
,
00010000
00001000
00100000
00000000
,
00100000
01000000
00100000
00000000
,
00001000
00010000
00011000
00000000
,
00001000
00010000
00001000
00000000
,
00100000
00001000
00010000
00000000
,
00000100
00001000
00000010
00001000
,
00000001
00000100
00000001
00000000
,
00001000
00000100
00001000
00000000
,
00000010
00000100
00000010
00000000
,
00001010
00000000
00000101
00000000
,
00000100
00001000
00010000
00001000
,
00200000
00000000
00300000
00000000
,
00020000
01030000
02000000
03100000
,
00200000
10300000
20000000
31000000
,
00010000
00000000
00010000
00000000
,
00000100
00001000
00000010
00000000
,
00001000
00000000
00000001
00000000
,
00000010
00000100
00000010
00000000
,
00000100
00000100
00010000
00000000
,
00001000
00100000
01000000
00000000
,
00010000
00010000
00000100
00000000
,
00001000
00000001
00000100
00000000
,
00000010
00001000
00000100
00000000
,
00010000
00001000
00010000
00000000
,
00001000
00100000
00010000
10000000
,
01000000
00010000
00001000
00000000
,
00020000
00000000
00032000
00000000
,
00013000
00000100
00001000
00000010
,
00000100
00000000
00002002
00000000
,
00000000
00000000
00003003
00000000
,
00000010
00000100
00000010
00000000
,
00000100
00000010
00000100
00000000
,
00001000
00000000
00010000
00000000
,
00001000
00000000
00000000
00200000
00000000
00000000
00000000
02300000
,
00000000
00000000
03000000
01100000
,
10000000
00000000
01000000
00000000
,
00100000
00010000
00100000
00000000
,
00001000
00000000
00010000
00000000
,
00000100
00000010
00000001
00000000
,
00000100
00000000
00000010
00000000
,
00000100
00000010
00001000
00000000
,
00000100
00001000
00000010
00000100
,
00001000
00010000
00011000
00000000
,
00001000
00000000
00001000
00000000
,
00100000
00001000
00010000
00000000
,
00001000
00000000
00000010
00000000
,
00000001
00000001
00000100
00000000
,
00001000
00000000
01000000
00000000
,
00100000
01000000
00010000
00000000
,
01000000
00010000
00100000
00000000
,
00001000
00000000
00020000
00000000
,
00000002
00000000
00030000
00000000
,
00002000
00000000
00003003
00000000
,
00000001
00000010
00002000
00003000
,
00010000
01000000
20000000
30000000
,
00100000
00000000
01000000
00000000
,
00001000
00000000
00010000
00000000
,
00001000
00001000
00010000
00010000
,
00011000
00000000
00000100
00000000
,
00000010
00000000
00000100
00010000
,
00000100
00000000
00010000
00000000
,
00001000
00000000
01000000
00010000
,
01000000
00000000
00100000
00000000
,
01000000
00000000
00100000
10000000
,
00100000
01000000
00010000
00010000
,
10000000
10000000
01000000
00100000
,
00001000
00000000
00010000
00010000
,
00001000
00001000
00100000
00010000
,
10000000
00000000
20020000
30030000
,
00100000
00100000
00200000
00300000
,
10000000
00000000
01000000
00000000
,
00010000
00001000
00001000
00000000
,
01000000
00000000
00001000
00000000
,
00010000
00000010
00000100
00000000
,
00000010
00000010
00010000
00000000
,
00001000
00100000
00010000
00000000
,
01000000
00001000
00010000
00000000
,
00000020
00000030
00000200
00000300
,
00001000
00010000
00000200
00000000
,
00000310
00000100
00010000
00011000
;
