#TITLE:すれちがう二人;
#SUBTITLE:;
#ARTIST:apresmidi;
#TITLETRANSLIT:Surechigau futari;
#SUBTITLETRANSLIT:;
#ARTISTTRANSLIT:;
#GENRE:Bonus Track;
#CREDIT:8Chasey;
#MUSIC:Surechigau futari.ogg;
#BANNER:Surechigau futari-bn.png;
#BACKGROUND:Surechigau futari-bg.png;
#CDTITLE:cdtitle.png;
#SAMPLESTART:21.570;
#SAMPLELENGTH:12.000;
#SELECTABLE:YES;
#OFFSET:-7.557;
#BPMS:0.000=136.000;
#STOPS:;
#BGCHANGES:;
#FGCHANGES:;

//--------------- dance-single - 8Chasey ----------------
#NOTES:
     dance-single:
     8Chasey:
     Beginner:
     1:
     0,0,0,0,0:
0000
0000
0000
0000
,
0000
0000
0000
0000
,
0000
0000
0000
0000
,
0000
0000
0000
0000
,
0010
0010
0000
0000
,
0000
0000
0000
0000
,
0100
0100
0000
0000
,
0010
0000
0010
0000
,
0001
0000
0100
0100
,
0000
0000
0010
0000
,
1000
0000
0100
0100
,
0000
0000
0010
0000
,
1000
0000
0001
0001
,
0000
0000
1000
0000
,
0001
0000
1000
1000
,
0000
0000
0001
0000
,
0100
0000
0100
0100
,
0100
0000
0100
0000
,
0000
0010
0000
0010
,
0010
0000
0010
0000
,
1000
0000
0001
0000
,
1000
0000
0000
0000
,
0001
0000
1000
0000
,
0001
0000
0000
0000
,
1000
0000
0001
0001
,
0001
0000
0000
0000
,
1000
0000
0010
0000
,
0000
1000
1000
1000
,
1000
0000
0001
0000
,
0010
0000
0000
0001
,
0001
0000
0100
0000
,
0000
0000
0000
0000
,
0000
0001
0000
0001
,
0000
1000
0000
1000
,
0000
0001
0000
0001
,
0000
0100
0000
0100
,
0100
0000
0000
0001
,
0000
0000
0001
0000
,
0010
0000
0000
1000
,
0000
0000
1000
0000
,
1001
0000
0000
0000
;

//--------------- dance-single - 8Chasey ----------------
#NOTES:
     dance-single:
     8Chasey:
     Easy:
     4:
     0,0,0,0,0:
0000
0000
0000
0000
,
0000
0000
0000
0000
,
0000
0000
0000
0000
,
0000
0000
0000
0000
,
0001
1000
0000
0000
,
0010
0010
0000
0100
0000
0000
0100
0000
,
1000
0001
0000
0000
,
0010
0010
0010
1001
,
0001
0000
0100
0001
,
0100
0000
0010
0010
,
1000
0000
0100
1000
,
0100
0000
0010
0110
,
0001
0000
1000
0100
,
1000
0000
0010
1000
,
1000
0000
0001
0100
,
0001
0000
0010
1001
,
0100
0000
0000
0000
0001
0010
0000
0001
,
0000
1000
1000
0000
,
0000
0000
0100
0000
1000
0010
0000
1000
,
0000
0001
0001
0000
,
0000
0000
0100
0000
0001
0001
0000
0000
,
0010
0001
1000
0000
,
0000
0000
0100
0000
1000
1000
0000
0010
,
0000
1000
0001
0000
,
1001
0000
0100
0100
,
0001
0000
0000
1001
,
0010
0010
0100
0100
,
1000
0001
1000
0001
,
0100
0000
0010
0010
,
1000
0000
0001
1000
,
1001
0000
0110
0000
,
0001
0001
0001
0000
1000
0000
1000
0000
,
0100
1000
0000
0010
,
1000
0000
0010
0010
,
0100
0001
0000
0010
,
0001
0000
0100
0100
,
0001
0000
0100
0001
0000
0000
0100
0000
,
0001
0100
0001
0001
,
1000
0000
0100
1000
0000
0000
0100
0000
,
1000
0100
1000
1000
,
1001
0000
0000
0000
;

//--------------- dance-single - 8Chasey ----------------
#NOTES:
     dance-single:
     8Chasey:
     Medium:
     5:
     0,0,0,0,0:
0000
0000
0000
0000
,
0000
0000
0000
0000
,
0000
0000
0000
0000
,
0000
0000
0000
0000
,
0001
1001
0000
1000
,
0100
0100
0000
1000
0000
0000
0010
0000
,
1000
1001
0000
0001
,
0100
0010
1000
0101
,
1000
0000
1000
0000
0010
0010
1000
0000
,
0001
0100
0010
1000
,
0001
0000
0001
0000
0010
0010
0001
0000
,
1000
0100
0001
1001
,
0100
0000
0010
0000
0100
0100
1000
0000
,
0001
0100
0100
0010
,
1000
0000
0001
0000
0100
0100
0001
0000
,
1000
0010
0001
0110
,
0010
0000
0001
0000
1000
0100
0000
0100
,
0000
1000
0001
1001
,
0010
0000
1000
0000
0001
0100
0000
0100
,
0000
0001
1000
1001
,
0010
0000
0110
0000
1000
0100
0000
1000
,
0000
1000
0001
0000
0100
0000
0001
0000
,
0010
0000
0110
0000
0001
0100
0000
0001
,
0000
0001
1000
0000
0100
0000
1000
0000
,
1001
0000
0000
0000
1000
0010
1000
0000
,
0001
0000
0100
0001
,
1001
0000
0110
0010
,
0000
0000
1000
0100
1000
0000
0001
0000
,
1001
0000
0000
0000
0010
0001
0010
0000
,
0100
1001
1000
0001
,
1001
0000
1000
0010
0010
0000
0000
0000
,
1000
0001
1000
0000
0001
0000
0001
0000
,
0010
0000
0001
0000
0000
0010
0001
0000
,
1000
0100
1000
1100
,
0010
0000
1000
0000
0000
0010
1000
0000
,
0001
0100
0001
0101
,
1000
1000
0010
1000
0000
0000
0001
1000
,
0000
0000
0100
1000
0100
0000
1100
0000
,
0001
0001
0010
0001
0000
0000
1000
0001
,
0000
0000
0100
0001
0100
0000
0101
0000
,
1001
0000
0000
0000
;

//--------------- dance-single - 8Chasey ----------------
#NOTES:
     dance-single:
     8Chasey:
     Hard:
     7:
     0,0,0,0,0:
0000
0000
0000
0000
,
0000
0000
0000
0000
,
0000
0000
0000
0000
,
0000
0000
0000
0000
,
0101
1100
0000
0001
,
1000
0010
0000
1010
0000
0100
0010
0000
,
1100
0101
0000
0100
,
0001
0010
1000
0010
0001
0100
1000
0000
,
0100
0000
0010
0000
1000
1000
0001
0001
,
1000
0100
0001
0000
0100
0000
0110
0000
,
0010
0001
1000
0000
0001
0001
1000
1000
,
0010
1000
0001
0000
0100
0000
0110
0000
,
1000
0000
0001
0000
0100
0100
0010
0010
,
1000
0010
1000
0101
,
0001
0010
0100
0000
0010
0010
0100
0100
,
0000
1000
0001
0000
1000
0000
1100
0000
,
0010
0000
0001
0000
1000
0010
0000
1010
,
0000
1000
0001
0000
0100
0001
0101
0000
,
0010
0000
1000
0000
0001
0010
0000
0011
,
0000
0001
1000
0000
0100
1000
1100
0000
,
0010
0000
1010
0000
0001
0100
0000
0110
,
0000
1000
0010
1000
0100
0000
1000
0100
,
0010
0000
0011
0000
1000
0100
0000
1001
,
0000
0001
0100
0000
1010
0010
0100
0000
,
0001
0000
0010
0000
0001
1000
0001
1000
,
0100
1000
0001
1010
,
1001
0010
1001
0100
,
0001
0000
1000
0010
1000
0000
0001
0100
,
0001
0000
0010
0000
0100
1000
0100
0001
,
0100
0000
0010
0001
0100
0000
0011
0000
,
1001
0000
0000
1000
0101
0000
0100
0000
,
0010
1000
0001
0000
0010
0000
1100
0000
,
0011
0000
0001
0100
0000
0001
1000
1000
,
0000
1001
0000
0001
1000
0000
0110
0000
,
1010
0000
1000
0100
0000
1000
0001
0001
,
0000
1001
0000
1000
0001
0000
0110
0000
,
0001
0001
0010
0011
0000
1000
0010
0010
,
0000
1000
0100
1100
0001
0100
0010
0110
,
0100
0001
1000
1001
0000
1000
0001
1000
,
0000
0010
0100
0001
1000
0100
0010
0001
,
1001
0000
0000
0000
;

//--------------- dance-routine - Placeholder chart ----------------
#NOTES:
     dance-routine:
     Placeholder chart:
     Beginner:
     1:
     0,0,0,0,0:
00000000
00000000
00000000
00000000
,
00000000
00000000
00000000
00000000
,
00000000
00000000
00000000
00000000
,
00000000
00000000
00000000
00000000
,
10000000
00000000
00000000
00000000
,
00000000
00000000
00000000
00000000
,
00000000
00000000
00000000
00000000
,
00000000
00000000
00000000
00000000
,
10000000
00000000
00000000
00000000
,
00000000
00000000
00000000
00000000
,
00000000
00000000
00000000
00000000
,
00000000
00000000
00000000
00000000
,
10000000
00000000
00000000
00000000
,
00000000
00000000
00000000
00000000
,
00000000
00000000
00000000
00000000
,
00000000
00000000
00000000
00000000
,
10000000
00000000
00000000
00000000
,
00000000
00000000
00000000
00000000
,
00000000
00000000
00000000
00000000
,
00000000
00000000
00000000
00000000
,
10000000
00000000
00000000
00000000
,
00000000
00000000
00000000
00000000
,
00000000
00000000
00000000
00000000
,
00000000
00000000
00000000
00000000
,
10000000
00000000
00000000
00000000
,
00000000
00000000
00000000
00000000
,
00000000
00000000
00000000
00000000
,
00000000
00000000
00000000
00000000
,
10000000
00000000
00000000
00000000
,
00000000
00000000
00000000
00000000
,
00000000
00000000
00000000
00000000
,
00000000
00000000
00000000
00000000
,
10000000
00000000
00000000
00000000
,
00000000
00000000
00000000
00000000
,
00000000
00000000
00000000
00000000
,
00000000
00000000
00000000
00000000
,
10000000
00000000
00000000
00000000
,
00000000
00000000
00000000
00000000
,
00000000
00000000
00000000
00000000
,
00000000
00000000
00000000
00000000
,
20000000
00000000
00000000
00000000
,
00000000
00000000
00000000
00000000
,
00000000
00000000
00000000
00000000
,
30000000
00000000
00000000
00000000
&
00000000
00000000
00000000
00000000
,
00000000
00000000
00000000
00000000
,
00000000
00000000
00000000
00000000
,
00000000
00000000
00000000
00000000
,
00000000
00000000
00000000
00000000
,
00000000
00000000
00000000
00000000
,
00000000
00000000
00000000
00000000
,
00000000
00000000
00000000
00000000
,
00000000
00000000
00000000
00000000
,
00000000
00000000
00000000
00000000
,
00000000
00000000
00000000
00000000
,
00000000
00000000
00000000
00000000
,
00000000
00000000
00000000
00000000
,
00000000
00000000
00000000
00000000
,
00000000
00000000
00000000
00000000
,
00000000
00000000
00000000
00000000
,
00000000
00000000
00000000
00000000
,
00000000
00000000
00000000
00000000
,
00000000
00000000
00000000
00000000
,
00000000
00000000
00000000
00000000
,
00000000
00000000
00000000
00000000
,
00000000
00000000
00000000
00000000
,
00000000
00000000
00000000
00000000
,
00000000
00000000
00000000
00000000
,
00000000
00000000
00000000
00000000
,
00000000
00000000
00000000
00000000
,
00000000
00000000
00000000
00000000
,
00000000
00000000
00000000
00000000
,
00000000
00000000
00000000
00000000
,
00000000
00000000
00000000
00000000
,
00000000
00000000
00000000
00000000
,
00000000
00000000
00000000
00000000
,
00000000
00000000
00000000
00000000
,
00000000
00000000
00000000
00000000
,
00000000
00000000
00000000
00000000
,
00000000
00000000
00000000
00000000
,
00000000
00000000
00000000
00000000
,
00000000
00000000
00000000
00000000
,
00000000
00000000
00000000
00000000
,
00000000
00000000
00000000
00000000
,
00000000
00000000
00000000
00000000
;
