#TITLE:Super Tool;
#SUBTITLE:;
#ARTIST:Squirrel Monkey & the A.I. Bots;
#TITLETRANSLIT:;
#SUBTITLETRANSLIT:;
#ARTISTTRANSLIT:;
#GENRE:;
#CREDIT:8Chasey 2024;
#MUSIC:Super Tool.mp3;
#BANNER:Super Tool.png;
#BACKGROUND:Super Tool-bg.png;
#CDTITLE:;
#SAMPLESTART:47.3;
#SAMPLELENGTH:12;
#SELECTABLE:YES;
#OFFSET:0.824;
#BPMS:0.000=130.000;
#STOPS:;
#BGCHANGES:-99.000=Black.png=1.000=0=0=0=StretchNoLoop====,
2.825=Super Tool.avi=1.000=0=0=0=StretchNoLoop====,
99999.000=-nosongbg-=1.000=0=0=0=StretchNoLoop====
;
#FGCHANGES:;

//--------------- dance-single - ----------------
#NOTES:
     dance-single:
     :
     Beginner:
     1:
     0,0,0,0,0:
0000
0000
0000
0000
,
0000
0000
0000
0000
,
0000
0000
0000
0000
,
0000
0000
0000
0000
,
0000
0000
0000
0000
,
0001
0000
0000
0000
,
0001
0000
0000
0000
,
1000
0000
0000
0000
,
0000
0000
0000
0000
,
1001
0000
0000
0000
,
0000
0000
0000
0000
,
1000
0000
0000
0000
,
1000
0000
0000
0000
,
0100
0000
0000
0000
,
0000
0000
0000
0000
,
0001
0000
0000
0000
,
0001
0000
0000
0000
,
0100
0000
0000
0000
,
0000
0000
0000
0000
,
0001
0000
0000
0000
,
0100
0000
0000
0000
,
1000
0000
0000
0000
,
0000
0000
0000
0000
,
1000
0000
0000
0000
,
0100
0000
0000
0000
,
0001
0000
0000
0000
,
1001
0000
0000
0000
,
0100
0000
0100
0000
,
0000
0000
0000
0000
,
0001
0000
0001
0000
,
0000
0000
0000
0000
,
1000
0000
1000
0000
,
1000
0000
0000
0000
,
0001
0000
0000
0000
,
1000
0000
0001
0000
,
1000
0000
0000
0000
,
0100
0000
0000
0000
,
0100
0000
0000
0000
,
0001
0000
0000
0000
,
0100
0000
0000
0000
,
1000
0000
0000
0000
,
0000
0000
0000
0000
,
0000
0000
0000
0000
,
0001
0001
0000
0000
,
0001
0001
0000
0000
,
0000
1001
0000
0000
,
1000
0000
0001
0000
,
0000
1001
0000
0000
,
0001
0000
1000
0000
,
1001
0000
0000
0000
,
0001
0000
0000
0000
,
0001
0000
0000
0000
,
1000
0000
0000
0000
,
1000
0000
0000
0100
,
0100
0000
0100
0000
,
0100
0000
0000
0000
,
0001
0000
1000
0000
,
1001
0000
0000
0000
,
0100
0000
0000
0000
;

//--------------- dance-single - ----------------
#NOTES:
     dance-single:
     :
     Easy:
     2:
     0,0,0,0,0:
0000
0000
0000
0000
,
0000
0000
0000
0000
,
0000
0000
0000
0000
,
0000
0000
0000
0000
,
0000
0000
0000
0000
,
0001
0000
0010
0000
,
0100
0000
1000
1000
,
0001
0000
0100
0200
,
0000
0300
0010
0000
,
2002
0000
3003
0001
,
0000
0001
0000
1000
,
0010
0000
1000
0000
,
0001
0000
1000
0000
,
0200
0000
0000
0300
,
0000
1000
0000
0001
,
1000
0000
1000
0000
,
0001
0000
0010
0001
,
0010
0001
0000
0001
,
0000
1000
0000
1000
,
0100
0000
1000
0000
,
0100
0000
1000
0000
,
1001
0000
0000
0000
,
0002
0000
2003
3010
,
1000
0000
1000
0000
,
0010
0000
1000
0000
,
0001
1000
0100
0000
,
0020
0000
0000
0130
,
0110
0000
0001
0000
,
0001
0000
0010
0001
,
2000
0000
3010
0000
,
0010
0000
1000
1000
,
0001
0000
0100
0001
,
1000
0000
1000
1000
,
0002
0000
0103
0000
,
0001
1000
0001
1000
,
0110
0000
0100
0000
,
0020
0000
0030
0000
,
1001
0000
0000
0001
,
0000
0001
0000
0001
,
1001
0000
0000
1000
,
0000
1000
0000
1000
,
0020
0000
0000
0130
,
0000
0000
0000
0000
,
2000
0000
0000
3000
,
0002
0000
0000
0003
,
0000
2002
3003
0000
,
1000
0000
1000
0001
,
0000
2002
3003
0000
,
0001
1000
0001
1000
,
2000
3000
0100
0000
,
1000
0000
0001
0000
,
0020
0030
0000
0001
,
0000
0100
0100
0001
,
0020
0030
0001
1000
,
0100
0000
1000
0000
,
0002
0000
0003
0000
,
1000
0001
1000
0001
,
1000
0000
0001
0000
,
0020
0000
0030
0000
;

//--------------- dance-single - ----------------
#NOTES:
     dance-single:
     :
     Medium:
     3:
     0,0,0,0,0:
0000
0000
0000
0000
,
0000
0000
0000
0000
,
0000
0000
0000
0000
,
0000
0000
0000
0000
,
0000
0000
0000
0000
,
0001
0000
0000
0001
0000
0000
1000
0000
,
0001
0100
1000
0000
,
0001
0010
0001
1000
,
0000
0000
0100
0000
1000
0001
1000
0000
,
0110
1000
0000
1000
,
0001
0000
0100
0000
0010
1000
0010
0000
,
1000
0000
0000
0001
0000
0000
0010
0000
,
0001
1000
1000
0010
,
0100
0000
0100
0001
,
1000
0100
0000
1000
,
0001
0000
0000
1000
0000
0001
0100
0000
,
0001
0001
1000
0100
,
2000
0001
0000
3001
,
0002
1000
0000
0013
,
0100
1000
0100
1000
,
0001
0010
0001
0010
,
0200
0300
1000
0010
,
1000
0001
0000
0101
,
0010
0001
1000
0001
,
0100
0100
0010
0010
,
1000
0000
1100
0000
,
2002
0000
0000
0000
3003
0000
0001
0010
,
0001
0001
1000
0100
,
1000
0010
1000
0001
,
0200
0001
0000
0301
,
0000
1000
0010
1000
,
0100
0000
1000
1000
,
1001
0000
0001
0010
,
0001
0000
0100
0000
,
0001
0010
0100
1000
,
0110
0000
0000
1000
0000
0000
0000
0001
,
0000
1000
0000
0010
0000
0000
0000
0000
,
1001
0000
0001
0000
,
0010
0001
1000
0000
,
0110
0000
0010
1000
,
0001
0000
0100
0000
,
0001
0000
0000
1000
0000
0000
0001
0000
,
0000
0000
0000
0000
,
0001
0000
0000
0002
0000
0000
0000
0000
0000
0000
0003
0000
0000
0000
0000
0000
,
1000
0000
0000
2000
0000
0000
0000
0000
0000
0000
3000
0000
0000
0000
0000
0000
,
0000
0000
0001
0000
0000
0010
0000
0010
,
0000
0001
0000
1000
0001
1000
0001
1000
,
0000
0000
0100
0000
0000
1000
0000
0010
,
0000
1000
0001
0000
,
0110
0000
0100
0001
,
0010
0100
1000
0001
,
1010
0000
0000
0001
,
0000
0100
0001
0010
,
0001
0000
1000
0001
,
0101
0000
1000
0001
,
0010
0000
0001
0000
,
1000
0100
0010
0001
,
1000
0000
0000
0001
0000
0000
0000
0100
,
0000
0100
0000
0001
0000
0000
0000
0000
;

//--------------- dance-single - ----------------
#NOTES:
     dance-single:
     :
     Hard:
     6:
     0,0,0,0,0:
0000
0000
0000
0000
,
0000
0000
0000
0000
,
0000
0000
0000
0000
,
0000
0000
0000
0000
,
0000
0000
0000
0000
,
0001
0000
0010
0002
0000
0000
0103
0000
,
0010
1000
0001
0000
2000
0000
3001
0000
,
0100
0000
0001
0010
0000
0010
0001
0000
,
1000
0000
0100
0000
1000
0001
0010
0000
,
1200
0000
0310
0000
0001
0100
0010
0000
,
0201
0000
0310
0000
1000
0001
1000
0001
,
0010
0000
0100
1000
0001
0000
0100
0000
,
0001
1000
0010
1000
0000
0100
1000
0100
,
0000
1000
0001
0101
,
0010
0000
1100
0000
0010
0010
1000
0000
,
0001
0000
1000
0001
0010
0001
0100
0000
,
0010
0000
1000
0100
0010
0000
1001
0000
,
0200
0000
0301
0000
0010
0200
1300
0000
,
0010
0000
1000
0000
0001
0010
0001
2000
,
0000
0010
0000
3010
0000
1010
0000
0002
,
0000
0010
0000
0013
0000
0011
0000
0200
,
0000
0301
2000
3001
,
0020
0000
0031
0000
1000
0100
1000
0020
,
0000
1000
0000
1030
0000
1010
0000
0200
,
0000
0001
0000
0301
0000
0101
0000
1001
,
0000
1000
0001
0000
0100
0000
0001
0000
,
0000
0000
1000
0000
0100
0000
1000
0000
0001
0000
0000
0000
0100
0001
0100
0001
,
0100
0000
0010
1000
0000
0000
0001
0000
,
0100
0101
0100
1100
,
2000
0000
3001
0001
,
0100
0000
0001
0000
1000
0000
0010
1000
,
0000
0000
0001
0000
1000
0100
0000
0100
,
0000
1001
0001
1000
,
0220
0330
0001
0010
,
0001
1000
0001
1000
0100
0000
1000
0010
,
0000
1000
0000
0001
0000
0010
0000
1001
,
0000
0100
0000
0020
0000
0000
0030
0000
,
1001
0100
0001
0100
,
0010
1000
0100
0000
0010
0001
1000
0000
,
0110
0100
0001
1000
,
0010
1000
0010
0000
0100
0010
1000
0000
,
0001
0010
0001
1000
0010
1000
0100
0100
,
0000
0000
0000
0000
0000
0000
0000
0010
,
1000
0100
1000
0200
0000
0000
0000
0000
0000
0000
0000
0000
0300
0000
0000
0000
,
0001
0100
0001
0200
0000
0000
0000
0000
0000
0000
0301
0000
0000
0000
0000
0000
,
1001
0000
0002
0000
0000
0013
0000
0001
,
0000
1000
0000
0001
1000
0010
1000
0100
,
0000
0000
0220
0000
0330
1000
0000
0010
,
1000
0000
1000
0000
0001
0010
0001
0000
1000
0001
1000
0001
0100
0000
0010
0000
,
1001
0010
1000
0200
1000
0000
1300
0000
,
1000
0001
0010
0010
0001
0000
0100
0001
,
0010
0001
0100
0010
,
1000
0010
1000
0100
0010
0001
0010
0100
,
0000
1000
0001
0000
1000
0010
0000
0010
,
0100
0001
1000
0100
1000
0010
0010
1000
,
0002
0000
0103
0000
0010
2000
3100
0000
,
1000
0001
0010
0001
0100
0000
0010
1000
,
0000
1100
0000
0010
0000
0101
0000
1000
,
0001
0100
0001
0020
0000
0000
0030
0000
;

//--------------- dance-single - ----------------
#NOTES:
     dance-single:
     :
     Challenge:
     6:
     0,0,0,0,0:
0000
0000
0000
0000
,
0000
0000
0000
0000
,
0000
0000
0000
0000
,
1001
0000
0001
0000
1000
0100
0001
0000
,
0100
1000
0001
0100
,
0001
0010
0001
0100
0000
0010
0100
0001
,
0000
1000
0100
0001
0100
0000
1000
0000
,
0010
1000
0010
0100
0001
0100
0010
0000
,
1000
0001
1000
0001
,
0010
0000
1100
0000
0010
0100
0001
0000
,
0100
0001
1000
0001
0010
0100
0010
0000
,
0220
0000
0330
0000
0100
1000
0001
0000
,
0010
0001
1000
0000
0010
0100
0010
1000
,
0001
0001
0100
0000
0010
1000
0100
0000
,
1000
0001
0010
0000
0100
0001
0010
0000
,
0100
1000
0001
0001
0100
0010
1000
1000
,
0001
0100
0010
1000
0001
0000
1001
0000
,
2000
0100
0010
3100
,
0002
0100
0010
0103
,
0100
1001
0010
0010
,
0000
1000
0100
0000
1000
0100
0010
0000
,
1000
0000
0001
1000
0000
0001
0010
0000
,
0100
0000
0001
0000
0000
1000
0001
0000
,
1001
0000
0001
0000
1000
0000
0100
0100
,
0010
0001
1000
0010
0000
0100
0010
0000
,
1000
0001
1000
0001
1000
0001
1000
0001
,
0020
0000
0000
0030
,
1001
0000
0010
0000
0001
0010
0001
1000
,
0100
0000
1000
0010
0100
0000
0110
0000
,
0020
0000
1030
0000
0200
0001
0301
0000
,
0002
0000
2003
0000
3100
0010
0001
1000
,
0002
0000
1003
0100
2000
0010
3010
1000
,
0001
0020
0001
0000
0130
0010
0100
1000
,
1100
0000
0101
0000
0010
0001
1000
0010
,
0100
0001
0100
1000
0100
0010
1000
0001
,
0000
0101
0000
0010
1000
0100
1000
0001
,
0000
1000
0000
0001
0000
0000
0000
0000
,
1000
0001
1000
0000
0010
0000
0110
0000
,
0001
0010
0000
0100
1000
0100
1000
0001
,
0000
0000
0011
0000
0100
0000
0010
1000
,
0100
0000
1001
0000
0010
0100
0010
0000
,
1001
0000
0000
1001
0000
1000
0010
0000
,
0000
0000
0000
0000
,
2000
0100
0100
3100
,
0020
0001
0001
0031
,
0100
0010
1000
0000
0100
1000
0001
0000
,
0100
0010
1000
0010
1000
0000
0001
0000
,
1010
0101
1100
0011
,
0010
0100
0000
0000
0010
0100
0000
0000
0010
0100
0000
0000
0110
0000
0000
0000
,
1200
0000
1300
0002
0100
0000
0103
0010
,
0100
0010
2000
0002
3003
0000
1001
0000
,
0201
0000
0301
2000
0100
0000
3100
0010
,
0100
0010
0002
2000
0000
3003
1001
0000
,
0002
0000
0103
0000
0100
0001
0010
0000
,
0100
0100
1000
0010
0100
0100
0001
0000
,
1000
0100
0010
0001
,
1001
0110
0010
1000
,
0010
1000
0000
0001
0000
0110
0000
1000
,
0001
0010
0000
0200
0000
0000
0300
0000
;

//--------------- dance-double - ----------------
#NOTES:
     dance-double:
     :
     Easy:
     2:
     0,0,0,0,0:
00000000
00000000
00000000
00000000
,
00000000
00000000
00000000
00000000
,
00000000
00000000
00000000
00000000
,
00000000
00000000
00000000
00000000
,
00000000
00000000
00000000
00000000
,
00001000
00000000
00100000
00000000
,
01000000
00000000
10000000
00010000
,
00100000
00000000
01000000
02000000
,
00000000
03000000
00100000
00000000
,
00022000
00000000
00033000
00000100
,
00000000
00000100
00000000
00001000
,
00000001
00000000
00001000
00000000
,
00000010
00000000
00000010
00000000
,
00000200
00000000
00000000
00000300
,
00000000
00001000
00000000
00010000
,
00001000
00000000
00100000
00000000
,
01000000
01000000
10000000
00010000
,
01000000
00010000
00000000
00010000
,
00000000
10000000
00000000
10000000
,
01000000
00000000
00100000
00000000
,
00001000
00000000
00010000
00000000
,
00011000
00000000
00000000
00000000
,
00000200
00000000
00000302
00001003
,
00000010
00000000
00000010
00000000
,
00010000
00001000
00010000
00000000
,
00001000
00001000
00100000
00000000
,
02000000
00000000
00000000
03100000
,
01100000
00000000
00010000
00000000
,
10000000
00000000
00100000
01000000
,
00020000
00000000
00130000
00000000
,
00001000
00000000
00010000
00010000
,
00000100
00000000
00001000
00000001
,
00000010
00000000
00000100
00001000
,
00000020
00000000
00001030
00000000
,
00010000
00001000
00010000
00001000
,
00011000
00000000
01000000
00000000
,
00200000
00000000
00300000
00000000
,
00011000
00000000
00000000
00001000
,
00000000
00001000
00000000
00001000
,
00011000
00000000
00000000
00010000
,
00000000
00010000
00000000
00010000
,
00000200
00000000
00000000
00000310
,
00000000
00000000
00000000
00000000
,
00000002
00000000
00000000
00000003
,
00002000
00000000
00000000
00003000
,
00000000
00002002
00003003
00000000
,
00000100
00000000
00000100
00000100
,
00000000
00022000
00033000
00000000
,
00010000
00001000
00010000
00001000
,
00100000
01000000
00200000
00300000
,
00010000
00000000
10000000
01000000
,
02000000
03000000
00000000
10000000
,
00000000
00010000
01000000
01000000
,
00200000
00300000
00001000
00010000
,
00000200
00000300
00001000
00000001
,
00002002
00000000
00003003
00000000
,
00001000
00000001
00001000
00000001
,
00001000
00000000
00000001
00000000
,
00000020
00000000
00000030
00000000
;
