#TITLE:水中家族のテーマ;
#SUBTITLE:;
#ARTIST:パーキッツ;
#TITLETRANSLIT:Suichuu Kazoku no Theme;
#SUBTITLETRANSLIT:;
#ARTISTTRANSLIT:Paraquets;
#GENRE:Celt;
#CREDIT:8Chasey 2026;
#MUSIC:Suichuu Kazoku no Theme.ogg;
#BANNER:;
#BACKGROUND:;
#CDTITLE:;
#SAMPLESTART:38.870;
#SAMPLELENGTH:12.000;
#SELECTABLE:YES;
#OFFSET:-1.234;
#BPMS:0.000=220.000;
#STOPS:;
#BGCHANGES:;
#FGCHANGES:;

//--------------- dance-single - 8Chasey ----------------
#NOTES:
     dance-single:
     8Chasey:
     Beginner:
     2:
     0,0,0,0,0:
0000
0000
0000
0000
,
0000
0000
0000
0000
,
0000
0000
0000
0000
,
0000
0000
0000
0000
,
0000
0000
0001
0000
,
0000
0001
0000
0000
,
0001
0000
0000
0000
,
0000
0000
1000
0000
,
0000
1000
0000
0000
,
1000
0000
0000
0000
,
0000
0000
0001
0000
,
0000
0000
0000
0000
,
1000
0000
0000
0000
,
0000
0000
0001
0000
,
0000
0000
0000
0000
,
0001
0000
0000
0000
,
0000
0000
1000
0000
,
0000
0000
0000
0000
,
0001
0000
0000
0000
,
0000
0000
1000
0000
,
0000
0000
0000
0000
,
1000
0000
0000
0000
,
0000
0000
0010
0000
,
0000
0000
0010
0000
,
0010
0000
0000
0010
,
0000
0000
0100
0000
,
0000
0000
0100
0000
,
0100
0000
0000
0100
,
0000
0000
0001
0000
,
0000
0000
0000
0000
,
0001
0000
0000
0001
,
0000
0000
1000
0000
,
0000
0000
0000
0000
,
1000
0000
0000
1000
,
0000
0000
0001
0000
,
0000
0000
1000
0000
,
0001
0000
0000
0000
,
0000
0000
1000
0000
,
0000
0000
0001
0000
,
1000
0000
0000
0000
,
0000
0000
0010
0000
,
0000
0000
0100
0000
,
0010
0000
0000
0000
,
0000
0000
0100
0000
,
0000
0000
0010
0000
,
0100
0000
0000
0000
,
0000
0000
0010
0000
,
0000
0000
0010
0000
,
0100
0000
0000
0000
,
0100
0000
1000
0000
,
0001
0000
1000
0000
,
0001
0000
0000
0000
,
0000
0000
1000
0000
,
0000
0000
1000
0000
,
0001
0000
0000
0000
,
0001
0000
0100
0000
,
0000
0010
0000
0000
,
0100
0000
0000
0010
,
0000
0000
1000
0000
,
0000
1000
0000
0000
,
1000
0000
0000
0000
,
0000
0000
0001
0000
,
0000
0001
0000
0000
,
0001
0000
0000
0000
,
0000
0000
0100
0000
,
0000
0100
0000
0000
,
0010
0000
0000
0010
,
0000
0000
1000
0000
,
0000
0000
0000
0000
,
0001
0000
0000
0000
,
0000
0000
0100
0000
,
0000
0000
0000
0000
,
0010
0000
0000
0100
,
0000
0000
0010
0000
,
0000
0000
0000
0000
,
1000
0000
0000
1000
,
0000
0000
1000
0000
,
0000
0000
0000
0000
,
0001
0000
0000
0001
,
0000
0000
0001
0000
,
0000
0000
0000
0000
,
1001
0000
0000
0000
;

//--------------- dance-single - 8Chasey ----------------
#NOTES:
     dance-single:
     8Chasey:
     Easy:
     3:
     0,0,0,0,0:
0000
0000
0000
0000
,
0000
0000
0000
0000
,
0000
0000
0000
0000
,
0001
0000
0001
0000
,
1000
0000
1000
0000
,
0000
0001
0000
0000
,
1000
0000
0000
0000
,
0000
0000
0002
0000
,
0003
1000
0000
0000
,
2000
0000
3000
0001
,
0000
0000
0010
0000
,
0000
0001
0010
0000
,
0100
0000
0000
1000
,
0100
0000
1000
0000
,
0001
0000
1000
0000
,
0001
0000
0100
0000
,
0010
0000
0010
0000
,
0000
0100
0001
0000
,
0100
0000
0000
0010
,
1000
0000
0001
0000
,
1000
0000
0001
0000
,
1000
0000
0010
0000
,
0100
0000
0020
0000
,
0000
0000
0030
0000
,
0100
0000
0100
0000
,
0010
0000
0200
0000
,
0000
0000
0300
0000
,
0010
0000
0010
0000
,
0100
0000
0002
0000
,
0000
0000
0000
0000
,
0003
0000
0000
1000
,
0001
0000
2000
0000
,
0000
0000
0000
0000
,
3001
0000
0000
1001
,
0000
0000
1000
0000
,
0000
0000
0010
0000
,
0100
0000
0000
0000
,
0001
0000
1000
0000
,
0001
0000
1000
0000
,
0010
0000
0000
0110
,
0000
0000
0100
0000
,
0000
0000
0001
0000
,
1000
0000
0000
0000
,
0200
0000
0020
0000
,
0330
0000
0002
0000
,
2000
0000
0000
0000
,
3003
0000
1000
0000
,
0000
0000
0010
0000
,
0100
0000
0000
0000
,
0001
0000
1000
0000
,
0001
0000
1000
0000
,
0010
0000
0000
0100
,
0000
0000
0001
0000
,
0100
0000
0100
0000
,
0010
0000
0010
0000
,
1000
0000
0002
0000
,
0000
0000
0003
0000
,
2000
0000
0000
0000
,
3000
0000
0001
0000
,
0000
1000
0000
0000
,
0001
0000
1000
0001
,
0000
0000
1000
0000
,
0000
0001
0000
0000
,
1000
0000
0001
1000
,
0000
0000
0010
0000
,
0000
0100
0000
0000
,
0010
0000
0000
0100
,
0010
0000
1000
0000
,
1000
0000
1000
0000
,
0001
0000
0001
0000
,
0001
0000
0100
0000
,
0100
0000
0100
0000
,
0010
0000
0010
0000
,
0010
0000
1000
0000
,
1000
0000
0001
0000
,
0001
0000
0000
1000
,
0000
0000
0001
0000
,
0000
0000
0000
0000
,
1000
0000
1000
0000
,
1000
0000
0001
0000
,
0001
0000
0001
0000
,
2002
0000
0000
0000
,
0000
3003
0000
0000
;

//--------------- dance-single - 8Chasey ----------------
#NOTES:
     dance-single:
     8Chasey:
     Medium:
     5:
     0,0,0,0,0:
0000
0000
0000
0000
,
0000
0000
0000
0000
,
0000
0000
0000
0000
,
0001
0000
0000
1000
0000
0000
0100
0000
,
0010
0100
0010
0000
,
0001
1000
0000
0100
,
0020
0000
0000
0030
,
0000
0000
0000
0000
0001
0000
0000
0001
,
0000
0000
0100
0000
0000
0010
0000
0000
,
1000
0000
0000
1000
0000
0000
0001
0000
,
1000
0001
1000
0000
,
0000
0100
1000
0000
,
0010
0000
0000
0100
,
0001
0000
0010
0000
,
0001
1000
0001
0000
,
1000
0100
0000
1000
,
0001
0000
1001
0000
,
0000
1000
0010
0000
,
0100
0000
0000
0001
,
0010
0000
0100
0000
,
1000
0000
0001
1000
,
0001
0000
0100
0000
,
0010
0100
0020
0000
,
0030
0000
0100
0100
,
0001
0000
0001
1000
,
0000
1000
0020
0000
,
0030
0000
0100
0010
,
0200
0000
0300
0001
,
1000
0001
2000
0000
,
0000
0100
0100
0000
,
0002
0000
3003
1000
,
0010
1000
0002
0000
,
0000
0010
0010
0000
,
2000
0000
3003
1001
,
0000
0000
0000
0000
0001
0000
0000
1000
,
0000
0100
0010
0100
,
1000
0000
0000
0001
0000
0000
0010
0000
,
0100
0010
0100
0000
,
0100
0010
0000
0010
,
0001
0000
0000
0001
0000
0000
1000
0000
,
1000
0000
0001
0000
,
0100
0010
0100
0000
,
0010
0000
1000
0100
,
0000
1000
0002
0000
,
2003
0000
3200
0000
,
0020
0000
0000
0000
,
0330
0000
0100
0000
,
1000
0100
1000
0001
,
0200
0000
0310
0000
,
1000
0010
1000
0000
,
0100
1000
0100
0000
,
0010
0000
0010
0001
,
1000
0001
1000
0000
,
0100
0000
1000
0010
,
1000
0000
0001
0000
,
0100
0010
0200
0000
,
0010
0310
0000
0100
,
0010
0000
1000
0001
,
1000
0000
0002
0000
,
0103
0002
0000
0013
,
0002
0000
1003
2002
,
0000
3003
2000
0000
,
3100
2000
0000
3010
,
2000
0000
3001
2002
,
0000
3003
0020
0000
,
0130
0200
0000
0310
,
1000
0000
0100
1000
,
0001
0000
0100
0000
0001
0000
0000
0001
,
0000
1000
0001
0000
,
1000
0000
0000
1000
0000
0000
0001
0000
,
1000
0000
0000
0000
0010
0000
0000
0010
,
0000
0100
0010
0000
,
0100
0000
0000
0100
0000
0000
0010
0000
,
0100
0000
0000
0000
0001
0000
0000
0010
,
0000
0100
1000
0000
,
0001
0000
0000
1000
0000
0000
1000
0000
,
0010
0100
0002
0000
,
0000
0003
0000
0000
,
1000
1000
1000
0001
,
0000
1000
0000
0000
0001
0000
0001
0000
,
0001
0000
1000
0000
0000
0001
0000
0000
,
2002
0000
0000
0000
,
0000
3003
0000
0000
;

//--------------- dance-single - 8Chasey ----------------
#NOTES:
     dance-single:
     8Chasey:
     Hard:
     8:
     0,0,0,0,0:
0000
0000
0000
0000
,
0000
0000
0000
0000
,
0000
0000
0000
0000
,
0010
0010
0000
0100
0100
0000
1000
0000
,
0001
1000
0002
1000
,
1003
0000
0100
0010
0100
0000
0010
0000
,
0220
0000
0000
0000
,
0330
0000
0000
0000
0100
1000
0000
0100
,
1000
0000
0001
1000
0000
0000
0001
0000
,
0100
0001
0000
0100
0001
0000
1000
0000
,
0001
1000
0200
0000
,
0310
0001
0010
0001
,
2001
0000
0000
0000
3100
0000
0010
0001
,
0010
0001
0200
0000
,
0310
1000
0010
1000
,
0100
0000
1000
0001
1000
0000
0001
0000
,
0100
0001
0100
0000
0020
0000
0000
0000
,
0130
0001
0010
0001
,
2001
0010
3100
1000
,
0010
0100
0002
0000
,
0013
0001
1001
1000
,
0100
0000
1000
0100
1000
0000
0010
0000
,
0100
0010
0100
0000
0002
0000
0000
0000
,
1000
1000
0100
0103
,
0010
1000
0100
0010
,
0001
0000
1000
0001
2000
0000
0000
0000
,
0001
0001
0100
3100
,
0020
0000
0100
0000
0130
0000
0010
0001
,
0010
0000
0001
0000
0100
0010
0000
0100
,
0010
0100
0001
0010
,
0200
1000
1300
0010
,
0001
0000
0100
0000
0010
0100
0000
0010
,
0100
0010
1000
1000
,
0001
0100
0000
0010
1000
0000
2002
0000
,
0000
0000
3003
0000
0001
0010
0000
0000
,
0001
0100
0100
0010
,
1000
0010
0000
0000
1000
0000
0100
0000
,
1000
0000
0001
0000
0100
0001
0000
0000
,
0100
0000
0001
1000
0000
0000
0010
0000
,
0100
0000
0010
0100
0000
0100
0010
0000
,
0220
0000
0330
0000
0100
0001
0000
0000
,
0100
0001
1000
1000
,
0100
1000
0000
0000
0100
0000
1000
0000
,
0001
0000
0001
0000
0010
0000
0000
0001
,
2000
0100
3200
0010
,
0320
0000
0001
0032
,
0000
0000
1003
0000
0001
1000
0000
0000
,
0001
0100
0010
0010
,
1000
0001
0000
0000
1000
0000
0100
0000
,
0010
0000
0100
0000
1000
0010
0000
0000
,
1000
0000
0001
0010
0000
0000
0001
0000
,
0100
0010
0000
0000
1000
0000
0001
0000
,
1001
0000
0000
0000
1000
0001
0000
0000
,
1000
0001
0100
0010
,
0100
0010
0000
0000
0100
0000
0001
0000
,
0010
0010
0002
0100
,
0100
1000
1003
0001
,
2000
0010
0010
0001
,
3001
0000
1000
0000
0100
1000
0000
0100
,
1000
0000
0010
1000
0000
1000
0001
0000
,
0100
0001
0000
0100
0001
0000
1000
0001
,
0000
1000
0001
0000
0010
0001
0000
0001
,
1000
0000
0100
0010
0000
0000
0100
0000
,
1000
0001
0100
0010
,
0100
0010
0100
0000
0001
0010
0000
0010
,
0001
0000
1000
0100
0000
0100
1000
0000
,
0010
0100
0000
0000
0010
0000
0110
0000
,
0100
0000
0001
0000
1000
0100
0000
0100
,
1000
0001
2000
0000
,
3001
0100
0000
0100
0001
0000
1000
0000
,
0002
0000
0000
0000
0013
0100
0000
0100
,
0010
0001
1000
0010
,
0100
0010
0000
0010
0100
0000
0010
0000
,
0200
0000
0000
0000
0301
1000
0000
0001
,
1000
0100
0010
0100
,
1000
0001
0000
1000
0001
0000
0100
0000
,
0101
1010
2002
0000
,
0000
0000
3003
0000
,
0001
0000
0001
0000
0001
0000
1000
0010
,
0000
1000
0010
0000
1000
0000
1000
0000
,
1000
0000
0001
0100
0000
0001
0100
0000
,
0220
0000
0000
0000
,
0000
0330
0000
0000
;

//--------------- pump-double - pop'n music NORMAL chart ----------------
#NOTES:
     pump-double:
     pop'n music NORMAL chart:
     Medium:
     1:
     0,0,0,0,0:
0010000000
0010000000
0000000000
0010000000
0010000000
0000000000
0010000000
0000000000
,
0001000000
0000000000
0000000000
0000000000
0010000000
0010000000
0000000000
0010000000
,
0010000000
0010000000
1000000000
0000000000
,
0010000000
0010000000
0000000000
0010000000
0010000000
0000000000
0010000000
0000000000
,
0001000000
0000000000
0000000000
0000000000
0000010000
0000000000
0000000000
0000100000
,
0000000000
0000001000
0000000000
0000000100
,
0000000010
0000000000
0000000000
0000000000
,
0000000000
0000000000
0000000000
0000000000
0000100000
0000000010
0000000000
0000100000
,
0000000010
0000000000
0001000000
0000001000
0000000000
0010000000
0000010000
0000000000
,
0000100000
0000000010
0000000000
0000100000
0000000010
0000000000
0000001000
0000000000
,
0000010000
0000001000
0100000000
0000000000
,
0100000000
0000010000
0000000100
0000000000
,
0000000000
0000000000
0000000000
0001000000
,
0000000000
0000000000
0100000000
0000000000
,
0100000000
0000010000
0000000100
0000000000
,
0000000000
0000000000
0000000000
0001000000
,
0000000000
0000000000
0100000000
0000000000
,
0100000000
0000010000
0000000100
0000000000
,
0000000000
0000000000
0000000000
0001000000
,
0000000000
0000000000
0100000000
0000000000
,
0100000000
0000010000
0000000100
0000000000
,
0000000000
0000000000
0000000000
0001000000
,
0000000000
0000000000
0110000000
0001000000
,
0100000000
0000100000
0000010000
0000000000
,
0000001000
0000000100
0000000000
1000000000
,
0010000000
0000000000
0101000000
0000100000
,
0100010000
0000000000
0000000000
0000000000
,
0000001000
0000000100
0000000010
0000000000
,
0000000000
0000000000
0100000000
0000000000
,
0100000000
0000000000
0000000000
0000000000
,
1000000000
0000000000
0000000000
0000000000
,
0000000000
0000000000
0100000000
0000000000
,
0100000000
1000000000
0000000000
0000000000
,
0000000000
0000000000
0000000000
0010000000
,
0000000000
0000000000
0100000000
0000000000
,
0100000000
0000000000
0000100000
0000100000
,
0100000000
0000000000
0100000000
0000000000
,
0000100000
0000100000
0100000000
0000000000
,
0100000000
0000000000
0000100000
0000100000
,
0000000000
0000000000
0000001000
0000001000
0000000000
0000001000
0000001000
0000000000
,
0000000010
0000000000
0100000000
0000000000
,
0100000000
0000000000
0000100000
0000100000
,
0000000000
0100000000
0000000000
0000000000
0000000000
0000000000
0000000000
0000000000
0000000000
0000000000
0000000000
0000000000
0000000000
0000000000
0000000000
0000000000
0000000000
0000000000
0000000000
0000000000
0000000000
0000000000
0000000000
0000000000
0000000000
0000000000
0000000000
0000000000
0000000000
0000000000
0000000000
0000000000
0000000000
0000000000
0000000000
0000000000
0000000000
0000000000
0000000000
0000000000
0000000000
0000000000
0000000000
0000000000
0000000000
0000000000
0000000000
0000000000
0000000000
0000000000
0000000000
0000000000
0000000000
0000000000
0000000000
0000000000
0000000000
0000000000
0000000000
0000000000
0000000000
0000000000
0000000000
0000000000
0000000000
0000000000
0000000000
0000000000
0000000000
0000000000
0000000000
0000000000
0000000000
0000000000
0000000000
0000000000
0000000000
0000000000
0000000000
0000000000
0000000000
0000000000
0000000000
0000000000
0000000000
0000000000
0000000000
0000000000
0000000000
0000000000
0000000000
0000000000
0000000000
0000000000
0000000000
0000000000
0000000000
0100000000
0000000000
0000000000
0000000000
0000000000
0000000000
0000000000
0000000000
0000000000
0000000000
0000000000
0000000000
0000000000
0000000000
0000000000
0000000000
0000000000
0000000000
0000000000
0000000000
0000000000
0000000000
0000000000
0000000000
0000000000
0000000000
0000000000
0000000000
0000000000
0000000000
0000000000
0000000000
0000000000
0000000000
0000000000
0000000000
0000000000
0000000000
0000000000
0000000000
0000000000
0000000000
0000000000
0000000000
0000000000
0000000000
0000000000
0000000000
0000000000
0000000000
0000000000
0000000000
0000000000
0000000000
0000000000
0000000000
0000000000
0000000000
0000000000
0000000000
0000000000
0000000000
0000000000
0000000000
0000000000
0000000000
0000000000
0000000000
0000000000
0000000000
0000000000
0000000000
0000000000
0000000000
0000000000
0000000000
0000000000
0000000000
0000000000
0000000000
0000000000
0000000000
0000000000
0000000000
0000000000
0000000000
0000000000
0000000000
0000000000
0000000000
0000000000
0000000000
0000000000
0000000000
0000000000
,
0000000000
0000100000
0000000000
0000000000
0000000000
0000000000
0000000000
0000000000
0000000000
0000000000
0000000000
0000000000
0000000000
0000000000
0000000000
0000000000
0000000000
0000000000
0000000000
0000000000
0000000000
0000000000
0000000000
0000000000
0000000000
0000000000
0000000000
0000000000
0000000000
0000000000
0000000000
0000000000
0000000000
0000000000
0000000000
0000000000
0000000000
0000000000
0000000000
0000000000
0000000000
0000000000
0000000000
0000000000
0000000000
0000000000
0000000000
0000000000
0000000000
0000100000
0000000000
0000000000
0000000000
0000000000
0000000000
0000000000
0000000000
0000000000
0000000000
0000000000
0000000000
0000000000
0000000000
0000000000
0000000000
0000000000
0000000000
0000000000
0000000000
0000000000
0000000000
0000000000
0000000000
0000000000
0000000000
0000000000
0000000000
0000000000
0000000000
0000000000
0000000000
0000000000
0000000000
0000000000
0000000000
0000000000
0000000000
0000000000
0000000000
0000000000
0000000000
0000000000
0000000000
0000000000
0000000000
0000000000
0100000000
0000000000
0000000000
0000000000
0000000000
0000000000
0000000000
0000000000
0000000000
0000000000
0000000000
0000000000
0000000000
0000000000
0000000000
0000000000
0000000000
0000000000
0000000000
0000000000
0000000000
0000000000
0000000000
0000000000
0000000000
0000000000
0000000000
0000000000
0000000000
0000000000
0000000000
0000000000
0000000000
0000000000
0000000000
0000000000
0000000000
0000000000
0000000000
0000000000
0000000000
0000000000
0000000000
0000000000
0000000000
0000000000
0000000000
0000000000
0000000000
0000000000
0000000000
0000000000
0000000000
0000000000
0000000000
0000000000
0000000000
0000000000
0000000000
0000000000
0000000000
0000000000
0000000000
0000000000
0000000000
0000000000
0000000000
0000000000
0000000000
0000000000
0000000000
0000000000
0000000000
0000000000
0000000000
0000000000
0000000000
0000000000
0000000000
0000000000
0000000000
0000000000
0000000000
0000000000
0000000000
0000000000
0000000000
0000000000
0000000000
0000000000
0000000000
0000000000
0000000000
0000000000
0000000000
0000000000
,
0100000000
0000000000
0000100000
0000100000
,
0100000000
0000000000
0100000000
0000000000
,
0000100000
0000100000
0000000000
0000010000
,
0000100000
0000001000
0000000000
0000000010
,
0000000100
0000000000
0000010000
0000100000
,
0000000000
0000000000
0000000000
0000100000
,
0001000000
0010000000
0001000000
0000100000
,
0000001000
0000000000
0000000000
0000010000
,
0000000000
0000000000
0000000000
0000100000
,
0000010000
0000001000
0000000000
0000000000
,
0000000000
0000001000
0000000100
0000000010
,
0000000000
0000000000
0000000000
0000000010
,
0000000100
0000100000
0000001000
0010000000
,
0001000000
1000000000
0000001000
0001000000
,
0000100000
0000010000
0110000000
0000000000
,
1000000000
0010000000
0100000000
1000000000
,
0110000000
0000000000
1000000000
0010000000
,
0100000000
0000000000
0110000000
0000000000
,
1100000000
0010000000
0100000000
1000000000
,
0110000000
0000000000
1100000000
0010000000
,
0100000000
0000000000
0110000000
0000000000
,
1100000000
0010000000
0100000000
1000000000
,
0110000000
0000000000
0100000000
0000010000
,
0100001000
0000000000
0000000100
0000000000
0001000010
0001000000
0000000000
0001000000
,
0001000000
0001000000
0000100000
0000000000
,
0001000000
0001000000
0000000000
0001000000
0001000000
0000000000
0001000000
0000000000
,
0000100000
0000000000
0000000000
0000000000
0001000000
0001000000
0000000000
0001000000
,
0001000000
0001000000
0000100000
0000000000
,
0001000000
0001000000
0000000000
0001000000
0001000000
0000000000
0001000000
0000000000
,
0000100000
0000000000
0000000000
0000000000
0001000000
0001000000
0000000000
0001000000
,
0001000000
0001000000
0000100000
0000000000
,
0001000000
0001000000
0000000000
0001000000
0001000000
0000000000
0001000000
0000000000
,
0000010000
0000001000
0000000100
0000000000
,
0000000000
0000000000
0000000000
0000000000
,
0010000000
0000000000
0010000000
0000000000
0010000000
0000000000
0010000000
0010000000
,
0000000000
0010000000
0000000000
0010000000
0010000000
0000000000
0010000000
0000000000
,
0010000000
0000000000
0010000000
0010000000
0000000000
0010000000
0000000000
0010000000
,
1000000000
0000000000
0000000000
0000000000
;
