#TITLE:Step!;
#SUBTITLE:;
#ARTIST:Mio Honda;
#TITLETRANSLIT:;
#SUBTITLETRANSLIT:;
#ARTISTTRANSLIT:;
#GENRE:;
#CREDIT:8Chasey 2025;
#MUSIC:Step!.ogg;
#BANNER:;
#BACKGROUND:;
#CDTITLE:;
#SAMPLESTART:40.75;
#SAMPLELENGTH:12;
#SELECTABLE:YES;
#OFFSET:0.000;
#BPMS:0.000=106.000;
#STOPS:;
#BGCHANGES:;
#FGCHANGES:;

//--------------- dance-single - 8Chasey ----------------
#NOTES:
     dance-single:
     8Chasey:
     Beginner:
     1:
     0,0,0,0,0:
0000
0000
0000
0000
,
0000
0000
0000
0000
,
0000
0000
0000
0000
,
0000
0000
0000
0000
,
0000
0000
0000
0000
,
1000
0000
0000
0000
,
1000
0000
0000
0000
,
0001
0000
0000
0000
,
0001
0000
0000
0000
,
0100
0000
0000
0000
,
0100
0000
0000
0000
,
0010
0000
0000
0000
,
0010
0000
0000
0000
,
1000
1000
0000
0000
,
0001
0001
0000
0000
,
0100
0000
0100
0000
,
0100
0000
0000
0000
,
0010
0000
0000
0000
,
1000
0000
1000
0000
,
0001
0000
0000
0000
,
1000
0000
1000
0000
,
0001
0000
0000
0000
,
0100
0000
0000
0000
,
0010
0000
0000
0000
,
0100
0000
0010
0000
,
0100
0000
0000
0000
,
0001
0000
0001
0000
,
1000
0000
0000
0000
,
0001
0000
0001
0000
,
1000
0000
0000
0000
,
0010
0000
0000
0000
,
0100
0000
0000
0000
,
0010
0000
0100
0000
,
0010
0000
0000
0000
,
1000
0000
0000
0000
,
0001
0000
0000
0000
,
0100
0000
0000
0000
,
0010
0000
0010
0000
,
1000
0000
0000
0000
,
0000
0000
0000
0000
,
0001
0000
0000
0000
,
0000
0000
0000
0000
,
0100
0000
0000
0000
,
0010
0000
0000
0000
,
0100
0000
0010
0000
,
0100
0000
0000
0000
,
0001
0000
1000
0000
,
0001
0000
0000
0000
,
1000
0000
0001
0000
,
1000
0000
0000
0000
,
0010
0000
0000
0000
,
0010
0000
0000
0000
,
0100
0000
0010
0000
,
0100
0000
0010
0000
,
1000
0000
0000
0000
,
0001
0000
0000
0000
;

//--------------- dance-single - 8Chasey ----------------
#NOTES:
     dance-single:
     8Chasey:
     Easy:
     2:
     0,0,0,0,0:
0000
0000
0000
0000
,
0000
0000
0000
0000
,
0000
0000
0000
0000
,
0000
0000
0000
0000
,
0000
0000
0000
0000
,
1000
0000
0001
0000
,
0100
0000
0010
0000
,
0100
0000
0010
0000
,
1000
1000
0001
0001
,
1000
0000
0010
0000
,
0100
0000
0001
0000
,
0100
0000
0001
0010
,
0001
1000
0010
0000
,
0100
0110
0000
0000
,
0010
0110
0000
0000
,
1000
0100
0001
0010
,
0100
0000
0010
0000
,
1001
0000
0000
0000
,
1000
0010
1000
0000
,
0100
0000
1000
0000
,
0001
0010
0001
0000
,
0100
0000
0010
0000
,
1000
0000
0001
0001
,
0010
0000
0001
0001
,
0100
0000
0010
0000
,
1000
0001
1000
0000
,
0001
0100
0001
0000
,
0010
0000
0001
0000
,
1000
0100
1000
0000
,
0010
0000
0100
0000
,
0001
0000
1000
1000
,
0010
0000
1000
1000
,
0100
0000
0010
0000
,
0001
0001
1000
1000
,
1001
0000
0000
0000
,
0001
0000
1000
0000
,
0010
0000
0100
0000
,
0001
1000
0010
0000
,
1000
0000
0000
0000
,
0001
0000
0000
0000
,
0010
0000
0000
0000
,
1001
0000
0000
0000
,
0001
0000
0100
0000
,
0001
0000
1000
0000
,
0010
0000
1000
0000
,
0100
0000
0000
0000
,
0010
0001
0010
0000
,
0001
0000
0100
0000
,
0010
1000
0010
0000
,
1000
0000
0100
0000
,
1000
0000
0001
0001
,
0100
0000
0010
0010
,
1000
0000
0100
0000
,
0010
0100
0010
0000
,
0100
0000
0000
0000
0000
0000
0000
0000
0000
0000
0010
0000
0000
0010
0000
0000
,
0010
0000
0000
0000
;

//--------------- dance-single - 8Chasey ----------------
#NOTES:
     dance-single:
     8Chasey:
     Medium:
     5:
     0,0,0,0,0:
0000
0000
0000
0000
,
0000
0000
0000
0000
,
0000
0000
0000
0000
,
0000
0000
0000
0000
,
0000
0000
0000
0000
,
0001
0000
1000
0000
0001
0000
0000
0000
1000
0000
0000
1000
0000
0000
0000
0000
,
1000
0000
0010
0000
1000
0000
0000
0000
0001
0000
0000
0001
0000
0000
0000
0000
,
0100
0010
0100
0000
0001
0000
0010
0000
,
0100
0010
0100
0000
1000
0000
0010
0000
,
0110
0000
0000
0000
0100
0000
0000
0000
0001
0000
0000
0100
0000
0000
0000
0000
,
0010
0000
1000
0000
0100
0000
0000
0000
1000
0000
0000
0100
0000
0000
0000
0000
,
1000
0010
1000
0000
0001
0100
0001
0000
,
1000
0001
1001
0000
,
0001
0000
0010
0000
0001
0000
0000
1000
0000
0000
0001
0000
0001
0000
0000
0000
,
1000
0000
0010
0000
1000
0000
0000
0001
0000
0000
1000
0000
1000
0000
0000
0000
,
0100
1000
0010
0001
,
0010
0000
0000
0100
0000
0000
0100
0000
0000
0100
0000
0000
0010
0000
0000
0000
,
1001
0000
0000
0000
0001
1000
0001
1000
,
0100
0000
1000
0000
0010
1000
0001
0000
,
0101
0000
0001
0000
1000
0000
0010
0010
,
0100
0000
0001
0000
0010
0001
1000
0000
,
1100
0000
0010
0000
0001
0000
1000
0001
,
1000
0000
0010
0000
1000
0100
1000
0000
,
0001
0000
0010
0000
0001
0100
0001
0000
,
0100
0000
0010
0100
0010
0000
0100
0000
,
0001
0010
0001
0000
1000
0100
0010
0000
,
0100
0000
1000
0010
1000
0001
1000
0000
,
0001
0000
0101
0000
0010
0000
1000
0001
,
0100
0000
0001
0010
0001
1000
0001
0000
,
1000
0000
1010
0000
0100
0000
0001
0010
,
0001
0000
0100
0000
0010
1000
0010
0000
,
1000
0000
0100
0000
0010
0001
0010
0000
,
0100
0000
0010
0100
0010
0000
0100
0000
,
1100
1000
0101
0001
,
1001
0000
0000
0000
,
0001
0000
0010
0000
0100
1000
0010
0000
,
1000
0000
0010
0000
0100
0001
0010
0000
,
0100
0000
0000
0010
0000
0000
0100
0000
0010
0000
0000
0000
0100
0000
0000
0000
,
1000
0000
0000
0000
0000
0000
0000
0010
0000
0000
1000
0000
0000
0000
0000
0000
,
0100
0000
0000
0000
0110
0000
0000
0000
0010
0000
0000
0010
0000
0000
0000
0000
,
0001
0000
0000
0000
0000
0000
0000
0100
0000
0000
0100
0000
0000
0000
0000
0000
,
0010
0000
1000
0001
,
1001
0000
0000
0000
1000
0010
1000
0000
,
0100
0000
0010
0000
0001
0010
0001
0000
,
1000
0010
0100
0001
,
1001
0000
0000
0000
1000
0100
0001
0000
,
0100
0000
0010
0001
0010
0010
0001
0000
,
0101
0000
0100
0100
0001
0000
1000
0010
,
0100
0000
0010
1000
0010
0010
1000
0000
,
0100
1100
0000
0011
0000
1001
0000
1000
,
0001
0100
1000
0000
0100
0001
0010
0100
,
1000
0100
0001
0000
0100
1000
0010
0100
,
0010
0000
1001
0000
1000
0000
0001
0100
,
0010
0000
1010
0000
1000
0001
0010
0000
,
0110
0000
0000
0000
0000
0000
0000
0000
0000
0000
1001
0000
0000
0110
0000
0000
,
1001
0000
0000
0000
;

//--------------- dance-single - 8Chasey ----------------
#NOTES:
     dance-single:
     8Chasey:
     Hard:
     8:
     0,0,0,0,0:
0000
0000
0000
0000
,
0000
0000
0000
0000
,
0000
0000
0000
0000
,
0000
0000
0000
0000
,
0000
0000
0000
0000
,
2002
0000
0000
0000
3003
0000
0000
0000
0001
0000
0000
0001
0000
0000
0100
0000
,
0001
0000
0010
0000
0100
0000
0000
0000
1000
0000
0000
1000
0000
0000
0100
0000
,
1000
0001
2000
0000
3001
0100
0002
0000
,
0103
0000
0100
0000
0010
0000
0010
0000
1000
0000
0000
0001
0000
0000
1000
0000
,
0001
0000
0010
0000
0002
0000
0000
0000
1003
0000
0000
0010
0000
0000
0010
0000
,
1000
0000
0100
0000
2000
0000
0000
0000
3001
0000
0000
0100
0000
0000
0100
0000
,
0010
0100
0020
0000
1030
0100
2000
0000
,
3001
0000
0000
0100
0000
0000
0001
0000
0100
0000
0100
0000
0010
0000
0010
0000
,
1000
0000
0001
0000
2000
0000
0000
0001
0000
0000
0100
0000
3100
0000
0010
0000
,
0001
0000
1000
0000
0002
0000
0000
1000
0000
0000
0100
0000
0103
0000
0010
0000
,
1000
0000
0000
0100
0000
0000
0010
0000
0001
0000
0000
0100
0000
0000
0010
0000
,
0100
0000
0000
0200
0000
0000
0310
0000
0000
0020
0000
0000
1030
0000
0001
0000
,
1001
0000
0000
1000
0100
0000
0000
0100
0010
0000
0000
0010
0001
0000
0000
0000
,
1100
0000
1000
0000
0010
0000
1000
0010
0000
0000
0101
0000
0001
0000
0010
0000
,
0002
0000
0000
0000
1000
0000
1003
0000
0010
0000
1000
0010
0000
0000
0100
0000
,
0001
0000
0100
0000
0001
0000
0001
0010
0000
0000
1100
0000
1000
0000
0010
0000
,
2000
0000
0000
0000
0001
0000
3001
0000
0010
0000
0001
0100
0000
0000
0010
0000
,
1000
0000
0010
1000
0000
0100
0000
0010
0000
0001
0010
0000
0001
0000
0100
0000
,
0001
0000
0010
0001
0000
0010
0000
0100
0000
1000
0000
0100
1000
0000
0010
0000
,
2000
0000
0000
0001
0000
0000
3001
0000
0020
0000
0000
0100
0000
0000
0130
0000
,
1000
0000
0000
1000
0001
0000
0000
0001
0100
0000
0000
0100
0010
0000
0000
0010
,
0100
0000
0001
0000
0010
0000
0001
1000
0000
0000
1001
0000
0001
0000
0010
0000
,
0002
0000
0100
0000
0103
0000
0010
0000
1000
0000
0010
1000
0000
0000
1100
0000
,
0100
0000
1000
0000
0010
0000
0100
0001
0000
0000
0110
0000
0100
0000
0010
0000
,
2000
0000
0100
0000
3100
0000
0010
0000
0001
0000
0010
0001
0000
0000
0101
0000
,
0100
0000
0010
1000
0000
0010
0000
0100
0000
0001
0100
0000
0001
0000
0010
0000
,
0100
0000
0010
0001
0000
0100
0000
0010
0000
1000
0000
0010
1000
0000
0001
0000
,
0010
0000
0000
2100
0000
0000
0010
0000
0000
0000
3010
0000
0100
0000
0001
0000
,
0010
0000
0001
0000
0100
0000
1000
0000
0100
0000
0010
0000
0100
0010
0100
0000
,
0120
0000
0000
0000
0000
0000
0000
1000
0000
0000
1000
0000
1030
0000
0100
0000
,
2000
3020
0230
0302
,
0013
0000
0001
1000
0000
0001
0000
0100
0000
0000
0010
0000
0100
0000
0001
0000
,
0020
0000
0000
0001
0000
0000
0031
0000
0100
0000
0001
0000
1000
0000
0100
0000
,
0020
0000
0000
0030
0100
0000
0000
1000
0000
0000
1001
0000
0000
0000
0001
0000
,
0200
0000
0000
0000
0000
0000
0000
0000
0000
0300
0000
0000
0001
0000
0000
0000
0010
0000
0000
0000
0100
0000
0000
0000
0010
0000
0000
0000
0000
0000
0000
0000
0000
0110
0000
0000
0000
0000
0000
0000
0000
0000
0100
0000
0000
0000
0000
0000
,
2000
0000
0000
3000
0000
0000
0000
1001
0000
0000
2002
0000
0000
0000
3003
0000
,
0002
0000
0000
0003
0100
0000
0010
0000
0100
0000
0000
0010
1000
0000
0010
0000
,
2000
0100
0000
3010
1000
0001
0010
0000
,
0002
0100
0000
0013
0001
1000
0100
0100
,
0010
0000
0000
0001
0000
0001
1000
0000
0100
0000
0000
1000
0000
1000
0001
0000
,
2002
0000
0000
0000
0000
0000
3003
0000
1000
0001
1000
0000
0110
0000
0000
0000
,
0010
0000
1000
0100
1000
0000
0010
1000
0000
0000
0101
0000
0001
0000
0010
0000
,
0002
0000
0010
0000
0013
0000
0100
0000
1000
0000
0100
0010
0000
0000
0011
0000
,
0010
0000
0001
0100
0001
0000
0010
0001
0000
0000
1100
0000
1000
0000
0010
0000
,
2000
0000
0010
0000
3010
0000
0100
0000
0001
0000
0100
0010
0000
0000
1010
0000
,
1000
0000
0100
1000
0000
0010
0000
1000
0000
0001
0100
0000
0001
0000
0010
0000
,
0001
0000
0100
0001
0000
0010
0000
0001
0000
1000
0100
0000
1000
0000
0010
0000
,
0100
0000
0010
0100
0002
0000
0010
0000
0013
0000
0001
0100
0001
0000
1000
0000
,
0010
1000
0100
0000
0010
0001
0100
0000
0010
0000
1000
0000
0100
0010
0100
0000
,
0220
0000
0000
0000
0000
0000
0000
0000
0330
0000
0011
0000
0000
1100
0000
0000
,
2002
3003
0000
0000
;
