#TITLE:Sprinkly Stars;
#SUBTITLE:;
#ARTIST:8Chasey;
#TITLETRANSLIT:;
#SUBTITLETRANSLIT:;
#ARTISTTRANSLIT:;
#GENRE:;
#CREDIT:;
#BANNER:Sprinkly Stars.png;
#BACKGROUND:Sprinkly Stars-bg.png;
#LYRICSPATH:;
#CDTITLE:;
#MUSIC:Sprinkly Stars.ogg;
#OFFSET:-0.070000;
#SAMPLESTART:27.500000;
#SAMPLELENGTH:15.000000;
#SELECTABLE:YES;
#BPMS:0.000000=140.000000
;
#STOPS:
;
#BGCHANGES:;
#KEYSOUNDS:;
#ATTACKS:;

//---------------dance-single - ----------------
#NOTES:
     dance-single:
     :
     Hard:
     8:
     0.449325,0.563873,0.382813,0.341428,0.175887,304.000000,267.000000,37.000000,33.000000,0.000000,0.000000,0.449325,0.563873,0.382813,0.341428,0.175887,304.000000,267.000000,37.000000,33.000000,0.000000,0.000000:
// measure 0
0000
0000
0000
0000
,  // measure 1
0000
0000
0000
0000
,  // measure 2
0000
0000
0000
0000
,  // measure 3
0000
0000
0000
0000
,  // measure 4
0001
0010
0200
0000
1300
0100
0002
0000
,  // measure 5
0103
1000
0020
0000
0130
0010
2000
0000
,  // measure 6
3001
0000
0000
0100
0000
0000
0001
0000
0000
0100
0000
0000
0010
0000
0000
0000
,  // measure 7
1000
0000
0000
0100
0000
0000
1000
0000
0000
0100
0000
0000
1001
0000
0000
0000
,  // measure 8
0010
1000
0101
1100
,  // measure 9
0010
0000
0001
1000
0200
0000
0310
0000
,  // measure 10
0100
1000
0001
0000
0100
0001
0010
0000
,  // measure 11
2000
0000
3010
0200
0000
0301
0010
0000
,  // measure 12
0001
0010
1000
0010
0001
0000
0100
0000
,  // measure 13
0010
1010
0011
1001
,  // measure 14
0100
0000
0001
1000
0100
0000
0110
0000
,  // measure 15
0020
0000
0000
0000
0000
0000
0000
0000
0100
0000
0000
0100
0000
0000
0130
0000
,  // measure 16
1000
0000
0000
0001
0100
0000
0001
0000
0010
0000
0100
0000
2000
0000
0000
0000
,  // measure 17
3001
0000
0000
0100
0010
0000
1000
0000
0002
0000
0000
0000
0103
0000
0000
0000
,  // measure 18
1010
0000
1000
0100
0001
0100
0010
0000
,  // measure 19
0011
0000
0000
0001
0000
0000
1010
0000
0000
1000
0000
0000
1001
0000
0000
0000
,  // measure 20
0110
0000
0100
0001
1000
0100
1000
1000
,  // measure 21
0010
0000
0000
2000
0000
0000
3001
0000
0000
0000
1000
0100
0010
0000
0100
0000
,  // measure 22
0010
0000
0000
0010
0001
0000
0100
0000
0010
0000
1000
0000
0100
0000
0000
0000
,  // measure 23
1001
0000
0000
0000
0000
0000
0001
0000
0100
0000
0000
1010
0000
0000
0100
0000
,  // measure 24
0011
0000
0000
1000
0001
0000
0010
0000
0100
0010
0100
0000
1000
0000
0001
0000
,  // measure 25
0020
0000
0000
0030
,  // measure 26
2000
0100
3000
1000
0002
0100
0003
0001
,  // measure 27
0010
0100
0000
0020
0001
0000
0130
0000
,  // measure 28
2100
0001
0010
3001
,  // measure 29
0200
0000
0001
0000
0310
1000
0100
0000
,  // measure 30
0220
0000
0330
0000
0010
0001
1000
0000
,  // measure 31
0100
1000
0001
0000
0100
0010
0100
0001
,  // measure 32
1000
0000
0100
1000
0010
0000
0001
0100
,  // measure 33
0000
0000
0000
0000
0000
0000
0000
0000
0010
0000
0000
0010
0000
0000
0010
0000
,  // measure 34
1001
0000
0000
0001
0100
0000
0001
0000
0010
0000
0001
0000
2000
0000
0000
0000
,  // measure 35
3010
0000
0000
0101
0000
0000
0020
0000
0000
0000
0130
0000
0010
0000
0000
0000
,  // measure 36
1000
0000
0000
0100
0010
0000
0100
0000
0001
0000
0100
0000
1000
0000
0000
0000
,  // measure 37
0101
0000
0000
0001
0000
0000
1100
0000
0000
1000
0000
0000
1001
0000
0000
0000
,  // measure 38
0110
0000
0010
1000
0100
0010
0001
0000
,  // measure 39
1000
0000
0000
0002
0000
0000
0013
0000
0000
0000
0100
0010
0001
0000
0100
0000
,  // measure 40
0010
0000
0000
1000
0001
0000
0010
0000
0100
0000
1000
0000
0001
0000
0000
0000
,  // measure 41
2002
0000
0000
3003
,  // measure 42
0200
0000
0301
0010
0200
0000
1300
0001
,  // measure 43
0010
0000
0000
0010
0000
0000
0210
0000
0000
0000
0000
0000
1300
0000
0000
0000
,  // measure 44
0001
0000
0000
0010
0001
0000
0100
0000
0010
0000
0000
0000
1010
0000
0000
0000
,  // measure 45
0002
0000
0000
1000
0000
0000
0020
0000
0003
0000
0000
0000
0130
0000
0000
0000
,  // measure 46
0020
0000
0031
0100
0020
0000
1030
1000
,  // measure 47
0010
0000
0000
0010
0000
0000
0210
0000
0000
0000
0000
0000
0301
0000
0000
0000
,  // measure 48
1000
0000
0000
0010
1000
0000
0100
0000
0001
0000
0100
0000
0010
0000
0000
0000
,  // measure 49
0011
0000
0000
1010
0000
0000
1001
0000
0000
0000
0000
0000
0100
0000
0000
0000
,  // measure 50
0001
0010
0100
0000
0001
0010
0100
0000
,  // measure 51
1000
0010
0100
0000
1000
0010
0100
0000
,  // measure 52
0011
0000
0000
0000
0000
0000
0000
0000
0000
0000
0101
0000
0000
0000
0000
0000
0000
0000
0000
0000
0000
0011
0000
0000
0000
0000
0000
0000
0000
0000
0000
0000
1010
0000
0000
0000
0000
0000
0000
0000
0000
0000
1100
0000
0000
0000
0000
0000
0000
0000
0000
0000
0000
1010
0000
0000
0000
0000
0000
0000
0000
0000
0000
0000
,  // measure 53
1001
0000
0200
0000
,  // measure 54
0000
0000
0300
0000
;

//---------------dance-single - ----------------
#NOTES:
     dance-single:
     :
     Medium:
     5:
     0.316301,0.359792,0.206926,0.186233,0.046558,214.000000,194.000000,20.000000,18.000000,0.000000,0.000000,0.316301,0.359792,0.206926,0.186233,0.046558,214.000000,194.000000,20.000000,18.000000,0.000000,0.000000:
// measure 0
0000
0000
0000
0000
,  // measure 1
0000
0000
0000
0000
,  // measure 2
0000
0000
0000
0000
,  // measure 3
0000
0000
0000
0000
,  // measure 4
0001
1000
0010
1001
,  // measure 5
1000
0001
0010
1001
,  // measure 6
0001
0000
0000
0010
0000
0000
0001
0000
0000
0010
0000
0000
0100
0000
0000
0000
,  // measure 7
1000
0000
0000
0010
0000
0000
1000
0000
0000
0010
0000
0000
0100
0000
0000
0000
,  // measure 8
0001
0101
0001
0010
,  // measure 9
0100
0000
1000
0001
1000
0000
0100
0000
,  // measure 10
1000
0000
1100
0000
0010
0001
1000
0000
,  // measure 11
0200
0000
0000
2300
0000
0000
3001
0000
,  // measure 12
0010
0011
0100
1010
,  // measure 13
0001
0000
1000
0001
0000
0100
0001
0000
,  // measure 14
0010
0100
1000
0001
,  // measure 15
0200
0000
0310
0110
,  // measure 16
1000
0100
1000
0000
0100
0000
0010
0000
,  // measure 17
0001
0100
0001
0000
2000
0000
3000
0000
,  // measure 18
0010
0000
0010
0000
1000
0001
0100
0000
,  // measure 19
0002
0000
0000
2003
0000
0000
3010
0000
,  // measure 20
1000
1100
1000
1010
,  // measure 21
0001
0101
0001
0011
,  // measure 22
1000
0000
0001
0010
0001
0000
0100
0000
,  // measure 23
1001
0000
0000
0000
0010
0001
1000
0000
,  // measure 24
0100
0000
0100
0000
1000
0001
0100
0000
,  // measure 25
0020
0000
0000
0030
,  // measure 26
1000
0100
1000
0100
,  // measure 27
0001
0100
0001
0100
,  // measure 28
0020
0000
0130
0010
,  // measure 29
0200
0000
0310
0100
,  // measure 30
0001
0001
0100
0010
,  // measure 31
1000
1000
0100
0010
,  // measure 32
0100
0000
1000
0000
0001
0000
0100
0010
,  // measure 33
0000
0000
0000
0000
,  // measure 34
0001
1000
0010
0000
0100
0000
0001
0000
,  // measure 35
1000
0100
1000
0000
0002
0000
0003
0000
,  // measure 36
0100
0000
0100
0000
0010
1000
0001
0000
,  // measure 37
2000
0000
0000
3002
0000
0000
0013
0000
,  // measure 38
1010
0010
0110
0000
,  // measure 39
0011
0010
0110
0000
,  // measure 40
0100
1000
0001
0100
,  // measure 41
0020
0000
0000
0030
,  // measure 42
2000
3100
0002
0103
,  // measure 43
1000
0000
0001
0010
0001
0000
1000
0010
,  // measure 44
0100
0001
1000
1001
,  // measure 45
0010
0010
0020
0000
,  // measure 46
1030
1100
0001
0101
,  // measure 47
1000
0000
0010
0100
0001
0000
0010
0100
,  // measure 48
1000
0001
0100
0010
,  // measure 49
0100
0000
0000
0010
0000
0000
0100
0000
0000
0000
0000
0000
0000
0000
0000
0000
,  // measure 50
0002
0100
0000
0013
,  // measure 51
2000
0100
0000
3010
,  // measure 52
1000
0000
0000
0000
0000
0000
0000
0000
0000
0000
0100
0000
0000
0000
0000
0000
0000
0000
0000
0000
0000
0010
0000
0000
0000
0000
0000
0000
0000
0000
0000
0000
0001
0000
0000
0000
0000
0000
0000
0000
0000
0000
0100
0000
0000
0000
0000
0000
0000
0000
0000
0000
0000
0010
0000
0000
0000
0000
0000
0000
0000
0000
0000
0000
,  // measure 53
1001
0000
0100
0000
;

//---------------dance-single - ----------------
#NOTES:
     dance-single:
     :
     Easy:
     4:
     0.202492,0.249087,0.062078,0.155194,0.000000,137.000000,131.000000,6.000000,15.000000,0.000000,0.000000,0.202492,0.249087,0.062078,0.155194,0.000000,137.000000,131.000000,6.000000,15.000000,0.000000,0.000000:
// measure 0
0000
0000
0000
0000
,  // measure 1
0000
0000
0000
0000
,  // measure 2
0000
0000
0000
0000
,  // measure 3
0000
0000
0000
0000
,  // measure 4
1000
0100
1000
1000
,  // measure 5
0001
0100
0001
0001
,  // measure 6
0020
0000
0031
1000
,  // measure 7
0200
0000
0300
0000
,  // measure 8
1000
1000
0001
0001
,  // measure 9
0100
0001
1000
0000
,  // measure 10
0001
0001
1000
1000
,  // measure 11
0020
0030
0200
0300
,  // measure 12
0001
0001
1000
1000
,  // measure 13
0100
1000
0001
0000
,  // measure 14
0010
0001
1000
0100
,  // measure 15
0020
0000
0030
0000
,  // measure 16
0100
1000
0001
0000
,  // measure 17
0100
0001
1000
0000
,  // measure 18
0010
0010
0100
0100
,  // measure 19
0010
1000
0001
0000
,  // measure 20
1001
0000
1000
0000
,  // measure 21
1001
0000
0001
0000
,  // measure 22
1000
0100
0001
0000
,  // measure 23
0020
0000
0030
0000
,  // measure 24
0001
0100
1000
0000
,  // measure 25
0200
0000
0300
0000
,  // measure 26
1000
0000
0010
0000
,  // measure 27
0001
0000
0010
0000
,  // measure 28
0200
0000
0310
0000
,  // measure 29
0200
0000
0300
0000
,  // measure 30
0001
0010
0010
0000
,  // measure 31
1000
0010
0010
0000
,  // measure 32
1000
0100
0001
0100
,  // measure 33
0000
0000
0000
0000
,  // measure 34
1010
1000
0100
0000
,  // measure 35
0011
0001
0100
0000
,  // measure 36
0001
0001
0010
0000
,  // measure 37
1000
1000
0010
0000
,  // measure 38
1000
0010
0001
0000
,  // measure 39
0200
0000
0300
0000
,  // measure 40
0001
0010
1000
0000
,  // measure 41
0200
0000
0300
0000
,  // measure 42
1000
0100
1000
0000
,  // measure 43
0010
0000
0000
0200
0000
0000
0300
0000
,  // measure 44
0001
0010
0100
0010
,  // measure 45
0001
0000
0000
1001
0000
0000
1000
0000
,  // measure 46
0001
0100
0001
0000
,  // measure 47
0020
0000
0000
0130
0000
0000
0000
0000
,  // measure 48
1000
1000
0001
0001
,  // measure 49
0110
0000
0000
0000
,  // measure 50
0001
0010
0000
0010
,  // measure 51
1000
0010
0000
0010
,  // measure 52
2000
0000
3002
0000
,  // measure 53
0013
0000
0100
0000
;
