#VERSION:0.83;
#TITLE:Spooky Scary Skeletons;
#SUBTITLE:;
#ARTIST:Andrew Gold;
#TITLETRANSLIT:;
#SUBTITLETRANSLIT:;
#ARTISTTRANSLIT:;
#GENRE:;
#ORIGIN:;
#CREDIT:;
#BANNER:;
#BACKGROUND:;
#PREVIEWVID:;
#JACKET:;
#CDIMAGE:;
#DISCIMAGE:;
#LYRICSPATH:;
#CDTITLE:;
#MUSIC:Spooky Scary Skeletons.ogg;
#OFFSET:-0.050000;
#SAMPLESTART:12.300000;
#SAMPLELENGTH:12.000000;
#SELECTABLE:YES;
#BPMS:0.000=77.120;
#STOPS:;
#DELAYS:;
#WARPS:;
#TIMESIGNATURES:0.000=4=4;
#TICKCOUNTS:0.000=4;
#COMBOS:0.000=1;
#SPEEDS:0.000=1.000=0.000=0;
#SCROLLS:0.000=1.000;
#FAKES:;
#LABELS:0.000=Song Start;
#BGCHANGES:;
#KEYSOUNDS:;
#ATTACKS:
;

//---------------dance-single - ----------------
#NOTEDATA:;
#CHARTNAME:;
#STEPSTYPE:dance-single;
#DESCRIPTION:;
#CHARTSTYLE:;
#DIFFICULTY:Hard;
#METER:7;
#RADARVALUES:0.305565,0.318862,0.205973,0.000000,0.000000,270.000000,244.000000,26.000000,0.000000,0.000000,0.000000,0.000000,0.000000,0.000000,0.305565,0.318862,0.205973,0.000000,0.000000,270.000000,244.000000,26.000000,0.000000,0.000000,0.000000,0.000000,0.000000,0.000000;
#CREDIT:;
#NOTES:
// measure 0
0000
0000
0000
0000
,  // measure 1
0000
0000
0000
0000
,  // measure 2
0001
0100
0001
0000
1000
0100
1000
0000
,  // measure 3
0010
1000
0001
0100
0010
0010
0010
0000
,  // measure 4
1000
0100
0001
0100
,  // measure 5
0010
0001
1000
0000
0001
1000
0001
1000
,  // measure 6
0100
0001
1000
0010
,  // measure 7
1000
0001
1000
0001
0100
0100
0100
0000
,  // measure 8
0010
1000
0100
1000
,  // measure 9
0010
0100
0001
0000
0010
0001
1001
0000
,  // measure 10
0100
0100
0100
0000
1000
1000
1000
0000
,  // measure 11
0001
0001
0001
0000
1000
0001
1001
0000
,  // measure 12
0100
0001
0010
0001
0100
0001
0010
0000
,  // measure 13
0100
1000
0010
1000
0100
1000
0010
0000
,  // measure 14
1000
0001
0100
0000
0001
1000
0100
0000
,  // measure 15
0010
0010
0100
0100
0010
0100
1001
0000
,  // measure 16
0001
0010
0001
0000
0001
0000
1000
0000
,  // measure 17
1000
0010
1000
0000
1000
0000
0001
0000
,  // measure 18
0100
0001
0010
0000
0100
1000
0010
0000
,  // measure 19
1000
0001
1000
0001
1100
0010
0101
0000
,  // measure 20
0001
0010
0001
1000
0100
0010
0100
0000
,  // measure 21
1000
0010
0100
0010
1000
0001
1001
0000
,  // measure 22
1000
1000
0001
1000
0100
0010
0001
1000
,  // measure 23
0001
0001
1000
0001
0100
0010
1001
0000
,  // measure 24
0001
0010
0001
0000
1000
0100
1000
0000
,  // measure 25
0010
0100
0001
1000
0100
0000
1001
0000
,  // measure 26
0010
1000
0001
0100
0001
1000
0100
0000
,  // measure 27
0010
0010
0100
0000
1000
0100
0011
0000
,  // measure 28
0001
0010
0001
0100
0100
0000
1010
0000
,  // measure 29
1000
0001
0010
0000
0110
0010
1001
0000
,  // measure 30
0001
1000
0010
0100
0001
1000
0010
0100
,  // measure 31
0001
0001
1000
1000
1001
1100
0101
0000
,  // measure 32
0010
1000
0010
1000
0100
0010
0001
0000
,  // measure 33
0010
0001
0010
0001
0100
0100
0001
0000
,  // measure 34
1000
0001
0011
0000
0100
0010
1010
0000
,  // measure 35
0010
0010
1000
0000
0001
1000
0100
0000
,  // measure 36
1001
0110
1001
0000
0001
0010
0001
0010
,  // measure 37
0001
0100
0010
0100
0010
1000
0100
0010
,  // measure 38
0011
0000
1100
0000
1001
1000
0001
0100
,  // measure 39
0010
1000
0100
0010
0100
0000
0010
0000
,  // measure 40
0011
1010
1001
0000
0000
0000
0000
0000
;

//---------------dance-single - ----------------
#NOTEDATA:;
#CHARTNAME:;
#STEPSTYPE:dance-single;
#DESCRIPTION:;
#CHARTSTYLE:;
#DIFFICULTY:Medium;
#METER:4;
#RADARVALUES:0.188997,0.191317,0.079220,0.000000,0.000000,167.000000,157.000000,10.000000,0.000000,0.000000,0.000000,0.000000,0.000000,0.000000,0.188997,0.191317,0.079220,0.000000,0.000000,167.000000,157.000000,10.000000,0.000000,0.000000,0.000000,0.000000,0.000000,0.000000;
#CREDIT:;
#NOTES:
0000
0000
0000
0000
,
0000
0000
0000
0000
,
0001
0010
0100
1000
,
0001
0000
1000
0000
0001
1000
0010
0000
,
1000
1000
0001
0001
,
1000
0001
0100
0010
,
1000
0100
0001
0100
,
0010
0100
0110
1001
,
0001
0001
0010
0100
,
1000
1000
0010
0100
,
0001
0010
1000
0010
,
0100
0100
1001
0010
,
1000
0100
1000
0100
,
0010
0010
0100
0000
,
0001
0100
0001
0100
,
0010
0010
0100
0000
,
0001
0010
0001
0000
0001
0000
0100
0000
,
0010
1000
0100
0000
,
1000
0010
1000
0000
1000
0000
0100
0000
,
0010
0001
1001
0000
,
0001
0001
0010
0001
,
1000
0000
1000
0000
0010
1000
0100
0000
,
0001
1000
0001
0010
,
0100
0000
1000
0000
0010
0100
0001
0000
,
1000
1000
0001
1000
,
0001
0010
0100
0000
,
0010
0001
1000
0001
,
0100
0000
0010
0000
1000
0001
0100
0000
,
0001
0010
0001
0100
,
0010
1000
0100
0000
,
1000
1000
0001
0001
,
0010
0100
0010
0100
0010
0000
1001
0000
,
0001
1000
0010
0010
,
0100
0010
1001
0000
,
0001
0001
0010
0001
,
1000
1000
0010
1000
,
0110
0000
1001
0000
0001
0010
0001
0000
,
0010
0001
0100
0010
,
1000
0000
1001
0000
1000
0010
1000
0000
,
0010
1000
0100
0010
,
0100
1001
0000
0000
;

//---------------dance-single - ----------------
#NOTEDATA:;
#CHARTNAME:;
#STEPSTYPE:dance-single;
#DESCRIPTION:;
#CHARTSTYLE:;
#DIFFICULTY:Easy;
#METER:2;
#RADARVALUES:0.119962,0.143488,0.071298,0.000000,0.000000,106.000000,97.000000,9.000000,0.000000,0.000000,0.000000,0.000000,0.000000,0.000000,0.119962,0.143488,0.071298,0.000000,0.000000,106.000000,97.000000,9.000000,0.000000,0.000000,0.000000,0.000000,0.000000,0.000000;
#CREDIT:;
#NOTES:
0000
0000
0000
0000
,
0000
0000
0000
0000
,
0001
0000
1000
0000
,
0001
1000
1001
0000
,
1000
0000
0100
0000
,
1000
0100
0010
0000
,
0001
0000
0100
0000
,
0001
0100
0010
0000
,
1001
0000
0001
0000
,
1000
0001
0010
0000
,
1001
0000
0001
0000
,
1000
0001
0100
0000
,
0010
0000
0010
0000
,
0100
0000
0100
0000
,
1000
0000
0001
0000
,
0010
0010
0110
0000
,
0001
1000
0001
1000
,
0100
0000
0010
0000
,
1000
0001
1000
0001
,
0100
0000
1001
0000
,
0001
0001
0001
0000
,
0010
0000
0001
0000
,
1000
1000
1000
0000
,
0010
0000
1000
0000
,
0001
0000
0010
0000
,
0001
0000
1000
0000
,
0010
0000
1000
0000
,
0100
0100
0110
0000
,
0001
0000
0010
0000
,
0100
1000
0001
0000
,
1000
0000
0010
0000
,
0100
0010
1001
0000
,
0001
0000
1000
0000
,
1000
0001
0100
0000
,
0010
0000
0100
0000
,
0001
0001
1000
1000
,
1001
0000
0001
0000
,
0001
0000
0100
0000
,
0001
0100
1000
0000
,
1000
0000
0100
0000
,
1000
1001
0000
0000
;

//---------------dance-single - ----------------
#NOTEDATA:;
#CHARTNAME:;
#STEPSTYPE:dance-single;
#DESCRIPTION:;
#CHARTSTYLE:;
#DIFFICULTY:Beginner;
#METER:1;
#RADARVALUES:0.076957,0.127545,0.039610,0.000000,0.000000,68.000000,63.000000,5.000000,0.000000,0.000000,0.000000,0.000000,0.000000,0.000000,0.076957,0.127545,0.039610,0.000000,0.000000,68.000000,63.000000,5.000000,0.000000,0.000000,0.000000,0.000000,0.000000,0.000000;
#CREDIT:;
#NOTES:
0000
0000
0000
0000
,
0000
0000
0000
0000
,
0001
0000
0000
0000
,
1000
0000
0000
0000
,
0001
0000
0001
0000
,
0001
0000
0000
0000
,
1000
0000
1000
0000
,
1000
0000
0000
0000
,
0010
0000
0000
0000
,
0100
0000
0000
0000
,
0010
0000
0100
0000
,
1001
0000
0000
0000
,
0001
0000
0000
0000
,
0001
0000
0000
0000
,
1000
0000
0000
0000
,
1000
0000
0000
0000
,
0010
0000
0010
0000
,
0010
0000
0000
0000
,
0100
0000
0100
0000
,
0100
0000
1001
0000
,
1000
1000
1000
0000
,
1000
1000
1000
0000
,
0001
0001
0001
0000
,
0001
0001
0001
0000
,
0010
0000
0000
0000
,
0100
0000
0000
0000
,
0001
0000
1000
0000
,
0110
0000
0000
0000
,
1000
0000
0001
0000
,
0010
0000
0000
0000
,
1000
0000
0001
0000
,
0010
0010
0010
0010
,
0010
0000
0010
0000
,
0100
0000
0000
0000
,
0100
0000
0010
0000
,
0100
0000
0100
0000
,
1001
0000
0001
0000
,
0000
0000
0001
0000
,
0000
0000
1000
0000
,
0000
0000
1000
0000
,
0000
1001
0000
0000
;

//---------------dance-single - ----------------
#NOTEDATA:;
#CHARTNAME:;
#STEPSTYPE:dance-single;
#DESCRIPTION:;
#CHARTSTYLE:;
#DIFFICULTY:Challenge;
#METER:9;
#RADARVALUES:0.415342,0.529391,0.380258,0.126753,0.253505,367.000000,319.000000,48.000000,16.000000,0.000000,0.000000,0.000000,0.000000,0.000000,0.415342,0.529391,0.380258,0.126753,0.253505,367.000000,319.000000,48.000000,16.000000,0.000000,0.000000,0.000000,0.000000,0.000000;
#CREDIT:;
#NOTES:
0000
0000
0000
0000
,
0000
0000
0000
0000
,
0000
0000
0000
0000
,
0000
0000
0000
0000
,
0001
0000
1000
0000
0010
0000
1000
0000
0100
0000
1000
0001
0000
1000
0001
0000
,
0010
0100
0010
0001
1000
0001
1001
0000
,
0010
0010
1000
0001
0100
0010
1001
0000
,
1000
0100
1000
0001
0100
0001
0110
0000
,
0010
2000
0100
0000
3001
0010
0110
0000
,
0010
0001
1000
0100
0010
0011
1010
0000
,
0001
0000
0100
0000
0001
1000
0010
0000
2000
0000
0001
0000
3001
0000
0000
0000
,
0001
0101
1000
1100
0010
0100
1001
0000
,
1000
0000
0001
0000
0010
0000
0001
0000
0100
0000
0010
1000
0000
1000
0100
0000
,
0010
0000
0001
0000
1000
0000
0100
0010
0100
0000
0010
0000
1001
0000
0000
1000
,
0002
0000
0010
0000
0013
0000
0001
0000
2000
0000
0000
0010
0000
0000
3010
0000
,
0100
0010
0100
0001
1100
0001
0020
0000
,
0130
0000
1000
0000
1100
0000
0000
0000
1000
0000
0001
0010
0000
0001
0100
0000
,
0001
0010
0001
1000
1100
1010
0110
0010
,
0100
0000
0002
0000
0010
0000
0000
0000
0103
0000
0010
1000
0000
0001
1000
0000
,
0100
0010
1100
1000
0101
0001
1001
0000
,
1000
0010
1000
0010
0000
0000
0100
0001
0100
0001
0000
0000
0010
0001
0010
0001
0000
0000
1000
0100
1000
0100
0000
0000
,
1000
0001
1000
0001
0000
0000
0010
0100
0010
0100
0000
0000
0011
0000
0000
1010
0000
0000
1001
0000
0000
0110
0000
0000
,
0010
1000
0010
1000
0000
0000
0001
0100
0001
0100
0000
0000
0001
0010
0001
0010
0000
0000
0100
1000
0100
1000
0000
0000
,
0001
1000
0001
1000
0000
0000
0100
0010
0100
0010
0000
0000
0001
0000
0000
1000
0000
0000
1001
0000
0000
0000
0000
0000
,
0001
0000
0020
0000
0001
0000
0000
0000
0130
0000
1000
0100
0000
0010
0001
0000
,
1000
0000
0020
0000
0100
0000
0001
0000
1030
0000
0001
1000
0001
0000
1000
0000
,
0100
0000
0010
0000
0011
0000
0000
0001
1000
0000
0001
0000
1001
0000
0000
0000
,
1000
0100
0000
1000
0100
0000
0010
0001
1000
0000
0001
0000
1001
0000
0000
0000
,
0001
0011
1000
1010
0100
0010
0200
0000
,
0301
1000
0100
0010
0100
0010
0011
1100
,
1000
0000
0010
1000
0001
0000
0100
0000
0001
0000
0010
0000
0100
0000
0010
0000
,
0001
0011
1000
1010
1100
0101
1001
0000
,
0010
2000
0100
0000
3100
0010
1001
0000
,
0010
0002
0100
0000
0103
0010
1001
0000
,
0001
0000
0010
0000
0001
0000
0010
0000
0001
0000
0010
0100
0000
0100
1000
0000
,
0002
0000
0000
0000
1003
0000
0001
1000
0200
0000
0000
0000
0310
0000
0100
1000
,
0100
0000
0000
0011
0000
0000
2001
0000
0000
0000
0000
0000
3010
1000
0010
1000
0000
0000
0001
0100
0001
0100
0000
0000
,
0001
0000
0000
1000
0000
0000
0001
0000
0000
1001
0000
0000
1000
0100
1000
0100
0000
0000
0010
0001
0010
0001
0000
0000
,
1100
0000
0000
1010
0000
0000
0101
0000
0000
0011
0000
0000
1000
0010
1000
0010
0000
0000
0100
0001
0100
0001
0000
0000
,
0010
0000
0000
0001
0000
0000
1000
0000
0000
1100
0000
0000
0100
1000
0100
1000
0000
0000
0001
0010
0001
0010
0000
0000
,
1100
0101
2002
0000
3003
0000
0000
0000
;
