#VERSION:0.83;
#TITLE:Spooky Scary Skeletons REMIX;
#SUBTITLE:;
#ARTIST:The Living Tombstone;
#TITLETRANSLIT:;
#SUBTITLETRANSLIT:;
#ARTISTTRANSLIT:;
#GENRE:;
#CREDIT:;
#MUSIC:Spooky Scary Skeletons REMIX.ogg;
#BANNER:;
#BACKGROUND:;
#CDTITLE:;
#SAMPLESTART:44.660;
#SAMPLELENGTH:12.000;
#SELECTABLE:YES;
#OFFSET:-0.130;
#BPMS:0.000=128.000;
#STOPS:;
#SPEEDS:0.000=1.000=0.000=0;
#SCROLLS:0.000=1.000;
#TICKCOUNTS:0.000=4;
#TIMESIGNATURES:0.000=4=4;
#LABELS:0.000=Song Start;
#COMBOS:0.000=1;
#ORIGIN:;
#PREVIEWVID:;
#JACKET:;
#CDIMAGE:;
#DISCIMAGE:;
#BGCHANGES:;
#FGCHANGES:;

//--------------- dance-single - ----------------
#NOTEDATA:;
#STEPSTYPE:dance-single;
#DESCRIPTION:;
#DIFFICULTY:Beginner;
#METER:2;
#RADARVALUES:0.149676,0.228542,0.143963,0.015996,0,131,113,18,2,0,0,0,0,0,0.149676,0.228542,0.143963,0.015996,0,131,113,18,2,0,0,0,0,0;
#CHARTNAME:;
#CHARTSTYLE:;
#CREDIT:;
#NOTES:
0000
0000
0000
0000
,
0000
0000
0000
0000
,
0000
0000
0000
0000
,
0000
0000
0000
0000
,
0001
0000
1000
0000
,
0010
0000
1001
0000
,
0100
0000
0001
0000
,
1000
0000
0100
0000
,
0010
0000
0001
0000
,
0010
0000
1000
0000
,
0100
0100
0100
0000
,
0010
0000
1001
0000
,
1000
0000
0001
0000
,
1000
1000
1000
0000
,
0001
0000
1000
0000
,
0001
0001
0001
0000
,
0010
0000
1000
0000
,
0001
0000
0100
0000
,
0010
0000
1001
0000
,
0100
0100
0100
0000
,
0020
0000
0000
0000
,
0000
0000
0000
0000
,
0030
0000
0000
0000
,
0000
0000
0000
1001
,
0000
1000
0000
0001
,
0000
1000
0000
1001
,
0000
0001
0000
1000
,
0000
0001
0000
1001
,
0000
0010
0000
0100
,
0000
0010
0000
0110
,
0000
0100
0100
0000
,
0010
0010
0000
1001
,
0000
0000
1000
0000
,
0010
0000
1000
1000
,
1000
0000
0100
0000
,
0001
0001
0001
0001
,
0001
0000
0010
0000
,
0001
0000
0100
0000
,
0010
0000
0100
0000
,
1001
1001
1001
0000
,
0020
0000
0000
0000
,
0000
0000
0030
0000
,
0010
0010
0010
0010
,
0010
0010
0010
0010
,
0000
0100
0000
0110
,
0000
0000
0000
1000
,
0000
1000
0000
1000
,
1000
1000
0000
0010
,
0000
0100
0000
0110
,
0000
0000
0000
0001
,
0000
0001
0000
1000
,
0000
1001
0000
0100
,
0000
0010
0000
0110
,
0000
0000
0000
0001
,
0000
1000
0000
0001
,
0001
0001
0000
0100
,
0000
0010
0000
0110
,
0000
0000
0000
1000
,
0000
1000
0000
0001
,
0000
1001
0000
0000
,
0000
0000
0000
0000
,
0000
0000
0000
0000
,
0000
0000
0000
0000
,
0000
0000
1001
0000
;

//--------------- dance-single - ----------------
#NOTEDATA:;
#STEPSTYPE:dance-single;
#DESCRIPTION:;
#DIFFICULTY:Easy;
#METER:4;
#RADARVALUES:0.283356,0.358308,0.263932,0.239939,0,248,215,33,30,0,0,0,0,0,0.283356,0.358308,0.263932,0.239939,0,248,215,33,30,0,0,0,0,0;
#CHARTNAME:;
#CHARTSTYLE:;
#CREDIT:;
#NOTES:
0000
0000
0000
0000
,
0000
0000
0000
0000
,
0000
0000
0000
0000
,
0000
0000
0000
0000
,
0001
0010
0001
1100
,
1000
0000
0010
0000
1000
0001
1000
0000
,
0100
1000
0001
0110
,
0001
1000
0100
0000
0110
0000
1001
0000
,
1000
0001
0100
0011
,
1000
0000
0100
0000
1000
0010
0001
0000
,
0010
1100
0010
0101
,
0001
0010
1000
0010
0001
0000
1000
0000
,
0002
0013
2000
3100
,
0010
0001
1000
0100
,
0020
0130
0200
0301
,
1100
0101
0020
0030
,
1000
0100
1000
0000
1000
0000
1000
0000
,
0010
0100
0002
0013
,
0001
0010
0100
0000
1000
0000
0010
0000
,
0200
0010
0310
0000
,
2000
3000
0002
0003
,
0200
0300
0020
0030
,
2002
0000
0000
0000
,
3003
0000
0010
1001
,
0100
0001
0100
0010
,
1000
0100
0010
1001
,
1100
0010
0100
0001
,
0010
0001
2000
3010
,
0101
0001
0010
0001
,
1000
0010
0100
0011
,
0101
0010
1000
0100
,
0020
0000
0130
0110
,
1000
0001
0010
0001
,
0100
0010
1000
1001
,
0110
0010
1000
0100
,
0010
0001
0200
0310
,
1100
0001
0010
0100
,
0010
1000
0010
0011
,
1100
0001
1000
0010
,
2000
0000
3002
0000
,
2003
3000
0002
0003
,
0020
0030
0200
0300
,
0001
1000
1001
0010
,
0010
0020
0030
0100
,
0001
0100
1000
0010
,
0010
0100
0110
1000
,
0100
0001
0100
0020
,
0000
0030
1001
1000
,
0010
1000
0011
0100
,
0010
0100
1001
0100
,
0001
0010
1000
2002
,
0000
3003
0000
0100
,
1000
0001
0010
0100
,
0001
1000
1001
0110
,
0010
1000
0100
0200
,
0000
0300
0000
0001
,
0010
0001
1100
1000
,
0010
0100
1001
0010
,
1000
0010
0001
2002
,
0000
3003
0000
1000
,
0100
1000
0100
0010
,
0010
0100
0000
0001
,
0100
0001
0100
0010
,
0010
0100
0020
0000
,
0030
0000
0000
0000
;

//--------------- dance-single - ----------------
#NOTEDATA:;
#STEPSTYPE:dance-single;
#DESCRIPTION:;
#DIFFICULTY:Medium;
#METER:5;
#RADARVALUES:0.339342,0.388401,0.199949,0.447885,0.03999,297,272,25,56,0,0,0,0,0,0.339342,0.388401,0.199949,0.447885,0.03999,297,272,25,56,0,0,0,0,0;
#CHARTNAME:;
#CHARTSTYLE:;
#CREDIT:;
#NOTES:
0000
0000
0000
0000
,
0000
0000
0000
0000
,
0000
0000
0000
0000
,
0000
0000
0000
0000
,
0010
0100
0001
0000
2000
0000
3100
0000
,
0010
1000
0001
0000
0020
0000
0130
0000
,
1100
0000
0101
0000
0010
1000
0001
0000
,
0200
0301
0010
1001
,
2000
3100
0020
0130
,
0002
0000
0013
0000
1000
0100
0001
0000
,
0010
1000
0001
0000
0100
0001
1000
0000
,
0020
0130
1001
0110
,
1000
0100
1000
0010
0200
0000
0301
0000
,
0010
0001
1000
0000
0200
0000
0310
0000
,
1000
0001
0010
0000
0001
1000
0100
0000
,
1000
0010
0001
0000
0020
0000
0000
0000
,
0130
0000
1000
0100
0001
0010
0100
0000
,
0010
1000
0001
0000
0002
0000
1003
0000
,
1000
0100
1000
0000
0010
0100
0001
0000
,
2000
3100
1001
0000
,
0020
1030
2000
3001
,
0002
0103
0200
0310
,
2002
0000
0000
3003
,
1000
0001
0010
1001
,
0100
0002
1003
0100
,
2000
3010
0100
0002
,
0013
0100
0020
1030
,
0100
0000
0000
1000
0000
0000
0001
1000
0001
1000
0000
0000
,
0020
1030
0100
2000
,
3001
0010
0002
1003
,
0100
0020
0130
1000
,
0001
0010
1000
0000
0200
0000
0310
0000
,
2000
3010
0200
0301
,
0010
1000
0001
0000
0100
0000
0110
0000
,
0002
0013
2000
3010
,
0100
0000
0000
0010
0000
0000
1000
0000
0000
0000
0000
0000
0001
0000
1000
0000
0001
0000
1000
0000
0000
0000
0000
0000
,
0002
0103
0020
1030
,
0100
1000
0001
0000
0100
0000
0010
0100
,
0001
1100
0001
0101
,
0010
1000
0100
0000
0010
0001
0100
0000
,
0020
0000
0200
0030
,
0002
0300
2000
3003
,
0010
0100
0110
2002
,
3003
0000
0000
0010
0100
0010
0100
0000
0000
0002
0000
0000
,
0013
0020
0130
0200
,
1300
2000
3001
0010
,
1001
0100
0001
1000
,
0100
0000
0000
0100
0010
0100
0010
0000
0000
0020
0000
0000
,
0031
1000
0110
2000
,
3010
0100
1001
0200
,
0310
0020
0130
0011
,
1010
0000
2002
0000
3003
0000
0001
0100
,
1000
0000
0010
1000
0100
0000
0001
1000
,
0100
0000
0002
0000
0023
0000
0130
1000
,
0010
0000
0100
0001
1000
0000
0220
0000
,
0330
0000
0000
0000
0000
0000
1000
0000
0100
0000
0010
0000
0001
0000
0000
0000
0000
0000
0010
0000
0000
0001
0000
0000
,
1000
0000
0100
1000
0010
0000
0100
0010
,
1000
0000
0011
0000
1010
0000
0100
0010
,
0100
0002
0013
2000
,
3010
0000
0110
0000
1001
0000
0001
0010
,
0001
0000
1000
0010
1000
0000
0100
0000
,
0010
1001
0000
1000
,
0100
0000
0001
0000
0100
0000
0010
1000
,
0001
0100
0020
0000
,
0000
0000
0000
0030
;

//--------------- dance-single - ----------------
#NOTEDATA:;
#STEPSTYPE:dance-single;
#DESCRIPTION:;
#DIFFICULTY:Hard;
#METER:9;
#RADARVALUES:0.57014,0.621441,0.447885,0.087977,0.455883,499,443,56,11,0,0,0,0,0,0.57014,0.621441,0.447885,0.087977,0.455883,499,443,56,11,0,0,0,0,0;
#CHARTNAME:;
#CHARTSTYLE:;
#CREDIT:;
#NOTES:
0000
0000
0000
0000
,
0000
0000
0000
0000
,
0000
0000
0000
0000
,
0000
0000
0000
0000
,
0001
0000
0010
0000
0001
0000
0100
0000
0010
0000
1000
0100
1000
0000
0100
0000
,
0010
0001
0100
1000
0010
0010
1001
0000
,
1000
0000
0010
0000
0100
0000
0010
0000
0100
0000
0001
0010
0001
0000
0100
0000
,
0010
1000
0100
0010
1000
0010
0110
0000
,
1000
0000
0001
0000
0010
0000
0001
0000
0100
0000
0010
1000
0100
0000
1000
0000
,
0010
0100
0001
0010
0100
0010
1001
0000
,
0001
0000
0010
0000
0001
0100
0001
0000
1000
0000
0010
0000
0100
0000
0000
0000
,
0110
1000
0100
0010
0001
1000
1001
0000
,
0100
0000
1000
0000
0010
0000
0100
0000
0001
0000
0001
0010
0000
0010
0001
0000
,
0100
0000
0010
0000
0100
0000
0001
0010
0000
0000
0100
0000
1000
0000
0010
0000
,
0100
0001
0011
0000
1000
0010
0110
0000
,
1000
0100
0001
0100
1000
0010
1001
0000
,
0100
0000
0100
0000
1000
0000
0010
0000
0100
0000
0001
0010
0001
0000
0100
0000
,
0010
1000
0100
1000
0001
0100
0110
0000
,
0001
0000
0100
0000
1100
0000
0000
0000
0010
0000
1000
0100
0000
1000
0100
0000
,
0010
0001
0100
0010
1100
0101
0110
0000
,
2000
0100
0010
3100
,
0002
0100
0010
0103
,
0001
1000
0001
0000
1000
0001
1000
0000
0010
0100
0010
0000
,
1000
0010
0100
0001
0010
0100
0010
0100
1000
1001
0000
0000
,
0001
0000
0000
0011
0000
0000
1000
0000
0000
1010
0000
0100
,
0010
0000
1100
0000
0001
0000
0010
0101
,
1000
0000
0000
0110
0000
0000
0001
0000
0000
1000
0000
0010
,
1000
0000
0000
0000
0000
0000
1100
0000
0000
0000
0000
0000
0001
0000
1000
0000
0001
0000
0010
0000
0000
0100
0000
0000
,
1000
0000
0000
1100
0000
0000
0001
0000
0000
0101
0000
0010
,
0100
0000
0101
0000
1000
0000
0010
1010
,
1000
0000
0000
0101
0000
0000
0010
0000
0000
1001
0000
1000
,
0010
1000
0001
0010
0220
0000
0330
0000
,
1000
0000
0000
0100
0000
0000
0011
0000
0000
0000
0000
0000
0100
0000
0000
0000
0000
0000
1000
0000
0010
0000
0100
0000
,
0001
1000
1001
0000
0010
1000
0001
1001
,
1000
0000
0000
0000
0000
0000
0110
0000
0000
0000
0000
0000
0001
0000
0000
1000
0000
0000
0001
0000
0010
0000
0100
0000
,
1000
0000
0000
0010
0000
0000
0101
0000
0000
0000
0000
0000
1000
0000
0001
0000
0100
0000
1001
0000
0000
0000
0000
0000
,
0100
0000
0000
0010
0000
0000
1100
0000
0000
0000
0000
0000
0001
0000
0000
0000
0000
0000
0001
0000
1000
0000
0010
0000
,
0100
0100
0001
0000
1000
0010
0110
0100
,
0001
0000
0000
0000
0000
0000
1100
0000
0000
0000
0000
0000
0001
0000
0000
0010
0000
0000
0011
0000
0000
0000
1000
0000
,
0020
0100
0200
0330
,
0020
1030
0020
0031
,
0001
0100
1000
0000
1000
0100
0001
0000
,
0010
0100
0010
0100
0010
0100
0110
0110
,
1001
0000
0000
1001
0000
0000
1000
0000
0010
0000
0001
0000
0100
0000
0000
0000
0000
0000
1000
0000
0100
0000
1000
0000
,
0100
0000
0100
0010
0001
1000
0100
0000
1000
0001
0100
0001
,
0100
0000
0000
0000
0010
0000
1000
0000
0001
0000
0010
0000
0100
0000
0000
0110
0000
0000
1000
0000
0010
0000
0100
0000
,
0010
0000
0100
0001
0010
0001
1000
0000
0100
1000
0010
0100
,
0001
0010
0100
1000
0001
0100
1001
0000
0000
0010
1000
0001
,
0100
0000
0001
0010
0001
1000
0100
0000
1000
0001
0100
0010
,
1000
0000
0000
0000
1000
0000
0100
0000
0010
0000
0001
0000
1000
0000
0000
0001
0000
0000
1000
0000
0010
0000
0100
0000
,
0010
0000
0000
0000
0100
0000
0001
0000
0010
0000
0100
0000
1000
0000
0000
0000
0100
0000
0010
0000
0000
0110
0000
0000
,
1001
0000
0000
0000
0000
0000
0001
0000
0000
1000
0000
0000
0010
0000
0000
0000
0000
0000
1100
0000
0000
0000
0100
0000
,
0010
0000
0001
0100
0010
1000
0001
0000
0000
0110
0000
1000
,
0001
0000
0000
0000
0001
0000
1000
0000
0010
0000
0100
0000
1000
0000
0000
0101
0000
0000
1001
0000
0000
0000
1000
0000
,
0010
0000
0100
1000
0010
0100
0001
0000
1000
0010
0100
0001
,
0010
0100
1000
0010
0100
0001
0110
0000
0000
1001
0000
1000
,
0010
0000
0100
0001
0010
1000
0010
0000
0001
1000
0010
0100
,
0010
0000
0000
0000
0001
0000
1000
0000
0100
0000
0010
0000
0001
0000
0000
1001
0000
0000
0100
0000
0000
0000
0100
0000
,
0010
0000
0000
0000
1000
0000
0100
0000
1000
0000
0001
0000
0100
0000
0010
0000
0010
0000
0010
0000
0000
0110
0000
0000
,
1000
0100
0002
0000
1003
0000
0001
0001
,
0010
0000
0001
1000
0010
0000
0100
0010
,
1000
0100
0010
0011
1010
0000
0100
0001
,
1000
0010
1000
0100
0010
0001
1000
0010
,
0100
1000
0100
0001
2002
0000
0000
0000
,
0000
0000
0000
3003
;

//--------------- dance-single - 2025 chart ----------------
#NOTEDATA:;
#STEPSTYPE:dance-single;
#DESCRIPTION:2025 chart;
#DIFFICULTY:Challenge;
#METER:11;
#RADARVALUES:0,0,0,0,0;
#NOTES:
0000
0000
0000
0000
,
0000
0000
0000
0000
,
0000
0000
0000
0000
,
0000
0000
0000
0000
,
0101
0000
0001
0000
1001
0000
1000
0000
0100
0000
1000
0010
1000
0000
0100
0000
,
0010
0001
0000
0010
0001
0000
0100
0000
0110
0000
0010
0000
1010
0000
1000
0000
,
1001
0000
0001
0100
0010
0000
1000
0000
0100
0000
1000
0100
0010
0000
0100
0000
,
1000
0010
1000
0000
0001
0000
0100
0010
1000
0000
0001
0000
1001
0000
0001
0000
,
0011
0000
1000
0000
1010
0000
0001
0000
0100
0000
0010
1000
0010
0000
1000
0000
,
0100
0000
1000
0010
1000
0000
0001
0000
0101
0000
1010
0000
1100
0000
0011
0000
,
0010
0000
0100
0000
1000
0100
1000
0000
0010
0000
1000
0001
0000
1000
0001
0100
,
0001
0010
1100
1000
0010
0110
1001
0000
,
0001
0000
0100
0010
1000
0000
0100
0000
1100
0000
1000
0020
0000
0000
1030
0000
,
0001
0100
0001
0000
0010
0000
0100
1000
0100
0000
1000
0000
1010
0000
0010
0000
,
0100
0000
0100
0000
0101
0000
0001
0000
0010
0000
0100
1000
0000
0000
0010
0100
,
0010
0110
0100
0110
1000
0001
1001
1000
,
1100
0000
0100
0000
0110
0000
0010
0000
0011
0000
0001
0100
0001
0000
0010
0000
,
0100
1000
0100
0000
1000
0010
1000
0000
1001
0000
0001
0000
0101
0000
0100
0000
,
0110
0000
0010
1000
0100
0000
1000
0000
0001
0000
0010
0001
0100
0000
0010
0000
,
1010
1000
0001
0010
0011
0101
2200
3300
,
2000
0010
3001
1000
0002
0010
1003
0001
,
0200
0010
0301
1000
0020
0100
1030
0100
,
1000
1000
0100
0100
0010
0010
0001
0001
0100
0100
0010
0010
,
1000
0100
0010
0001
0100
0010
0100
0001
1000
1001
0000
0000
,
1100
0000
0000
0011
0000
0000
0101
0000
0000
1010
0000
1000
,
0001
0000
1001
0000
1100
0000
0101
0001
,
1000
0000
0000
1001
0000
0000
0110
0000
0000
0101
0000
1000
,
0100
0000
0000
0000
0000
0000
1100
0000
0000
0000
0000
0000
1000
0000
0001
0000
1000
0000
1100
0000
0000
0100
0000
0000
,
0110
0000
0000
0011
0000
0000
1001
0000
0000
1010
0000
1000
,
0100
0000
1100
0000
0101
0000
0110
0010
,
0100
0000
0000
0101
0000
0000
1010
0000
0000
1100
0000
1000
,
0001
0000
0100
0000
0110
0000
0010
0000
1000
0100
1000
0001
0020
0000
0000
0000
,
0130
0000
0000
1100
0000
0000
1000
0000
0000
1001
0000
0000
0001
0000
0000
0101
0000
0000
0100
0000
0010
0000
0100
0000
,
0010
0000
0110
0000
0100
0000
0001
0010
0001
0000
1000
0000
1100
0000
0100
0000
,
0010
0000
0000
0011
0000
0000
0001
0000
0000
0101
0000
0000
0100
0000
0000
0010
0000
0000
1000
0000
0100
0000
1000
0000
,
0001
0000
0000
0010
0000
0000
0011
0000
0000
0001
0000
0000
0100
0000
0010
0000
1000
0000
1100
0000
0000
0100
0000
0000
,
0110
0000
0000
0000
0000
0000
0010
0000
0000
0000
0000
0000
0001
0000
0000
0100
0000
0000
1000
0000
0000
0000
0000
0000
0100
0000
0000
0000
0000
0000
0110
0000
0000
0000
0000
0000
0010
0000
0000
0000
1000
0000
0000
0000
0010
0000
0000
0000
,
1000
0000
0100
0010
0001
0000
0011
0000
0001
0100
0001
0000
1001
0000
1000
0000
,
0100
0000
0000
0000
0000
0000
0110
0000
0000
0000
0000
0000
0010
0000
0000
0000
0000
0000
0110
0000
0000
0000
0000
0000
0100
0000
0000
1000
0000
0000
0100
0000
0000
0000
0000
0000
0010
0000
0000
0000
0001
0000
0000
0000
0010
0000
0000
0000
,
0002
0000
0100
0000
0100
0000
0010
0000
1003
0000
0100
1000
0200
0000
0000
0000
,
0320
0001
0130
1000
0020
1000
0130
0001
,
2000
0100
3010
0100
0002
0010
0103
0010
,
1010
1000
1001
0001
0101
0100
0110
0110
,
1001
0000
0000
1001
0000
0000
0010
0000
1000
0000
0100
0000
0110
0000
0000
0000
0000
0000
0010
0000
0001
0000
0001
0000
,
0100
0000
0001
0100
0010
0010
1000
0100
1000
0010
1000
1000
,
0100
0000
0000
0000
1000
0000
0001
0000
0100
0000
0010
0000
1010
0000
0000
1000
0000
0000
0001
0000
0010
0000
0010
0000
,
0100
0000
1000
0001
0100
0100
0010
1000
1000
0100
1000
0010
,
0100
0000
0001
0000
0010
0000
0100
0000
0010
0000
0100
0000
0110
0000
0000
0010
0000
0000
1001
0000
0001
0000
0100
0000
,
1000
0000
0100
0010
1000
1000
0100
0010
0010
0001
1000
0100
,
0001
0000
0000
0000
0100
0000
0010
0000
0001
0000
1000
0000
1001
0000
0000
0001
0000
0000
0100
0000
0001
0000
0001
0000
,
0010
0000
0000
0000
0100
0000
1000
0000
0010
0000
1000
0000
0001
0000
0100
0000
0010
0000
0110
0000
0000
0100
0000
0000
,
0101
0000
0000
0000
0000
0000
0001
0000
0000
0000
0000
0000
1001
0000
0000
0000
0000
0000
1000
0000
0000
0100
0000
0000
0020
0000
0000
0000
0000
0000
0000
0000
0000
0000
0000
0000
0130
0000
0000
0000
1000
0000
0000
0000
0001
0000
0000
0000
,
1001
0000
1000
0100
1000
1000
1010
0010
0010
0100
0001
0010
,
0110
0000
0000
0000
0100
0000
1000
0000
0010
0000
0010
0000
1000
0000
0000
1001
0000
0000
0001
0000
0100
0000
0001
0000
,
0011
0000
0010
0100
1000
0010
1010
1000
0100
1000
0010
0100
,
0001
0000
0010
0000
0100
0000
1000
0000
0001
0000
1000
0000
1001
0000
0000
0110
0000
0000
0010
0000
1000
0000
0100
0000
,
1100
0000
1000
0010
1000
0001
0010
0100
0100
0010
0001
0100
,
0101
0000
0000
0000
0001
0000
0010
0000
0001
0000
1000
0000
1010
0000
0000
0011
0000
0000
0001
0000
0100
0000
1000
0000
,
0010
0000
0000
0000
1000
0000
0100
0000
0001
0000
0010
0000
0100
0000
0010
0000
0100
0000
0101
0000
0000
0001
0000
0000
,
1001
0000
0000
0000
0000
0000
1000
0000
0000
0000
0000
0000
1100
0000
0000
0000
0000
0000
0100
0000
0000
0010
0000
0000
0200
0000
0000
0000
0000
0000
0000
0000
0000
0000
0000
0000
1300
0000
0010
0000
1000
0000
0010
0000
0000
0000
0100
0000
,
0001
0010
0001
0010
0000
0100
0010
0100
0010
0100
0000
0001
0010
0100
0010
0100
0000
1000
0010
1000
0010
0100
0000
0001
,
0010
0000
0001
0000
0010
0000
0100
0000
0000
0000
1000
0000
0010
0000
0000
0000
0000
1000
0001
0000
0000
0000
0000
0100
0001
0000
0000
0000
0000
0000
0100
0000
0000
0000
0001
0000
0010
0000
0001
0000
1000
0000
0100
0000
0000
0000
1000
0000
,
0010
1000
0001
0100
0000
0001
0010
0001
0100
0010
0000
1000
0010
1000
0100
0010
0000
0100
1000
0010
1000
0001
0010
0001
,
1000
0000
0100
0000
1000
0000
0001
0000
0100
0000
0001
0000
1000
0000
0000
0000
0000
1000
0001
0000
0000
0000
0000
0000
0220
0000
0000
0000
0000
0000
0000
0000
0000
0000
0000
0000
0000
0000
0000
0000
0000
0000
0000
0000
0000
0000
0000
0000
,
0000
0000
0000
0330
;
