#TITLE:Spooky Scary Skeletons EASY Remix;
#SUBTITLE:;
#ARTIST:Undead Tombstone;
#TITLETRANSLIT:;
#SUBTITLETRANSLIT:;
#ARTISTTRANSLIT:;
#GENRE:;
#CREDIT:;
#MUSIC:Spooky Scary Skeletons EASY Remix.ogg;
#BANNER:;
#BACKGROUND:;
#CDTITLE:;
#SAMPLESTART:82.66;
#SAMPLELENGTH:12;
#SELECTABLE:YES;
#OFFSET:-0.174;
#BPMS:0.000=128.000;
#STOPS:;
#BGCHANGES:;
#FGCHANGES:;

//--------------- dance-single - 8Chasey ----------------
#NOTES:
     dance-single:
     8Chasey:
     Hard:
     9:
     0,0,0,0,0:
0000
0000
0000
0000
,
0000
0000
0000
0000
,
0000
0000
0000
0000
,
0000
0000
0000
0000
,
0001
1000
1001
0000
0200
0001
0320
0000
,
1030
0100
1100
0000
0101
0100
0001
0100
,
0010
1000
1010
0000
0100
0100
0002
0000
,
0013
0001
1000
0010
0100
0010
1001
0000
,
0100
0010
1000
0100
2000
0010
0010
0000
,
3001
0010
0001
0100
0002
1000
1000
1003
,
0010
1000
1100
0000
1000
0001
0100
0001
,
0010
0100
1000
0001
0100
0010
0200
0000
,
0302
0010
0010
0000
1000
0000
0103
0010
,
2000
0100
0100
0000
3020
0000
0130
0000
,
0200
0001
0301
1000
0020
0000
0130
0010
,
1000
0100
0010
0001
0100
0010
0110
0000
,
1000
0000
1001
1000
0002
0100
2003
0000
,
3100
0010
0200
0000
2300
0001
3002
0000
,
0103
0001
0010
0001
1000
0010
0100
0000
,
0201
0000
0320
0000
1030
0100
0110
0000
,
0020
0001
0230
1000
,
2300
0010
3002
0100
,
1003
0000
0000
0000
0000
0100
0000
0000
0000
0000
0010
0000
0000
0000
0000
0001
0000
0000
0000
0000
0100
0000
0000
0000
0000
0010
0000
0000
0000
0000
1000
0000
,
0000
0001
1000
0001
1000
0001
1000
0001
1000
0001
0000
0000
,
0100
0000
0000
0000
0000
0000
0101
0000
0000
0000
0000
0000
0002
0000
0000
0000
0000
0000
1000
0000
0000
0003
1000
0000
,
0010
0000
1010
0000
0100
0000
0120
0100
,
1030
0000
0000
0000
0000
0000
1001
0000
0000
0000
0000
0000
0200
0000
0000
1000
0000
0000
1300
0000
0000
0000
0010
0000
,
0100
0000
0110
0000
0010
1000
0002
1000
,
1003
0000
0000
0000
0000
0000
1010
0000
0000
0000
0000
0000
0200
0000
0000
0000
0000
0000
0001
0000
0000
0300
0001
0000
,
0010
0000
0011
0000
1000
0010
2000
0100
,
3100
0000
0110
0000
0010
0001
2000
0000
,
0100
0100
0001
0000
3010
0000
0110
0000
,
0100
0000
0000
0001
0000
0000
0100
0000
0000
0000
0000
0000
0010
0000
0000
1000
0000
0000
0100
0000
0000
0000
1000
0000
,
0200
0000
1000
0000
0310
0001
0010
0001
,
1000
0000
0000
0000
0000
0000
1010
0000
0000
0010
0000
0000
1000
0000
0000
0001
0000
0000
0010
0000
0000
0000
0010
0000
,
0002
0000
2003
0000
3100
1000
1001
0000
,
0200
0000
0000
0001
0000
0000
0320
0000
0000
1030
0000
0100
,
2000
0000
0010
0000
3001
0100
0001
0001
,
0020
0000
0000
0000
0000
0000
0001
0000
0000
0000
0000
0000
0130
0000
0000
1000
0000
0000
0010
0000
0000
0000
1000
0000
,
0020
0100
0130
0000
0110
0000
1001
0000
,
2000
0100
3002
0010
,
0203
0010
0320
0130
,
0001
0100
1000
0100
0001
0100
1000
0100
,
0010
0000
0000
0010
0000
0000
0100
0000
0000
0100
0000
0000
0010
0000
0100
0000
0010
0000
0100
0000
0000
0000
0000
0000
,
0100
0000
0000
0101
0000
0000
0001
1000
0001
1000
0000
0000
,
0010
0000
0000
0000
0000
0000
1010
0000
0000
0000
0000
0000
1000
0000
0100
0000
1000
0000
0100
0000
0000
1000
0000
0000
,
0010
0000
0000
1001
0000
0000
0100
0001
0100
0001
0000
0000
,
1000
0010
1000
0010
1000
0010
2000
0000
0000
3001
0000
0000
,
0010
0000
0000
0101
0000
0000
1000
0010
1000
0010
0000
0000
,
1000
0000
0000
0000
0000
0000
1100
0000
0000
0000
0000
0000
0010
0000
0100
0000
0010
0000
0001
0000
0000
0010
0000
0000
,
0001
0000
0000
1001
0000
0000
0100
1000
0100
1000
0000
0000
,
0020
0000
2030
0000
3002
0100
1003
0000
,
0100
0000
0000
1001
0000
0000
0100
0001
0100
0001
0000
0000
,
0010
0000
0000
0000
0000
0000
0011
0000
0000
0000
0000
0000
0001
0000
1000
0000
0001
0000
1000
0000
0000
1000
0000
0000
,
0100
0000
0000
1001
0000
0000
0100
1000
0100
1000
0000
0000
,
0001
0100
0001
0100
0001
0100
0002
0000
0000
1003
0000
0000
,
0010
0000
0000
0110
0000
0000
1000
0100
1000
0100
0000
0000
,
0010
0000
0000
0000
0000
0000
1001
0000
0000
0000
0000
0000
0001
0000
0100
0000
0001
0000
0100
0000
0000
0100
0000
0000
,
0100
0000
0000
0110
0000
0000
0010
1000
0010
1000
0000
0000
,
0002
0000
2003
0000
3200
0010
0310
0000
,
0001
0000
0010
0000
0001
0010
0100
0000
,
1000
0000
0010
0000
1000
1000
0001
0000
,
0100
0010
1000
0000
0100
0010
0001
0000
,
0101
0000
1100
0000
1000
0001
2002
0000
,
0000
0000
0000
3003
;

//--------------- dance-single - 8Chasey ----------------
#NOTES:
     dance-single:
     8Chasey:
     Challenge:
     9:
     0,0,0,0,0:
0000
0000
0000
0000
,
0000
0000
0000
0000
,
0000
0000
0000
0000
,
0000
0000
0000
0000
,
0001
0000
0010
0000
0001
0000
0100
0000
0010
0000
1000
0100
1000
0000
0100
0000
,
0010
0001
0100
1000
0010
0010
1001
0000
,
1000
0000
0010
0000
0100
0000
0010
0000
0100
0000
0001
0010
0001
0000
0100
0000
,
0010
1000
0100
0010
1000
0010
0110
0000
,
1000
0000
0001
0000
0010
0000
0001
0000
0100
0000
0010
1000
0100
0000
1000
0000
,
0010
0100
0001
0010
0100
0010
1001
0000
,
0001
0000
0010
0000
0001
0100
0001
0000
1000
0000
0010
0000
0100
0000
0000
0000
,
0110
1000
0100
0010
0001
1000
1001
0000
,
0100
0000
1000
0000
0010
0000
0100
0000
0001
0000
0001
0010
0000
0010
0001
0000
,
0100
0000
0010
0000
0100
0000
0001
0010
0000
0000
0100
0000
1000
0000
0010
0000
,
0100
0001
0011
0000
1000
0010
0110
0000
,
1000
0100
0001
0100
1000
0010
1001
0000
,
0100
0000
0100
0000
1000
0000
0010
0000
0100
0000
0001
0010
0001
0000
0100
0000
,
0010
1000
0100
1000
0001
0100
0110
0000
,
0001
0000
0100
0000
1100
0000
0000
0000
0010
0000
1000
0100
0000
1000
0100
0000
,
0010
0001
0100
0010
1100
0101
0110
0000
,
2000
0100
0010
3100
,
0002
0100
0010
0103
,
0001
1000
0001
0000
1000
0001
1000
0000
0010
0100
0010
0000
,
1000
0010
0100
0001
0010
0100
0010
0100
1000
1001
0000
0000
,
0001
0000
0000
0011
0000
0000
1000
0000
0000
1010
0000
0100
,
0010
0000
1100
0000
0001
0000
0010
0101
,
1000
0000
0000
0110
0000
0000
0001
0000
0000
1000
0000
0010
,
1000
0000
0000
0000
0000
0000
1100
0000
0000
0000
0000
0000
0001
0000
1000
0000
0001
0000
0010
0000
0000
0100
0000
0000
,
1000
0000
0000
1100
0000
0000
0001
0000
0000
0101
0000
0010
,
0100
0000
0101
0000
1000
0000
0010
1010
,
1000
0000
0000
0101
0000
0000
0010
0000
0000
1001
0000
1000
,
0010
1000
0001
0010
0220
0000
0330
0000
,
1000
0000
0000
0100
0000
0000
0011
0000
0000
0000
0000
0000
0100
0000
0000
0000
0000
0000
1000
0000
0010
0000
0100
0000
,
0001
1000
1001
0000
0010
1000
0001
1001
,
1000
0000
0000
0000
0000
0000
0110
0000
0000
0000
0000
0000
0001
0000
0000
1000
0000
0000
0001
0000
0010
0000
0100
0000
,
1000
0000
0000
0010
0000
0000
0101
0000
0000
0000
0000
0000
1000
0000
0001
0000
0100
0000
1001
0000
0000
0000
0000
0000
,
0100
0000
0000
0010
0000
0000
1100
0000
0000
0000
0000
0000
0001
0000
0000
0000
0000
0000
0001
0000
1000
0000
0010
0000
,
0100
0100
0001
0000
1000
0010
0110
0100
,
0001
0000
0000
0000
0000
0000
1100
0000
0000
0000
0000
0000
0001
0000
0000
0010
0000
0000
0011
0000
0000
0000
1000
0000
,
0020
0100
0200
0330
,
0020
1030
0020
0031
,
0001
0100
1000
0000
1000
0100
0001
0000
,
0010
0100
0010
0100
0010
0100
0010
0100
,
0110
0000
0000
0110
0000
0000
1001
0000
0000
1001
0000
0000
1000
0000
0010
0000
0001
0000
0100
0000
0000
0000
0000
0000
,
1000
0100
1000
0100
0000
0100
0010
0001
1000
0100
0000
1000
,
0001
0000
0100
0000
0001
0000
0100
0000
0000
0000
0010
0000
1000
0000
0001
0000
0010
0000
0100
0000
0000
0110
0000
0000
,
1000
0010
0100
0010
0000
0100
0001
0010
0001
1000
0000
0100
,
1000
0010
0100
0001
0010
0100
1000
0001
0100
1001
0000
0000
,
0010
1000
0001
0100
0000
0001
0010
0001
1000
0100
0000
1000
,
0001
0000
0100
0000
0010
0000
1000
0000
0000
0000
1000
0000
0100
0000
0010
0000
0001
0000
1000
0000
0000
0001
0000
0000
,
1000
0010
0100
0010
0000
0100
0001
0010
0100
1000
0000
0100
,
0010
0110
1001
0000
0001
1000
0010
0000
,
1100
0000
0100
0010
0000
0001
0100
0010
1000
0001
0000
0000
,
0110
0000
0000
0000
1000
0000
0001
0000
0000
0000
0001
0000
1000
0000
0010
0000
0100
0000
1000
0000
0000
0101
0000
0000
,
1001
0000
1000
0010
0000
0100
1000
0010
0100
0001
0000
1000
,
0010
0100
0001
0010
0100
1000
0010
0100
0001
0110
0000
0000
,
1001
0000
1000
0010
0000
0100
0001
0010
1000
0010
0000
0001
,
1000
0000
0010
0000
0100
0000
0010
0000
0000
0000
0001
0000
1000
0000
0100
0000
0010
0000
0001
0000
0000
1001
0000
0000
,
0100
0000
0100
0010
0000
1000
0100
1000
0001
0100
0010
0010
,
0010
0110
1000
0100
0002
0000
1003
0000
,
0001
0001
0010
0000
0001
1000
0010
0000
,
0100
0010
1000
0100
0010
0011
1010
0000
,
0100
0001
1000
0010
1000
0100
0010
0001
,
1000
0010
0100
1000
0100
0001
2002
0000
,
0000
0000
0000
0000
0000
0000
0000
3003
;
