#TITLE:Spoken For;
#SUBTITLE:;
#ARTIST:FLAVOR FOLEY feat. Kasane Teto;
#TITLETRANSLIT:;
#SUBTITLETRANSLIT:;
#ARTISTTRANSLIT:;
#GENRE:;
#CREDIT:8Chasey 2025;
#MUSIC:Spoken For ft. Kasane Teto.ogg;
#BANNER:bn.png;
#BACKGROUND:bg.png;
#CDTITLE:;
#SAMPLESTART:45;
#SAMPLELENGTH:12;
#SELECTABLE:YES;
#OFFSET:-0.005;
#BPMS:0.000=138.000;
#STOPS:;
#BGCHANGES:4.000=Spoken For ft. Kasane Teto.avi=1.000=0=0=0=StretchNoLoop=CrossFade_Fastest===,
552.000=bg.png=1.000=0=0=0=====,
99999=-nosongbg-=1.000=0=0=0 // don't automatically add -songbackground-
;
#FGCHANGES:;

//--------------- dance-single - 8Chasey ----------------
#NOTES:
     dance-single:
     8Chasey:
     Hard:
     8:
     0,0,0,0,0:
0000
0000
0000
0000
,
0000
0000
0000
0000
,
0001
0000
0000
0100
0001
0001
0000
1000
,
0010
0000
0000
1000
0100
1000
0001
0100
,
0010
0010
0000
0100
0010
0000
1000
0100
,
1000
0000
0000
0000
0000
0000
0001
0000
0100
0000
0000
0010
0000
0000
0010
0000
,
0100
0000
0000
0001
0010
0001
0000
0100
,
0010
0000
0000
0010
0100
0000
0001
0100
,
0001
1000
0000
1000
0100
0010
0000
0100
,
0010
0100
0000
1000
0100
1000
0001
0000
,
1001
0000
1000
0010
1000
0001
0000
0101
,
0000
0000
0100
0010
0000
1000
0010
0100
,
0001
0000
1000
0010
1000
0001
0000
0011
,
0000
0000
0010
0001
0010
0000
0001
0000
0100
0000
0001
0000
1000
0000
0000
0000
,
1010
0000
1000
0100
1000
0001
0010
0001
,
0000
0000
0100
0100
0001
0100
0010
1000
,
0100
0000
1000
0100
1000
1000
0000
1001
,
0000
0001
0010
0001
0100
0010
1000
0100
,
2000
0100
0010
3001
,
0100
0001
0100
0000
0001
0000
1000
0002
,
0000
0010
0100
1003
,
0100
1000
0100
0010
0001
0010
0100
0000
,
0120
0001
1000
0001
,
0130
1000
0100
0000
1000
0001
0100
0020
,
0000
1000
0001
0130
,
0001
0100
0001
0000
1000
0010
1000
0000
,
1001
0000
0101
0000
1010
1000
0001
0000
,
0110
0000
1000
0100
1000
0001
0100
0001
,
0000
0010
0001
0000
1001
0000
1100
0000
,
1000
0000
0000
0010
1000
0000
0001
0000
0100
0000
0001
0000
0001
0000
0010
0000
,
0000
0001
0000
1000
0100
1000
0000
0010
,
0000
0000
0000
0000
0110
0000
0000
0000
1000
0000
0001
1000
0001
0000
0000
0000
,
1001
0000
1100
0000
0011
0001
0100
0000
,
0110
0000
0010
1000
0010
0100
0001
0100
,
0000
0001
1001
0000
1100
1000
0001
0000
,
0010
0000
0000
0001
0010
0000
0001
0000
0100
0000
0100
0000
0010
0000
0100
0000
,
0000
0001
0100
1000
0100
0010
0010
1000
,
0100
0000
0000
0100
0000
0000
2000
0000
0000
0000
3001
0000
0000
0000
0110
0000
,
0000
0100
0001
0100
0001
0010
0010
0001
,
0100
0000
0000
0100
0000
0000
0002
0000
0000
0000
1003
0000
0000
0000
1001
0000
,
0000
1000
0000
0010
1000
0001
0000
0101
,
0000
0000
0100
0000
0010
0000
1000
0000
0100
0000
1000
0100
1000
0000
0001
0000
,
0011
0101
1010
1100
,
1000
0010
1000
0000
0001
0000
0100
0000
0020
0000
0000
0000
0130
0000
0000
0000
,
0110
0000
0010
0000
0100
0001
0000
0001
,
0000
1000
0100
1000
0000
0010
1000
0010
,
0010
0000
0000
0100
0010
0000
0000
0000
0100
0000
0001
0000
0000
0000
1001
0000
,
0000
0000
1000
0000
0010
0000
0100
0000
0000
0000
0001
0100
0001
0000
0000
0000
,
2002
0000
3003
1000
0010
0000
0000
0000
0100
0000
0001
0000
0000
0000
0101
0000
,
0000
0100
0010
1000
0000
0100
0100
1000
,
0001
0000
0100
0001
0100
0000
0001
0000
1000
0000
0100
0000
1000
0000
0020
0000
,
0000
0000
0130
0001
0100
0000
0001
0000
0010
0000
0001
0000
1000
0000
0100
0000
,
1000
0001
0010
0000
0010
0001
0000
0101
,
0000
0100
0001
1000
0000
0010
1000
0010
,
0100
0000
0001
0100
0001
1000
0000
1001
,
0000
0000
1000
0000
0010
0000
1000
0000
0010
0000
0100
0010
0100
0000
0001
0000
,
0100
0000
1010
0000
1000
0001
0000
1001
,
0000
0001
0100
1000
0000
0100
0001
0100
,
0010
0000
1000
0010
1000
0100
0010
0001
,
0000
0100
0001
0100
0000
0010
1000
0000
,
0200
0000
0000
0000
,
0300
0000
0000
1000
0000
0100
1000
0001
,
0200
0001
0000
0000
0000
0010
0000
0002
,
0000
0000
0303
0100
0000
0001
0010
0001
,
0020
0001
0000
0001
,
0030
0000
0001
0100
0001
1000
0000
0100
,
1000
0010
1000
0000
0020
0000
1000
2000
,
0000
0000
0000
3030
0000
1000
0001
0000
,
2002
0000
0000
3003
,
1001
0000
1010
0000
0011
0010
0001
0000
,
0101
0000
0100
0010
1000
0010
1000
0100
,
0000
1000
0001
0000
0011
0000
1010
0000
,
1000
0000
0000
0100
0000
0000
0100
0000
0000
0000
1000
0000
0001
0000
1001
0000
,
0000
1000
0000
0010
1000
0001
0000
0101
,
0000
0000
0100
0000
0010
0000
0100
0000
0000
0000
0001
0010
0001
0000
1000
0000
,
1001
0000
1100
0000
0101
0001
0100
0000
,
0110
0000
0000
0010
0000
0000
0010
0000
0100
0000
0001
0000
1000
0000
1001
0000
,
0000
1000
0010
0010
1000
0001
0100
0100
,
0101
0000
0000
1100
0000
0000
1001
0000
1000
0000
0100
0000
0001
0000
0100
0000
,
0000
0010
0001
0100
0100
0001
1000
0000
,
0100
0000
0000
0100
0000
0000
1000
0000
0010
0000
1000
0000
0000
0000
1001
0000
,
0000
0001
1000
0010
0010
1000
0001
0000
,
0100
0000
0000
0100
0000
0000
0001
0000
1000
0000
0100
0000
0000
0000
0110
0000
,
0000
0010
0001
0010
0100
1000
0100
0000
,
1000
0000
0000
0001
0000
0000
1001
0000
0000
0000
0100
0000
0000
0000
0110
0000
,
0000
0010
0100
0010
1000
0100
0100
0000
,
0110
0000
0000
0011
0000
0000
1010
0000
0000
0000
1000
0000
0001
0000
1001
0000
,
0000
0001
0100
1000
0100
0000
0101
0000
,
0001
0000
0010
0000
0010
0000
0001
0000
1000
0000
0100
1000
0100
0000
0000
0000
,
1100
1010
0101
0011
,
1002
0000
1000
0000
1000
0000
1003
0200
,
0000
0000
0000
0000
1000
0000
0000
0000
1300
0000
0000
0001
0000
0000
2000
0000
,
0000
0000
0001
0000
0002
0000
3003
0020
,
0000
0000
0001
0000
0031
0000
0100
0001
,
0100
0000
0000
0100
0000
0000
0100
0000
0000
0000
0010
0000
0000
0000
0200
0000
,
0000
0000
0010
0000
0310
0100
0000
0020
,
0000
0000
0100
0000
0200
0000
0330
0001
,
0000
0010
0001
0000
1000
0100
1000
0000
,
0001
0000
0000
0001
0000
0000
0001
0000
0000
0000
0100
0000
0000
0000
0002
0000
,
0000
0000
0010
0000
0010
0000
0000
0000
1003
0000
0000
0001
0000
0000
2000
0000
,
0000
0100
0100
0000
0002
0000
3003
0020
,
0000
0001
0001
0000
0130
0000
1000
0100
,
1000
0000
0000
0001
0000
0000
1000
0000
0000
0000
0001
0000
0000
0000
2000
0000
,
0000
0000
0100
0000
0001
0000
0000
0000
3010
0000
0000
1000
0000
0000
0002
0000
,
0000
0010
0100
0000
2000
0000
3003
0010
,
0000
1000
0100
0000
1000
0001
0100
0000
,
0001
0000
0000
0001
0000
0000
0001
0000
0000
0000
1000
0000
0010
0000
2000
0000
,
0000
0000
0100
0000
3100
0000
1000
0000
0001
0000
0100
0001
0100
0000
0002
0000
,
0000
0010
0013
0001
0100
0010
1000
0020
,
0000
0100
0130
0001
0100
0001
1000
0100
,
1000
0000
0000
0001
0000
0000
0010
0000
0001
0000
0100
0000
0010
0000
0200
0000
,
0000
0000
0001
0000
0301
0000
0010
0000
0001
0000
0000
1000
0000
0000
0020
0000
,
0000
1000
1030
0001
0200
0000
0301
2000
,
0000
0100
3100
0000
1000
0010
1000
0000
,
0001
0000
0000
0100
0000
0000
0001
0000
1000
0000
0001
0000
0000
0000
1001
0000
,
1000
0100
1000
0001
0100
0000
0100
0100
,
0001
0100
0001
1000
0100
0000
0010
0001
,
0000
1000
0100
1000
0001
0100
0001
0000
,
0010
0000
0000
0010
0000
0000
0010
0000
0100
0000
0010
0000
0001
0000
1000
0000
,
0000
0000
0100
0000
1000
0000
0010
0000
1000
0000
0000
0001
0000
0000
1001
0000
,
0000
0100
0001
0010
0001
0000
1000
0020
,
0000
0100
0230
0001
0302
1000
1003
0001
,
1000
0000
0100
1000
0100
0000
1000
0000
0001
0000
0101
0000
0000
0000
0110
0000
,
0000
0010
1000
0010
1000
0100
0001
0100
,
0010
0000
0000
0001
0000
0000
0002
0000
0000
0000
0103
0000
0000
0000
1010
0000
,
0000
1000
0010
1000
0001
0010
0001
0100
,
0010
0000
1000
2000
0000
3100
0000
0011
,
0000
0010
0001
0100
0001
1000
0100
1000
,
0001
0000
0000
0100
0000
0000
0100
0000
0010
0000
0100
0000
0000
0000
1001
0000
,
0000
0001
1000
0100
0001
0100
0010
0001
,
0100
0000
0000
0100
0000
0000
0001
0000
1000
0000
0010
0000
0000
0000
0110
0000
,
0000
0100
0001
0100
0010
1000
0100
1000
,
0001
0000
0000
0010
0001
0000
1000
0000
0010
0000
1000
0000
0100
0000
0110
0000
,
0000
0100
1000
0001
0100
0001
0001
0100
,
0001
0000
0000
1000
0001
0000
1000
0000
0010
0000
0110
0000
0000
0000
1001
0000
,
0000
1000
0100
0001
1000
0010
0001
0100
,
0000
0001
0010
1000
0001
0100
1000
0000
,
1010
0101
1100
0011
,
2002
0000
0000
0000
,
3003
0000
0000
0000
;
