#TITLE:Sparkle;
#SUBTITLE:(from Nintendo DSi Camera);
#ARTIST:Nintendo;
#TITLETRANSLIT:;
#SUBTITLETRANSLIT:;
#ARTISTTRANSLIT:;
#GENRE:;
#CREDIT:;
#BANNER:;
#BACKGROUND:;
#LYRICSPATH:;
#CDTITLE:;
#MUSIC:Sparkle (from Nintendo DSi Camera).ogg;
#OFFSET:0.000000;
#SAMPLESTART:0.000000;
#SAMPLELENGTH:78.080002;
#SELECTABLE:YES;
#BPMS:0.000000=166.000000
;
#STOPS:
;
#BGCHANGES:;
#KEYSOUNDS:;
#ATTACKS:;

//---------------dance-single - ----------------
#NOTES:
     dance-single:
     :
     Hard:
     8:
     0.611024,0.585070,0.371371,0.525042,0.134462,334.000000,305.000000,29.000000,41.000000,0.000000,0.000000,0.611024,0.585070,0.371371,0.525042,0.134462,334.000000,305.000000,29.000000,41.000000,0.000000,0.000000:
0000
0000
0000
0000
,
0000
0000
0000
0000
,
0010
1000
0100
0010
0000
0202
0000
0300
,
1003
0000
0000
0010
1000
0000
0000
0100
0010
0000
0001
0000
1000
0000
0000
0000
,
0100
1000
0010
0100
0000
2002
0000
3000
,
1003
0010
0100
1000
0100
0001
0010
0000
,
0001
0100
1000
0100
0000
2020
0000
0030
,
3100
0000
0010
0000
0001
0000
0000
0100
0001
0000
0010
0000
0100
0000
0110
0000
,
2000
0000
0000
0000
3010
0000
0000
0100
0010
0000
1000
0000
0100
0000
0001
0000
,
0000
0000
0110
0000
0010
0000
0000
0000
0001
0000
0010
0000
0100
0000
0000
1000
,
0100
0010
1000
0010
0000
0002
0100
0000
,
0013
0000
0100
0000
0010
0000
0001
0000
1000
0000
0000
0010
1000
0000
0010
0000
,
0110
0000
0000
0000
0010
0000
0000
1000
0100
0000
1000
0000
0001
0000
0100
0000
,
0000
0011
0001
0010
0001
1000
0020
0000
,
1030
0000
0002
0020
0003
0000
0130
0000
,
1000
0100
0000
1000
0100
0000
0010
0000
0001
0000
1000
0000
0101
0000
0000
0000
,
0020
0000
0000
0000
1030
0000
0000
0100
1000
0000
0100
0000
0010
0000
0100
0000
,
0000
1100
1000
0000
0010
0100
1000
0100
,
0001
0010
0001
0200
0000
0320
1000
0000
,
1030
0000
0000
0100
1000
0000
0000
0010
0100
0000
0001
0000
0010
0000
0000
0000
,
0201
0000
0000
0000
0310
0000
0000
0010
1000
0000
0100
0000
0010
0000
0100
0000
,
0000
1100
0000
0101
0000
0010
0100
0000
,
0001
0010
0000
0000
0001
0000
2000
0000
0000
0000
0100
0000
0100
0000
0000
0000
,
3010
0100
1000
0100
0001
1000
1001
0000
,
0010
1000
0100
0001
0000
0200
0000
0320
,
0000
0031
1000
0000
0010
1000
0110
0000
,
0001
1000
0100
0020
0000
2030
0000
3010
,
0001
0100
0010
1000
0100
0010
0001
0000
,
1100
0000
0000
0000
1000
0000
0010
0000
0000
0000
0100
0000
0001
0000
0010
0001
,
1000
0000
0000
0000
0000
0000
1001
0000
0000
0000
0110
0000
0000
1000
0000
0000
,
0001
0010
0001
1000
0000
1200
0000
0000
,
0310
0001
0000
1000
0100
0020
0000
0000
,
0031
0100
0010
0110
0000
2100
0000
0000
,
3001
0000
0010
0001
0100
0000
0010
0000
,
1000
0001
0100
1000
0000
0120
0000
0000
,
1030
0001
1000
0000
0100
0020
0000
0000
,
0031
0000
0011
0000
1000
0010
1000
0100
,
0010
0000
0000
0100
1000
0000
0001
0000
0100
0000
0010
0000
1000
0000
0000
0000
,
0200
0000
0310
0100
1000
0001
0100
0001
,
0000
0011
0000
1010
1000
0100
0020
0000
,
1000
0000
0001
0000
1030
0100
0001
0100
,
0000
1000
0010
0000
0100
0001
1000
0000
,
0010
0000
1000
0001
0000
0010
0100
0000
,
0001
1000
0100
0020
0000
0200
0000
0330
,
1001
0000
0000
0000
1000
0010
1000
0001
,
0000
0011
0000
0100
0001
1000
0100
0000
,
0020
0000
0031
0002
0000
1003
2000
0000
,
3100
0000
0110
0000
0010
0001
1000
0000
,
0010
0000
0000
1000
0100
0000
0010
0000
0000
0000
0001
0100
0001
0000
1000
0000
,
0010
0000
0000
0000
1001
0000
0000
0100
1000
0000
0010
0000
0100
0000
0000
0000
,
0200
0000
1300
2000
0000
3001
0002
0000
,
0013
0001
1000
0020
0000
0000
0000
0000
,
1030
0000
0000
0000
1100
0000
0000
0001
0100
0000
0002
0000
0023
0000
0230
0000
,
1300
0001
1000
0002
2000
0000
3003
0000
;

//---------------dance-single - ----------------
#NOTES:
     dance-single:
     :
     Challenge:
     9:
     0.693348,0.688317,0.601877,0.729936,0.288133,379.000000,332.000000,47.000000,57.000000,0.000000,0.000000,0.693348,0.688317,0.601877,0.729936,0.288133,379.000000,332.000000,47.000000,57.000000,0.000000,0.000000:
// measure 0
0000
0000
0000
0000
,  // measure 1
0000
0000
0000
0000
,  // measure 2
0001
0010
0001
1100
0000
0102
0000
0013
,  // measure 3
0001
0000
1000
0000
0010
0000
0000
1000
0001
0000
0100
0000
0001
1000
0001
1000
,  // measure 4
0001
0010
0100
1100
0000
0220
0000
0300
,  // measure 5
0130
0000
0000
0001
0010
0000
1000
0000
0010
0000
0100
0000
1001
0000
0000
0000
,  // measure 6
0100
0010
0001
2000
0000
0020
3000
1000
,  // measure 7
1030
0000
0100
0000
1000
0000
0001
0010
0001
0000
0100
0000
0010
1000
0010
1000
,  // measure 8
0010
0000
0110
0000
0001
0010
1000
0010
,  // measure 9
0000
0000
0011
0000
0000
0000
1000
0010
0100
0000
0001
0000
1001
0000
0000
1000
,  // measure 10
0010
0000
0100
0000
0001
0000
0020
0000
0000
0000
1000
0000
0000
0000
0031
1000
,  // measure 11
0001
0000
0100
0000
0010
0000
0000
0010
1000
0000
0100
0000
1100
0000
0101
0000
,  // measure 12
0001
0000
0000
0000
0011
0000
0000
1000
0010
0000
0100
0000
1000
0000
0100
0000
,  // measure 13
0000
0000
0001
0010
0001
0000
1000
0000
0010
0000
0100
0000
1001
0000
0000
0000
,  // measure 14
0010
1000
0001
0220
0000
0000
0330
0000
,  // measure 15
2000
0100
0000
0000
3100
0000
0010
0000
0001
0000
0010
0000
0100
0000
1000
0000
,  // measure 16
0102
0000
0010
0000
0103
0010
1000
1100
,  // measure 17
0000
0000
0101
0000
0000
0000
0010
1000
0001
0000
0100
0000
0020
0000
0000
1030
,  // measure 18
0010
0000
1000
0000
0100
0000
0001
0000
0000
0000
0100
1000
0020
0000
0000
0000
,  // measure 19
0130
0000
0000
0000
1001
0000
0000
0001
0100
0000
0010
0000
1000
0000
0100
0000
,  // measure 20
1001
0000
0010
0000
0010
0000
0000
1000
0100
0000
0010
0001
0100
0000
0002
0000
,  // measure 21
0000
0000
0023
0000
0000
0000
0130
0010
0001
0000
2000
0000
0010
0000
0000
0000
,  // measure 22
3010
0000
0000
0100
0000
0000
2002
0000
0000
0000
0000
0000
3003
0000
0000
0000
,  // measure 23
0100
2000
0000
0000
0010
0000
3010
0000
0100
0001
0020
0000
1000
0000
0031
0000
,  // measure 24
1000
0010
0100
1100
0000
0102
0000
0023
,  // measure 25
0000
0000
2030
0000
0000
0000
3010
0001
1000
0000
0100
0000
0010
0000
0000
0000
,  // measure 26
1001
1000
0010
0110
0000
0012
0000
0103
,  // measure 27
0010
1000
0100
0000
1000
0000
0001
0000
0200
0000
0020
0000
0000
0000
0330
0000
,  // measure 28
0110
0000
0000
0000
1001
0000
0000
0000
0001
0000
0011
0000
0000
0000
0001
0010
,  // measure 29
0100
0000
0000
0000
0010
0000
0002
0000
0000
0000
1000
0000
0000
1000
0000
0000
,  // measure 30
1003
0010
1000
1100
0000
0101
0000
0010
,  // measure 31
1000
0100
0000
1000
0100
0000
1000
0000
0010
0000
0100
0000
0001
0000
0000
0000
,  // measure 32
1000
0100
0000
0000
1100
0000
0000
0000
0001
0100
0000
0000
0101
0000
0000
0000
,  // measure 33
0010
1000
0000
0000
0101
0000
0000
0000
0010
0001
0000
0000
1100
0000
0000
0000
,  // measure 34
0001
0100
0000
0000
1010
0000
0000
0000
1000
0100
0000
0000
0011
0000
0000
0000
,  // measure 35
0010
0100
0000
0000
0110
0000
0000
0000
1000
0001
0000
0000
1001
0000
0000
0000
,  // measure 36
0020
0000
1000
0000
1030
0100
0010
1000
,  // measure 37
0000
0010
0011
0000
0001
1000
0010
1000
,  // measure 38
0102
0000
0000
0000
0010
0000
0010
0000
0000
0000
0100
0000
0103
0000
0000
0010
,  // measure 39
1000
0100
0010
0001
2002
0000
0003
0000
,  // measure 40
3010
0100
0000
1010
0000
1100
0010
0002
,  // measure 41
0000
0000
0103
0000
0001
0000
0000
0100
0010
0000
1000
0000
0100
0000
0010
0000
,  // measure 42
0120
0000
0001
0001
0000
1000
1000
0000
,  // measure 43
0031
1000
0002
0100
0000
0200
0000
0303
,  // measure 44
0102
0000
0013
0000
0100
1000
0010
1000
,  // measure 45
0000
0000
0101
0000
0000
0000
0001
0010
0001
0000
1000
0000
0100
0000
1000
0000
,  // measure 46
0020
0000
1000
2030
0000
0100
3200
0000
,  // measure 47
0310
0001
1000
0100
1000
0010
0200
0000
,  // measure 48
0301
1000
0100
0020
0000
0031
0000
2200
,  // measure 49
0000
0300
0001
3000
0001
1000
0001
0000
,  // measure 50
0100
0000
0000
0010
1000
0000
0100
0000
0000
1000
0001
0000
1001
0000
0000
0000
,  // measure 51
0010
1000
0002
2000
0000
0000
3003
0000
,  // measure 52
2000
3000
0000
0000
0000
0000
0000
0000
0000
0000
0000
0000
0000
0000
0000
0000
0000
0000
0000
0000
0000
0000
0000
0000
0000
0000
0000
0000
0000
0000
0000
0000
0000
0000
0000
0000
2000
3000
0000
0000
0000
0000
0000
0000
0000
0000
0000
0000
0020
0030
0000
0000
0000
0000
0000
0000
0000
0000
0000
0000
0000
0000
0000
0000
0000
0000
0000
0000
0000
0000
0000
0000
0000
0000
0000
0000
0000
0000
0000
0000
0000
0000
0000
0000
0000
0000
0000
0000
0000
0000
0000
0000
0000
0000
0000
0000
0200
0300
0000
0000
0000
0000
0000
0000
0000
0000
0000
0000
0002
0003
0000
0000
0000
0000
0000
0000
0000
0000
0000
0000
2000
0000
0000
0000
0000
0000
0000
0000
0000
0000
0000
0000
0000
0000
0000
0000
0000
0000
0000
0000
0000
0000
0000
0000
3020
0000
0000
0000
0000
0000
0000
0000
0000
0000
0000
0000
0000
0000
0000
0000
0000
0000
0000
0000
0000
0000
0000
0000
0230
0000
0000
0000
0000
0000
0000
0000
0000
0000
0000
0000
0000
0000
0000
0000
0000
0000
0000
0000
0000
0000
0000
0000
,  // measure 53
0302
0003
0000
0000
0000
0000
0000
0000
0000
0000
0000
0000
0000
0000
0000
0000
0000
0000
0000
0000
0000
0000
0000
0000
2000
3000
0000
0000
0000
0000
0000
0000
0000
0000
0000
0000
0000
0000
0000
0000
0000
0000
0000
0000
0000
0000
0000
0000
0002
0003
0000
0000
0000
0000
0000
0000
0000
0000
0000
0000
0000
0000
0000
0000
0000
0000
0000
0000
0000
0000
0000
0000
2000
0000
0000
0000
0000
0000
0000
0000
0000
0000
0000
0000
0000
0000
0000
0000
0000
0000
0000
0000
0000
0000
0000
0000
0002
0000
0000
0000
0000
0000
0000
0000
0000
0000
0000
0000
0000
0000
0000
0000
0000
0000
0000
0000
0000
0000
0000
0000
0000
0000
0000
0000
0000
0000
0000
0000
0000
0000
0000
0000
0000
0000
0000
0000
0000
0000
0000
0000
0000
0000
0000
0000
3003
0000
0000
0000
0000
0000
0000
0000
0000
0000
0000
0000
0000
0000
0000
0000
0000
0000
0000
0000
0000
0000
0000
0000
0000
0000
0000
0000
0000
0000
0000
0000
0000
0000
0000
0000
0000
0000
0000
0000
0000
0000
0000
0000
0000
0000
0000
0000
;
