#TITLE:Space Soccer 2 Theme;
#SUBTITLE:;
#ARTIST:Tsunku;
#TITLETRANSLIT:;
#SUBTITLETRANSLIT:;
#ARTISTTRANSLIT:;
#GENRE:;
#CREDIT:8Chasey 2024;
#BANNER:;
#BACKGROUND:Rhythm Heaven.png;
#LYRICSPATH:;
#CDTITLE:;
#MUSIC:Space Soccer 2 Theme.ogg;
#OFFSET:-0.270000;
#SAMPLESTART:55.650002;
#SAMPLELENGTH:12.000000;
#SELECTABLE:YES;
#BPMS:0.000000=130.000000
;
#STOPS:38.500000=0.462000,
69.000000=0.462000,
103.500000=0.462000,
106.500000=0.462000,
112.500000=0.462000,
120.500000=0.462000,
135.500000=0.462000,
141.000000=0.231000,
142.500000=0.231000,
208.000000=0.923000
;
#BGCHANGES:;
#KEYSOUNDS:;
#ATTACKS:;

//---------------dance-single - 8Chasey (Description - CHALLENGE-ONLY CONCEPT)----------------
#NOTES:
     dance-single:
     8Chasey (Description - CHALLENGE-ONLY CONCEPT):
     Challenge:
     9:
     0.566497,0.558617,0.408211,0.291579,0.189526,408.000000,366.000000,42.000000,30.000000,0.000000,0.000000,0.566497,0.558617,0.408211,0.291579,0.189526,408.000000,366.000000,42.000000,30.000000,0.000000,0.000000:
0000
0000
0000
0000
,
0000
0000
0000
0000
,
0001
0000
1000
0000
0100
0000
0010
0000
0100
1000
0100
0000
0010
0000
0002
0000
,
0000
0000
0103
0000
0001
0000
1000
0000
0001
0010
0001
0000
0100
0000
0020
0000
,
0000
0000
1030
0000
0100
0000
0010
0000
0001
1000
0100
0000
0010
0000
0200
0000
,
0000
1300
0000
0001
1000
0010
1001
0100
,
0000
0100
0002
0000
0013
0001
1000
0100
,
0000
0100
2000
0000
3010
0100
1001
0000
,
0001
0010
0001
0000
0010
0000
0100
0000
1000
0100
1000
0000
0010
0000
0200
0000
,
0001
0001
0310
1000
0002
2003
3010
0110
,
0000
0000
1000
0000
0100
1000
0001
0000
0010
0000
0020
0000
0000
0000
0031
0000
,
1000
0000
0010
0000
1000
0001
0100
0000
0010
0000
0200
0000
0000
0000
0301
0000
,
1000
0000
0100
0000
0010
0100
0010
0000
0001
0000
0020
0000
0000
0000
0130
0000
,
1000
0010
1001
0000
0100
0100
0000
0001
,
2000
0000
3100
0010
0001
1000
0000
1000
,
0002
0000
0000
0000
1003
0010
0100
0000
0001
0000
0000
0000
2000
0000
0100
0000
,
0000
0000
3010
0000
0100
0001
0010
0000
0001
0000
1000
0000
2000
0000
0000
0000
,
3200
0000
0301
0110
0000
1000
1000
0001
,
0000
0000
1000
0000
0001
0000
0100
0000
0000
0000
0010
1000
0010
0000
0100
0000
,
0001
0000
0010
0000
0000
0000
1001
0000
0000
0000
1000
0100
1000
0000
0001
0000
,
0010
0000
0001
0000
0001
0100
0001
0000
0000
0000
0010
0000
0010
0000
0000
0000
,
0210
0000
0000
0000
1300
0000
0100
0000
1000
0001
1000
0000
0010
0000
0100
0002
,
0100
0000
0000
0013
0000
0000
0010
0000
0001
1000
0001
0000
0010
0000
0100
2000
,
0100
0000
0000
3010
0000
0000
1000
0000
0100
0000
1001
0000
0000
0000
1000
0000
,
0010
0100
0001
0000
1000
0000
0020
0000
0000
0000
1000
0000
0000
0000
0031
0000
,
0010
1000
0100
0010
0011
0001
1000
1100
,
0000
1000
1010
1000
0001
0101
0000
0010
,
1100
1000
0100
0010
0011
0001
0010
0100
,
0010
0000
0110
0000
0001
1000
0000
0001
1000
0000
0010
0000
1000
0000
0100
0010
,
0000
0010
0001
0000
1000
0000
0010
0000
0100
0000
1001
0000
0100
0000
0001
1000
,
0010
0000
0010
0000
0100
0000
0000
0000
1000
0000
0100
0010
0100
0010
0100
0000
,
0010
0001
2001
0010
0010
3100
0010
0100
,
1000
0000
0001
0000
0101
0000
0000
0000
1000
0000
0001
0010
0000
0010
0100
0000
,
0010
0000
0001
0000
1000
0000
0010
0000
1001
0000
0100
0001
1000
0000
0010
0000
,
1001
0000
0000
0000
1000
0000
0010
0000
0100
0000
0001
1000
0000
0001
1000
0000
,
0100
0010
2100
0010
0000
3002
0010
0000
,
0103
0000
0110
0000
1000
0110
0001
1001
,
0000
0000
1000
0100
1000
0000
0001
0000
0010
0000
0001
0000
0100
0001
0100
0000
,
0000
0010
0010
1000
0101
0000
0001
1100
,
0000
0010
0020
1000
0000
0001
0000
1030
,
0100
0010
0001
0000
1000
0010
0100
0101
,
0000
1100
1000
0001
0001
0100
0010
0101
,
0000
0000
1001
0000
1000
0000
0000
0000
0010
0000
0100
0000
0001
0000
1000
0100
,
1000
0000
0001
0100
0002
0000
0000
0000
0013
0000
0100
0000
1000
0000
0010
0000
,
0110
0000
2000
0000
3100
0011
0010
1001
,
0000
0000
1000
0000
0010
0000
0000
0000
0001
0100
0001
0000
0010
0000
1010
0000
,
0000
0011
0001
0100
0001
1000
0100
0110
,
0000
0020
0002
0030
0100
0000
0013
0100
,
2000
0000
0100
0000
3001
0011
0100
1010
,
0000
1000
0100
0001
0100
0010
0001
1001
,
0000
1001
0100
0000
0010
1000
0001
0100
,
0000
0000
1001
0000
1000
0000
0000
0000
0001
0010
0001
0000
1000
0010
1000
0000
,
0200
0310
1001
0000
0000
0000
0000
0000
;

//---------------dance-double - 8Chasey (Description - CHALLENGE-ONLY CONCEPT)----------------
#NOTES:
     dance-double:
     :
     Challenge:
     9:
     0.572051,0.558617,0.408211,0.291579,0.189526,412.000000,370.000000,42.000000,30.000000,0.000000,0.000000,0.572051,0.558617,0.408211,0.291579,0.189526,412.000000,370.000000,42.000000,30.000000,0.000000,0.000000:
// measure 0
00000000
00000000
00000000
00000000
,  // measure 1
00000000
00000000
00000000
00000000
,  // measure 2
00001000
00000000
00010000
00000000
00100000
00000000
00001000
00000000
00000100
00001000
00000100
00000000
00000010
00000000
00002000
00000000
,  // measure 3
00000000
00000000
00013000
00000000
00001000
00000000
00100000
00000000
00001000
00010000
00001000
00000000
00000100
00000000
00000020
00000000
,  // measure 4
00000000
00000000
00001030
00000000
00000001
00000000
00000010
00000000
00000100
00001000
00000100
00000000
00010000
00000000
00002000
00000000
,  // measure 5
00000000
00103000
01000000
10000000
00100000
00010000
00011000
00010000
,  // measure 6
00000000
00001000
00020000
00000000
01030000
10000000
00100000
01000000
,  // measure 7
00000000
01000000
00020000
00000000
00130000
01000000
01100000
00000000
,  // measure 8
00100000
00010000
00100000
00000000
00001000
00000000
00010000
00000000
00000100
00001000
00000100
00000000
00000010
00000000
00000200
00000000
,  // measure 9
00001000
00001000
00010300
00001000
02000000
03200000
10300000
10010000
,  // measure 10
00000000
00000000
00010000
00000000
00100000
00001000
00010000
00000000
00100000
00000000
00200000
00000000
00000000
00000000
10300000
00000000
,  // measure 11
01000000
00000000
00010000
00000000
00001000
00010000
00000100
00000000
00000010
00000000
00000200
00000000
00000000
00000000
00001300
00000000
,  // measure 12
00000100
00000000
00000010
00000000
00000001
00001000
00000001
00000000
00000100
00000000
00002000
00000000
00000000
00000000
00013000
00000000
,  // measure 13
00100000
01000000
10010000
00000000
01000000
00010000
00000000
00100000
,  // measure 14
00002000
00000000
00003100
00000001
00000010
00000100
00000000
00001000
,  // measure 15
00000200
00000000
00000000
00000000
00001300
00000010
00000100
00000000
00000001
00000000
00000000
00000000
00000200
00000000
00000010
00000000
,  // measure 16
00000000
00000000
00001300
00000000
00010000
00001000
00100000
00000000
00010000
00000000
01000000
00000000
02000000
00000000
00000000
00000000
,  // measure 17
03020000
00000000
10030000
01001000
00000000
00010000
00010000
00001000
,  // measure 18
00100000
00000000
00010000
00000000
01000000
00000000
00001000
00000000
00000100
00000000
00001000
00010000
00001000
00000000
00000100
00000000
,  // measure 19
00000001
00000000
00000010
00000000
00000000
00000000
00000110
00000000
00000000
00000000
00001000
00000010
00001000
00000000
00000001
00000000
,  // measure 20
00000100
00000000
00000001
00000000
00000001
00000010
00000001
00000000
00000000
00000000
00000010
00000000
00000100
00000000
00000000
00000000
,  // measure 21
00021000
00000000
00000000
00000000
01030000
00000000
10000000
00000000
00010000
10000000
00010000
00000000
00100000
00000000
00001000
00020000
,  // measure 22
00001000
00000000
00000000
00030100
00000000
00000000
00001100
00000000
00001000
00000001
00001000
00000000
00000010
00000000
00000100
00002000
,  // measure 23
00010000
00000000
00000000
00103000
00000000
00000000
01000000
00000000
00100000
00000000
01100000
00000000
00000000
00000000
00100000
00000000
,  // measure 24
00010000
00100000
01000000
00000000
00100000
00000000
00002000
00000000
00000000
00000000
00010000
00000000
00000000
00000000
00003100
00000000
,  // measure 25
00000010
00001000
00000001
00000010
00000110
00000100
00001000
00001001
,  // measure 26
00000000
00000001
00001001
00001000
00000010
00000110
00000000
00000100
,  // measure 27
00000101
00001000
00000010
00000100
00001010
00000100
00000001
00000010
,  // measure 28
00000100
00000000
00010100
00000000
00010000
00001000
00000000
00010000
00001000
00000000
01000000
00000000
00010000
00000000
01000000
00100000
,  // measure 29
00000000
00100000
10000000
00000000
01000000
00000000
10000000
00000000
00010000
00000000
10010000
00000000
00100000
00000000
00010000
00100000
,  // measure 30
00001000
00000000
00010000
00000000
00000100
00000000
00000000
00000000
00000010
00000000
00000001
00001000
00000001
00001000
00000001
00000000
,  // measure 31
00000100
00001000
00002000
01000000
01000000
00103000
00010000
10000000
,  // measure 32
01000000
00000000
00100000
00000000
11000000
00000000
00000000
00000000
10000000
00000000
00010000
00100000
00000000
00100000
00001000
00000000
,  // measure 33
00010000
00000000
00000100
00000000
00000001
00000000
00000100
00000000
00000110
00000000
00000100
00010000
00001000
00000000
00100000
00000000
,  // measure 34
00010100
00000000
00000000
00000000
00001000
00000000
01000000
00000000
00100000
00000000
10000000
00010000
00000000
10000000
00010000
00000000
,  // measure 35
01000000
00100000
01002000
00100000
00000000
00023000
00000100
00000000
,  // measure 36
00030010
00000000
00000101
00000000
00000010
00001010
00001000
00000101
,  // measure 37
00000000
00000000
00000100
00000010
00000100
00000000
00000010
00000000
00001000
00000000
00000100
00000000
00010000
00001000
00010000
00000000
,  // measure 38
00000000
00100000
10000000
00010000
00110000
00000000
00100000
01010000
,  // measure 39
00000000
00100000
00002000
00010000
00000000
00000100
00000000
00013000
,  // measure 40
00000100
00000010
00000001
00000000
00001000
00000100
00010000
00101000
,  // measure 41
00000000
01010000
00100000
01000000
10000000
00010000
00100000
11000000
,  // measure 42
00000000
00000000
01100000
00000000
01000000
00000000
00000000
00000000
00100000
00000000
00001000
00000000
00010000
00000000
00001000
00010000
,  // measure 43
00001000
00000000
00010000
00001000
00020000
00000000
00000000
00000000
00030100
00000000
00000010
00000000
00000100
00000000
00001000
00000000
,  // measure 44
00001001
00000000
00000200
00000000
00000301
00001010
00000100
00000110
,  // measure 45
00000000
00000000
00001000
00000000
00000100
00000000
00000000
00000000
00010000
00001000
00010000
00000000
00100000
00000000
10100000
00000000
,  // measure 46
00000000
00110000
00100000
00001000
00010000
00000100
00000010
00000110
,  // measure 47
00000000
00000200
00002000
00000300
00000001
00000000
00003010
00000100
,  // measure 48
00000002
00000000
00000010
00000000
00000103
00001010
00000100
00000101
,  // measure 49
00000000
00000001
00000100
00001000
00010000
01000000
10000000
10010000
,  // measure 50
00000000
01100000
00100000
00001000
00010000
00000100
00000010
00000001
,  // measure 51
00000000
00000000
00001001
00000000
00001000
00000000
00000000
00000000
00000010
00000100
00000010
00000000
00001000
00010000
00001000
00000000
,  // measure 52
00200000
00310000
00011000
00000000
00000000
00000000
00000000
00000000
;
