#TITLE:空色のヒーロー;
#SUBTITLE:(The Azure Hero);
#ARTIST:Garrett Williamson;
#TITLETRANSLIT:Sorairo no Hero;
#SUBTITLETRANSLIT:;
#ARTISTTRANSLIT:;
#GENRE:;
#CREDIT:8Chasey 2025;
#MUSIC:Sorairo no Hero (The Azure Hero).ogg;
#BANNER:;
#BACKGROUND:;
#CDTITLE:;
#SAMPLESTART:57.100;
#SAMPLELENGTH:12.000;
#SELECTABLE:YES;
#OFFSET:-0.171;
#BPMS:0.000=174.980;
#STOPS:;
#DISPLAYBPM:175.000;
#BGCHANGES:-0.500=Sorairo no Hero (The Azure Hero).avi=1.000=1=0=0=StretchNoLoop==CrossFade==,
265.750=Sorairo no Hero (The Azure Hero)-bg.png=1.000=0=0=0=StretchNoLoop====,
99999.000=-nosongbg-=1.000=0=0=0=StretchNoLoop====
;
#FGCHANGES:;

//--------------- dance-single - 8Chasey ----------------
#NOTES:
     dance-single:
     8Chasey:
     Beginner:
     2:
     0,0,0,0,0:
0000
0000
0000
0000
,
0000
0000
0000
0000
,
0001
0000
0000
0000
,
1000
0000
0000
0000
,
0001
0000
1000
0000
,
0010
0010
0010
0000
,
1000
0000
0000
0000
,
0001
0000
0000
0000
,
1000
0000
0001
0000
,
0100
0100
0100
0000
,
0010
0000
0000
0000
,
1000
0000
0010
0000
,
1000
0000
0000
0000
,
0001
0000
0000
0000
,
0100
0000
0000
0000
,
0001
0000
1000
0000
,
0001
0000
0000
0000
,
0100
0000
0000
0000
,
0010
0000
0100
0000
,
0010
0000
0000
0000
,
1000
0000
1000
0000
,
0001
0001
0001
0000
,
0100
0000
0010
0000
,
0100
0000
0000
0000
,
0001
0000
0001
0000
,
1000
1000
1000
0000
,
0001
0000
0000
0000
,
0100
0000
0000
0000
,
0010
0000
0100
0000
,
0010
0000
0000
0000
,
1000
0000
0000
0000
,
0010
0000
0000
0000
,
0100
0000
0010
0000
,
0100
0000
0000
0000
,
0010
0000
0000
0000
,
1000
0000
0000
0000
,
0001
0000
0000
0000
,
0100
0000
0000
0000
,
0010
0000
0010
0000
,
0100
0000
0000
0000
,
0001
0000
1000
0000
,
0010
0010
0000
0000
,
0110
0000
0000
0000
,
0100
0000
0001
0000
,
0100
0000
0000
0000
,
0001
0000
1000
1000
,
1000
0000
0000
0000
,
0010
0000
1000
0000
,
0010
0000
0000
0000
,
1000
0000
0001
0001
,
0001
0000
0000
0000
,
0100
0000
0100
0000
,
0010
0000
0010
0000
,
1000
0000
0000
0000
,
0001
0000
0001
0000
,
1000
0000
1000
1000
,
0000
0000
0000
0000
,
1001
0000
0000
0000
,
0010
0000
0000
0000
,
0100
0000
0000
0000
,
0001
0000
0001
0000
,
1000
0000
0001
0000
,
0100
0000
0000
0000
,
0010
0000
0000
0000
,
1000
0000
1000
0000
,
0001
0000
1000
0000
,
0000
0000
1001
0000
;

//--------------- dance-single - 8Chasey ----------------
#NOTES:
     dance-single:
     8Chasey:
     Easy:
     3:
     0,0,0,0,0:
0000
0000
0000
0000
,
0000
0000
0000
0000
,
1000
0100
1000
0000
,
0010
0000
1000
0000
,
0001
0100
0001
0000
,
1000
0000
0001
0000
,
0010
0001
0010
0000
,
0100
0000
1000
0000
,
0010
0000
1000
0000
0010
0000
0000
1000
,
0000
1000
0000
0001
0000
0001
0000
0000
,
0010
0000
0001
1000
,
0001
0000
0100
0000
,
0002
0000
0000
0003
,
1000
0100
1000
0000
,
0010
0000
1000
0001
,
1000
0000
0100
0000
,
2000
0000
0000
3000
,
0001
0100
0001
0000
,
0010
0000
0100
0000
,
1000
0100
1000
0000
,
0001
0000
0100
0000
,
0001
0001
1000
0000
,
0010
0000
0100
0000
,
0001
0100
0001
0000
,
1000
0000
0000
0000
0001
0000
0000
0100
,
0000
0100
0000
0010
0000
0010
0000
0000
,
0200
0000
0310
0000
,
2000
0000
3001
0000
,
1000
0000
1000
0000
,
2000
0000
3000
0000
,
0020
0000
0130
0000
,
0002
0000
1003
0000
,
0001
0000
0001
0000
,
0002
0000
0003
0000
,
0200
0000
0310
0000
,
1000
0010
1000
0000
,
0001
0000
1000
0000
,
0020
0000
0130
0000
,
0001
0000
1000
0001
,
1000
0000
0010
0000
,
1000
0000
0001
0000
,
2002
0000
3003
0000
,
0001
0010
0000
0010
,
0000
0010
0000
0001
,
1000
0000
0001
0000
,
1000
1000
0001
0000
,
1000
0010
0000
0010
,
0000
0010
0000
1000
,
0001
0000
0100
0000
,
0020
0000
0130
0000
,
0110
0000
0010
0000
,
2000
0000
0000
3000
,
0001
0000
1000
0000
,
0002
0000
0000
0003
,
0100
0010
0100
0000
,
0010
0000
0100
0200
,
0000
0000
0310
0000
,
1001
0000
0000
0000
,
0001
0100
0001
0000
,
0010
0000
0001
0000
,
1000
0100
1000
0000
,
0001
0000
1000
0000
,
0010
1000
0010
0000
,
0100
0000
0001
0000
,
0020
0030
0200
0300
,
1000
0001
1000
0001
,
0000
0000
2002
0000
,
0000
0000
0000
0000
,
0000
0000
0000
0000
,
3003
0000
0000
0000
;

//--------------- dance-single - 8Chasey ----------------
#NOTES:
     dance-single:
     8Chasey:
     Medium:
     6:
     0,0,0,0,0:
0000
0000
0000
0000
,
0000
0000
0000
0000
0000
0000
0000
1001
,
0000
0000
0001
0000
0010
0001
0000
1000
,
0000
0100
1000
0000
0010
0000
0100
0010
,
0000
0010
0100
0000
0001
0010
0000
0100
,
0000
1000
0100
1000
0000
0001
1000
0000
,
1001
0000
0001
0000
0100
0010
0000
0100
,
0000
0001
0010
0000
0100
0010
0000
0100
,
1000
0000
0001
0000
0100
0010
0000
0200
,
0000
0010
0000
0310
0000
0110
0000
0000
,
1000
0000
0100
1000
0000
0010
0000
0200
,
0000
0000
0310
0000
0100
0000
0001
0100
,
0002
1000
0000
1003
,
0100
0000
1000
0000
0010
0000
1000
0001
,
0000
0000
0100
0001
0000
0010
0000
0200
,
0000
0000
0310
0000
0100
0000
1000
0100
,
2000
0001
0000
3001
,
0100
0000
0001
0000
1000
0000
0000
1001
,
0000
0000
0001
0010
0000
0001
0000
0100
,
0000
0001
1000
0000
0100
0000
0010
0100
,
0020
0100
0000
0130
,
1000
0000
0010
0000
0100
0000
0001
0100
,
0000
0000
0001
0010
0000
0001
0000
2000
,
0000
0000
3010
0000
0100
0010
0000
0010
,
0200
0000
0010
0000
0000
0000
0310
1000
,
0000
0001
0000
1001
0000
1001
0000
0000
,
2000
0000
0000
0000
3100
0000
1000
0020
,
0000
0000
0130
0000
0001
0000
0010
0200
,
0000
0000
0310
0000
0001
0000
0100
0001
,
0000
1000
0001
1000
0000
0001
0000
1001
,
0000
0000
1000
0000
0010
0000
0100
0002
,
0000
0000
0013
0000
0001
0000
1000
0001
,
1000
0000
0010
0100
0000
0010
0000
2000
,
0000
0000
3001
0010
0000
0001
0100
0000
,
0020
0000
0000
0000
0130
0000
0001
0010
,
0000
0001
1001
1000
,
0100
0000
1000
0010
0000
1000
0000
0002
,
0000
0000
0103
0000
0001
0010
0001
0000
,
0010
0000
0100
0010
0000
0100
0000
2000
,
0000
0001
0001
3001
,
0010
0000
0001
0100
0000
0110
0000
0010
,
0000
1000
0001
0000
0000
0000
0000
1001
,
0000
0000
0001
0000
0010
0100
0010
0000
,
0100
0000
1000
0010
0000
1000
0000
0002
,
0000
0000
0013
0000
0100
0010
0000
0100
,
0000
0000
1000
0100
1000
0000
0001
0200
,
0000
0000
0310
0000
0100
0000
0001
0010
,
0001
0000
0010
0100
0000
1000
0000
1100
,
0000
0000
1000
0000
0010
1000
0010
0000
,
0100
0000
0001
0000
0010
0001
0010
0002
,
0000
0000
0103
0000
0010
1000
0010
0000
,
1000
0000
0100
0010
0000
0100
0000
0010
,
0000
0001
0010
0000
0001
0000
0100
0000
,
0020
0000
0000
1000
0000
1030
0000
1001
,
0000
0001
0000
0100
0000
0010
0100
0020
,
0000
1030
0100
0110
,
0010
0001
0010
0000
0001
0000
1000
0000
,
0001
0200
0000
0000
0000
0300
0000
0110
,
0000
0000
0010
0000
1000
0100
0000
2000
,
0000
3010
0100
0001
,
0010
0000
0100
0000
1000
0001
0000
1000
,
0001
0000
0100
0000
0001
1000
0000
0020
,
0000
0000
1030
0000
0100
1000
0000
0200
,
0000
0000
0310
0000
0001
0010
0001
0000
,
1000
0000
0010
1000
0000
0000
0100
1000
,
0000
0001
0100
0000
0001
0000
1000
0000
,
0001
0000
2002
0000
,
0000
0000
0000
0000
,
0000
0000
0000
0000
,
0000
3003
0000
0000
;

//--------------- dance-single - 8Chasey ----------------
#NOTES:
     dance-single:
     8Chasey:
     Hard:
     8:
     0,0,0,0,0:
0000
0000
0000
0000
,
0000
0000
0000
0000
0000
0000
0000
0110
,
0000
0100
0001
0100
0010
1000
0000
0100
,
0000
0100
1000
0001
0100
0000
0100
0010
,
0000
0100
0001
1000
0100
0010
0000
0100
,
0000
1000
0001
0100
0000
0100
0001
0000
,
1001
0000
1000
0010
1000
0001
0000
0010
,
0000
0010
0001
0100
0010
0000
1000
0100
,
1000
0000
0001
0010
0100
0010
0001
0011
,
0000
0101
0000
1010
0000
2200
0000
3300
,
1000
0000
0010
0100
0000
0001
0100
0002
,
0010
0000
0010
0000
0103
0000
0010
2000
,
0100
0000
0001
0000
0100
3100
0000
1000
,
0010
1000
0000
0001
0000
0100
0001
0010
,
0000
0001
0100
0010
0000
1000
0100
2000
,
0010
0000
0010
0000
3001
0000
0100
0002
,
0010
0000
0010
0000
1000
1003
0000
0010
,
0000
0000
1000
0000
0100
0000
2000
0000
0001
0000
0000
0001
0000
0000
3001
0000
,
0000
1000
0100
0001
0000
0100
0010
0001
,
0000
0100
0001
1000
0100
0010
0000
0210
,
0000
1000
1000
0000
0310
0000
0001
1000
,
0000
0000
0001
0000
0100
0000
0010
0000
1000
0000
0000
0010
1000
0000
0020
0000
,
0000
0000
0130
0001
0000
0010
0001
0100
,
0000
0100
0010
0000
1000
0100
0010
0200
,
0000
1000
1000
0000
0310
0001
0100
0101
,
0000
1010
0000
0110
0000
2002
0000
3003
,
2000
0000
0100
0000
3100
1000
0010
0200
,
0000
0000
0301
0000
0010
0001
0000
0002
,
0100
0000
1000
0000
1003
0010
0100
0020
,
0000
1000
1000
1030
0000
1100
0000
0012
,
0000
0000
1000
0000
0103
0010
1000
0100
,
0000
1000
0001
0000
0100
0000
0100
0001
,
0020
0000
0100
0130
0000
1000
0010
1000
,
0000
0100
1000
0002
0000
0000
0103
0000
,
0110
0000
0010
0000
1000
0001
0010
0001
,
0000
1000
0010
0000
1010
0000
1000
0000
,
0100
1000
0010
0100
0000
0101
0000
2001
,
0000
0000
3100
0000
0010
0001
0010
0000
,
0110
0000
0010
0002
0000
1000
0000
2003
,
0000
0100
0100
0000
0001
0000
3010
0000
,
0101
0000
0001
0010
0000
1100
0000
1001
,
0000
0002
2000
0000
0000
3003
0000
0110
,
0000
0010
0100
0000
0001
1000
0100
0000
,
1000
0100
1000
0010
0000
0100
0000
0102
,
0000
0000
0010
0000
1003
0000
0100
2000
,
0000
0010
0000
3001
0010
0001
0100
0020
,
0000
0000
1000
0000
0130
0001
0100
0010
,
1000
0000
0100
1000
0000
0001
0100
0002
,
0000
0010
0010
0000
0103
0010
1000
0000
,
0100
1000
0001
0100
0001
0010
0100
0020
,
0000
0000
0031
0000
0100
0010
1000
0000
,
0100
0010
0000
0011
0000
0001
0100
0020
,
0000
1000
1030
0000
0100
1000
0100
0000
,
2000
0000
0010
0000
3100
0010
0001
0100
,
0000
0001
0010
0100
0000
1000
0010
0100
,
0000
0100
0001
0000
0011
0000
1100
0000
,
1000
0010
1000
0001
0100
0001
0010
0000
,
0210
0020
0000
0000
0000
0330
0000
1001
,
0000
0001
0100
0010
0100
0001
1000
0100
,
1000
0010
0100
0000
0100
0001
0000
2000
,
0000
0010
0010
0000
3001
0010
0000
0001
,
0100
0001
1000
0100
0010
0001
0000
1001
,
0000
1000
0010
0000
0100
0001
0100
0020
,
0000
1000
1000
0000
0130
0001
0100
0000
,
0100
0010
1000
1100
0000
0010
0001
0101
,
0000
0100
0010
0000
2010
0000
3100
0010
,
0002
0003
2002
0000
,
0000
0000
0000
0000
,
0000
0000
0000
0000
,
0000
0000
3003
0000
;

//--------------- dance-double - 8Chasey ----------------
#NOTES:
     dance-double:
     8Chasey:
     Easy:
     3:
     0,0,0,0,0:
00000000
00000000
00000000
00000000
,
00000000
00000000
00000000
00000000
,
00010000
00001000
00010000
00000000
,
00000100
00000000
00010000
00000000
,
00001000
00010000
00001000
00000000
,
01000000
00000000
00001000
00000000
,
00100000
00001000
00100000
00000000
,
00010000
10000000
00010000
00000000
,
10000000
00000000
00000000
00000000
00100000
00000000
00000000
10000000
,
00000000
10000000
00000000
00010000
00000000
00010000
00000000
00000000
,
00100000
00000000
00001000
00010000
,
00001000
00000000
00010000
00000000
,
00000020
00000000
00000000
00000030
,
00001000
00000100
00001000
00000000
,
00000001
00000000
00000100
00000010
,
00000100
00000000
00001000
00000000
,
00020000
00000000
00000000
00030000
,
00001000
00010000
00001000
00000000
,
01000000
00000000
00100000
10000000
,
00100000
00000000
10000000
00000000
,
01000000
00000000
00100000
00010000
,
00100000
00000000
00001000
01000000
,
00001000
00000000
00010000
00000010
,
00010000
00000000
00000020
00000000
,
00000130
00000000
00000000
00000000
00000001
00000000
00000000
00000100
,
00000000
00000100
00000000
00000010
00000000
00000010
00000000
00000000
,
00020000
00000000
00031000
00000000
,
02000000
00000000
03100000
00000000
,
10000000
00000000
01000000
01000000
,
20000000
00000000
30000000
00000000
,
00200000
00000000
01300000
00000000
,
00002000
00000000
00013000
00000000
,
00000010
00000000
00000100
00000100
,
00000002
00000000
00000003
00000000
,
00002000
00000000
00003100
00000000
,
00010000
00001000
00010000
00000000
,
00001000
00000000
00100000
00010000
,
00100000
00000000
01000000
00000000
,
10000000
00000000
00010000
10000000
,
00010000
00000000
01000000
00000000
,
00001000
00010000
00001000
00000000
,
00022000
00000000
00033000
00000000
,
00010000
00000010
00000000
00000010
,
00000000
00000010
00000000
00010000
,
00001000
00000000
00100000
00000000
,
00001000
00010000
00001000
00010000
,
00001000
00100000
00000000
00100000
,
00000000
00100000
00000000
00001000
,
00010000
00000000
00000100
00001000
,
00000100
00000000
00001000
00000000
,
00001001
00000000
00000002
00000000
,
00002003
00000000
00003010
00000000
,
00010000
00001000
00010000
00000000
,
00200000
00000000
01300000
00000000
,
00010000
01000000
00010000
00000000
,
10000000
00000000
00100000
00200000
,
00000000
00000000
01300000
00000000
,
10010000
00000000
00000000
00000000
,
10000000
00100000
10000000
00000000
,
00010000
00000000
01000000
00000000
,
00001000
00010000
00001000
00000000
,
00010000
00000000
00000010
00000000
,
00000100
00000001
00000100
00000000
,
00000010
00000000
00001000
00000000
,
00000100
00000010
00000100
00000000
,
00010000
00000100
00010000
00001000
,
00000000
00000000
00022000
00000000
,
00000000
00000000
00000000
00000000
,
00000000
00000000
00000000
00000000
,
00033000
00000000
00000000
00000000
;

//--------------- dance-double - 8Chasey ----------------
#NOTES:
     dance-double:
     8Chasey:
     Medium:
     6:
     0,0,0,0,0:
00000000
00000000
00000000
00000000
,
00000000
00000000
00000000
00000000
00000000
00000000
00000000
00011000
,
00000000
00000000
00010000
00000000
00000100
00001000
00000000
00000010
,
00000000
00000100
00000010
00000000
00001000
00000000
00000100
00010000
,
00000000
00010000
00001000
00000000
01000000
00010000
00000000
00100000
,
00000000
00001000
01000000
00001000
00000000
00100000
00010000
00000000
,
10010000
00000000
10000000
00000000
01000000
00100000
00000000
00001000
,
00000000
00010000
00000100
00000000
00001000
00000010
00001000
00000000
,
00000001
00000000
00001001
00000000
00001000
00000100
00000000
00000020
,
00000000
00000100
00000000
00000130
00000000
00000110
00000000
00000000
,
00001000
00000000
00000100
00010000
00000000
00001000
00000000
00100000
,
00010000
00000000
00100000
00000000
01000000
00000000
01000000
20000000
,
00000000
00100000
00000000
30100000
,
01000000
00010000
01000000
00000000
00001000
00000000
00010000
00000020
,
00000000
00000000
00000130
00000000
00000001
00000100
00000000
00000020
,
00000000
00000000
00001030
00000000
00000100
00000000
00010000
00002000
,
00000000
01000000
00000000
01003000
,
00100000
00000000
00000000
00000000
10000000
00000000
00000000
00000000
00010000
00000000
00000000
10000000
00000000
00000000
00010000
00000000
,
00000000
00000000
00100000
00001000
00000000
00010000
00000000
00010000
,
00000100
00000000
00000010
00000000
00000001
00000010
00000000
00000002
,
00000000
00000100
00000000
00000103
,
00000010
00000000
00001000
00000000
00000100
00000000
00010000
00001000
,
00000000
00000000
00100000
00010000
00000000
01000000
00000000
01000000
,
00010000
00000000
10000000
00000000
01000000
10000000
00000000
10000000
,
00020000
00000000
00130000
00000000
00001000
00020000
00000000
00030100
,
00000000
00000010
00000000
00000110
00000000
00001001
00000000
00000000
,
00000002
00000000
00000000
00000000
00000013
00000000
00000001
00002000
,
00000000
00000000
00003100
00000000
00010000
00000000
00000100
00000020
,
00000000
00000000
00000130
00001000
00000000
00000100
00010000
00001000
,
00000000
00100000
00010000
00100000
00000000
01000000
00000000
01100000
,
00000000
00000000
00200000
00000000
00010000
00000000
00310000
20000000
,
00000000
00000000
31000000
00000000
00100000
00000000
00001000
00010000
,
00001000
00000000
00010000
00000100
00000000
00000010
00000000
00001001
,
00000000
00000001
00000100
00001000
00000000
00010000
00001000
00000000
,
00200000
00000000
00000000
00000000
01300000
00000000
10000000
01000000
,
00000000
10000000
00100000
00000000
01100000
00000000
01000000
00000000
,
00001000
00000000
00010000
00000020
00000000
00001000
00000000
00002030
,
00000000
00000000
00003100
00000000
00010000
00001000
00010000
00000000
,
00001000
00000000
01000000
00010000
00000000
00100000
00000000
00020000
,
00000000
00000000
10000000
00000000
10030000
00000000
00010000
00100000
,
00010000
00000000
10000000
01000000
00000000
01100000
00000000
00100000
,
00000000
00001000
00010000
00000000
00000000
00000000
00000000
00011000
,
00000000
00000000
00010000
00000000
00000010
00001000
00000010
00000000
,
00000100
00000000
00000001
00000100
00000000
00001000
00000000
00020000
,
00000000
00000000
00030100
00000000
00010000
00001000
00000000
01000000
,
00000000
00100000
10000000
00000000
01000000
00000000
10000000
00020000
,
00000000
00000000
00130000
00000000
00001000
01000000
00001000
00000000
,
00010000
00000000
00010000
00000100
00000000
00000010
00000000
00000011
,
00000000
00000000
00000001
00000000
00000100
00000001
00000100
00000000
,
00001000
00000000
00010000
00000000
00000010
00001000
00000010
00002000
,
00000000
00000000
00003001
00000000
00000010
00000001
00000010
00000000
,
00000001
00000000
00000100
00000010
00000000
00001000
00000000
00000010
,
00000000
00001000
00000100
00000000
00010000
00000000
00001000
00000000
,
02000000
00000000
00000000
00000000
03100000
00000000
10000000
00010000
,
00000000
00100000
00000000
00010000
00000000
01000000
00100000
02000000
,
00000000
03010000
10000000
10010000
,
00010000
00100000
00010000
00000000
10000000
00000000
01000000
00000000
,
10000000
00200000
00000000
00000000
00000000
00300000
00000000
01100000
,
00000000
00000000
10010000
00000000
10000000
01000000
00000000
20000000
,
00000000
00000000
30010000
00000000
00100000
00000000
00001000
00010000
,
00000000
00010000
00000100
00000000
00001000
00000001
00000000
00001000
,
00000001
00000000
00000100
00000000
00000001
00001000
00000000
00000020
,
00000000
00000000
00000130
00000000
00000001
00000100
00000000
00002000
,
00000000
00000000
00013000
00000000
00001000
00100000
00001000
00000000
,
01000000
00000000
00010000
00100000
00000000
00010000
10000000
00010000
,
00000000
00100000
01000000
00000000
00100000
00000000
00001000
00000000
,
00010000
00000000
00022000
00000000
,
00000000
00000000
00000000
00000000
,
00000000
00000000
00000000
00000000
,
00000000
00033000
00000000
00000000
;

//--------------- dance-double - 8Chasey ----------------
#NOTES:
     dance-double:
     8Chasey:
     Hard:
     9:
     0,0,0,0,0:
00000000
00000000
00000000
00000000
,
00000000
00000000
00000000
00000000
00000000
00000000
00000000
01100000
,
00000000
01000000
10000000
01000000
00100000
00001000
00000000
00010000
,
00000000
00000010
00001000
00000100
00001000
00000000
00000001
00000100
,
00000000
00000100
00000010
00001000
00000100
00010000
00000000
00011000
,
00000000
00001000
00100000
00020000
00000000
01030000
00100000
00000000
,
10010000
00000000
10000000
01000000
10000000
00010000
00000000
00100000
,
00000000
01000000
00100000
00001000
00010000
00000000
00000100
00001000
,
00000010
00000000
00000100
00000001
00000010
00000100
00010000
00010010
,
00000000
00010100
00000000
00101000
00000000
02002000
00000000
03003000
,
01000000
00010000
01000000
00100000
00000000
10000000
00100000
20000000
,
01000000
00000000
01000000
00000000
30100000
01000000
00010000
00200000
,
00001000
00000000
00010000
00000000
00001000
00301000
00000000
00010000
,
00000100
00010000
00000000
00000010
00000100
00000001
00000100
00000010
,
00000000
00001000
00000100
00000010
00000000
00000100
00001000
00000002
,
00000100
00000000
00000100
00000000
00000013
00000100
00001000
00000020
,
00001000
00000000
00010000
00000000
00001000
00001030
00000000
00000100
,
00000000
00000000
00010000
00000000
00001000
00000000
00100000
00000000
00110000
00000000
00000000
10010000
00000000
00000000
01010000
00000000
,
00000000
00010000
00100000
10000000
00000000
00100000
00001000
00010000
,
00000000
00000100
00001000
00000010
00001000
00000100
00000000
00000120
,
00000000
00000001
00000001
00000000
00000130
00000000
00001000
00000100
,
00000000
00000000
00000100
00000000
00010000
00000000
00001000
00000000
00100000
00000000
00000000
00100000
00010000
00000000
02000000
00000000
,
00000000
00010000
03010000
00100000
00010000
10000000
01000000
10000000
,
00000000
10000000
00100000
00000000
01000000
00010000
00100000
00002000
,
00000000
00010000
00010000
00000000
01003000
00010000
00100000
01100000
,
00000000
10010000
00000000
00011000
00000000
00002002
00000000
00003003
,
00000012
00000000
00000010
00000000
00000103
00000010
00001000
00000020
,
00000000
00000000
00000130
00000000
00001000
00010000
00000000
00002000
,
00000000
00000000
00100000
00000000
01003000
00010000
01000000
00200000
,
00000000
10000000
10000000
10300000
00000000
01010000
00000000
00021000
,
00000000
00000000
00000100
00000000
00030010
00001000
00000010
00000100
,
00000000
00000100
00000001
00000000
00000010
00000000
00000001
00000100
,
00000002
00000000
00001000
00001003
00000000
00000010
00001000
00000010
,
00000000
00001000
00000100
00020000
00000000
00000000
00031000
00000000
,
00011000
00000000
00001000
00000000
00100000
00010000
00100000
01000000
,
00000000
10000000
01000000
00000000
01100000
00000000
00100000
00000000
,
00001000
00010000
00000100
00001000
00000000
00001010
00000000
00000102
,
00000000
00000000
00000013
00000000
00000100
00010000
00001000
00000000
,
00011000
00000000
00010000
00200000
00000000
01000000
00000000
02300000
,
00000000
00010000
00010000
00000000
00100000
00000000
03001000
00000000
,
00011000
00000000
00010000
00000100
00000000
00000110
00000000
00001001
,
00000000
00000002
00002000
00000000
00000000
00003003
00000000
00011000
,
00000000
00001000
00100000
00000000
00010000
01000000
10000000
00000000
,
01000000
00100000
10000000
01000000
00000000
11000000
00000000
00120000
,
00000000
00000000
10000000
00000000
01030000
00100000
10000000
02000000
,
00000000
10000000
00000000
03100000
00001000
00010000
00001000
00200000
,
00000000
01000000
01000000
00000000
00301000
00010000
00000100
00000010
,
00000100
00000000
00001000
00000010
00000000
00000100
00000001
00000200
,
00000000
00000010
00000010
00000000
00000301
00000010
00000001
00000000
,
00001000
00000100
00001000
00000010
00000100
00001000
00010000
00002000
,
00000000
00100000
00103000
00000000
01000000
00100000
00010000
00000000
,
01000000
00100000
00000000
10100000
00000000
10000000
01000000
00020000
,
00000000
00001000
00031000
00000000
00100000
00001000
00010000
00000000
,
00000020
00000000
00000100
00000000
00001030
00000100
00000010
00000001
,
00000000
00000100
00001000
00010000
00000000
00010100
00000000
00101000
,
00000000
00100000
01000000
00000000
11000000
00000000
00110000
00000000
,
00100000
00001000
00010000
00000010
00010000
00001000
01000000
00000000
,
02100000
00200000
00000000
00000000
00000000
03300000
00000000
10010000
,
00000000
00010000
00100000
00001000
00010000
00000010
00001000
00000010
,
00000100
00000001
00000010
00000000
00000001
00000100
00000000
00000002
,
00000000
00000010
00000010
00000000
00001003
00000100
00000000
00010000
,
00001000
00010000
00100000
10000000
00010000
00100000
00000000
01100000
,
00000000
01000000
10000000
00000000
00010000
01000000
00001000
00020000
,
00000000
00000010
00000010
00000000
00030100
00010000
00001000
00000000
,
00100000
01000000
10000000
10100000
00000000
01000000
00010000
00110000
,
00000000
00100000
01000000
00000000
21000000
00000000
30010000
00100000
,
00002000
00000000
00000000
00003000
00022000
00000000
00000000
00000000
,
00000000
00000000
00000000
00000000
,
00000000
00000000
00000000
00000000
,
00000000
00000000
00033000
00000000
;
